osu file format v14

[General]
AudioFilename: H.mp3
AudioLeadIn: 0
PreviewTime: 29251
Countdown: 0
SampleSet: Normal
StackLeniency: 0.7
Mode: 1
LetterboxInBreaks: 0
WidescreenStoryboard: 1

[Editor]
Bookmarks: 1970,7551,18714,29876,41388,52202
DistanceSpacing: 0.8
BeatDivisor: 2
GridSize: 32
TimelineZoom: 0.7500001

[Metadata]
Title:yukai young
TitleUnicode:yukai young
Artist:jan Misali
ArtistUnicode:jan Misali
Creator:yenmaster
Version:kantan
Source:涼宮ハルヒの憂鬱
Tags:novelty english pop ke$ha kesha Die Young suzumiya Haruhi Aya Hirano 平野綾 ハレ晴レユカイ hare hare yukai mashup the melancholy of haruhi suzumiya anime
BeatmapID:3295421
BeatmapSetID:1614152

[Difficulty]
HPDrainRate:9
CircleSize:10
OverallDifficulty:2
ApproachRate:10
SliderMultiplier:1.4
SliderTickRate:1

[Events]
//Background and Video events
0,0,"jpg.jpg",0,-10
//Break Periods
//Storyboard Layer 0 (Background)
//Storyboard Layer 1 (Fail)
//Storyboard Layer 2 (Pass)
//Storyboard Layer 3 (Foreground)
//Storyboard Layer 4 (Overlay)
//Storyboard Sound Samples

[TimingPoints]
1970,348.837209302325,4,1,0,70,1,0
7628,-100,4,1,0,60,0,0
17308,-100,4,1,0,61,0,0
17657,-100,4,1,0,63,0,0
18006,-100,4,1,0,65,0,0
18355,-100,4,1,0,67,0,0
18704,-100,4,1,0,69,0,0
18791,-100,4,1,0,60,0,0
24208,-100,4,1,0,70,0,0
29876,-100,4,1,0,80,0,1
41039,-100,4,1,0,80,0,0
41388,-100,4,1,0,80,0,1
52279,-100,4,1,0,75,0,1
56388,-100,4,1,0,65,0,0

[HitObjects]
256,512,574,5,12,0:0:0:0:
256,512,1970,1,4,0:0:0:0:
256,512,2493,1,8,0:0:0:0:
256,512,3365,1,0,0:0:0:0:
256,512,3888,1,8,0:0:0:0:
256,512,4760,1,0,0:0:0:0:
256,512,5109,1,8,0:0:0:0:
256,512,5458,1,0,0:0:0:0:
256,512,6156,1,8,0:0:0:0:
256,512,7551,1,12,0:0:0:0:
256,512,7900,1,0,0:0:0:0:
256,512,8249,1,8,0:0:0:0:
256,512,8946,1,0,0:0:0:0:
256,512,9644,1,8,0:0:0:0:
256,512,10342,1,8,0:0:0:0:
256,512,10690,1,8,0:0:0:0:
256,512,11039,1,8,0:0:0:0:
256,512,11737,1,0,0:0:0:0:
256,512,12783,1,0,0:0:0:0:
256,512,13132,1,8,0:0:0:0:
256,512,13830,1,0,0:0:0:0:
256,512,14179,1,0,0:0:0:0:
256,512,14528,1,8,0:0:0:0:
256,512,15574,1,8,0:0:0:0:
256,512,15923,1,0,0:0:0:0:
256,512,16272,1,8,0:0:0:0:
256,512,16621,1,0,0:0:0:0:
256,512,17318,1,0,0:0:0:0:
256,512,17667,1,8,0:0:0:0:
256,512,18016,1,0,0:0:0:0:
256,512,18365,1,8,0:0:0:0:
256,512,18714,1,4,0:0:0:0:
256,512,20109,1,8,0:0:0:0:
256,512,21504,1,0,0:0:0:0:
256,512,22202,1,8,0:0:0:0:
256,512,22900,1,0,0:0:0:0:
256,512,23946,1,8,0:0:0:0:
256,512,24295,1,4,0:0:0:0:
256,512,25690,1,8,0:0:0:0:
256,512,26214,1,0,0:0:0:0:
256,512,27086,1,8,0:0:0:0:
256,512,27435,1,0,0:0:0:0:
256,512,27783,1,8,0:0:0:0:
256,512,28481,1,8,0:0:0:0:
256,512,29876,1,12,0:0:0:0:
256,512,30225,1,0,0:0:0:0:
256,512,30574,1,0,0:0:0:0:
256,512,31272,1,8,0:0:0:0:
256,512,31795,1,0,0:0:0:0:
256,512,32667,1,0,0:0:0:0:
256,512,33016,1,8,0:0:0:0:
256,512,33365,1,0,0:0:0:0:
256,512,34063,1,8,0:0:0:0:
256,512,34411,1,8,0:0:0:0:
256,512,34760,1,0,0:0:0:0:
256,512,35109,1,8,0:0:0:0:
256,512,35458,1,0,0:0:0:0:
256,512,36504,1,8,0:0:0:0:
256,512,36853,1,0,0:0:0:0:
256,512,37376,1,8,0:0:0:0:
256,512,38249,1,0,0:0:0:0:
256,512,38597,1,8,0:0:0:0:
256,512,38946,1,0,0:0:0:0:
256,512,39644,1,8,0:0:0:0:
256,512,40342,1,8,0:0:0:0:
256,512,41388,1,6,0:0:0:0:
256,512,41737,1,0,0:0:0:0:
256,512,42435,1,8,0:0:0:0:
256,512,42958,1,0,0:0:0:0:
256,512,43830,1,0,0:0:0:0:
256,512,44179,1,8,0:0:0:0:
256,512,44528,1,0,0:0:0:0:
256,512,45225,1,8,0:0:0:0:
256,512,45574,1,8,0:0:0:0:
256,512,45923,1,0,0:0:0:0:
256,512,46272,1,0,0:0:0:0:
256,512,46621,1,8,0:0:0:0:
256,512,47667,1,0,0:0:0:0:
256,512,48016,1,8,0:0:0:0:
256,512,48539,1,8,0:0:0:0:
256,512,49411,1,0,0:0:0:0:
256,512,49760,1,8,0:0:0:0:
256,512,50109,1,0,0:0:0:0:
256,512,50807,1,8,0:0:0:0:
256,512,51504,1,8,0:0:0:0:
256,512,52202,1,0,0:0:0:0:
256,512,53597,1,0,0:0:0:0:
256,512,54295,1,0,0:0:0:0:
256,512,54644,1,8,0:0:0:0:
256,512,54993,1,0,0:0:0:0:
256,512,56388,1,0,0:0:0:0:
256,512,57086,1,0,0:0:0:0:
256,512,57435,1,8,0:0:0:0:
256,512,57783,1,0,0:0:0:0:
256,512,58481,1,8,0:0:0:0:
256,512,59179,1,0,0:0:0:0:
256,512,59876,1,0,0:0:0:0:
256,512,60225,1,8,0:0:0:0:
256,512,60749,1,0,0:0:0:0:
256,512,61446,1,0,0:0:0:0:
256,512,61795,1,8,0:0:0:0:
256,512,62493,1,0,0:0:0:0:
256,512,63190,1,8,0:0:0:0:
256,512,63539,1,0,0:0:0:0:
