osu file format v14

[General]
AudioFilename: H.mp3
AudioLeadIn: 0
PreviewTime: 29251
Countdown: 0
SampleSet: Normal
StackLeniency: 0.7
Mode: 1
LetterboxInBreaks: 0
WidescreenStoryboard: 1

[Editor]
Bookmarks: 1970,7551,18714,29876,41388,52202
DistanceSpacing: 0.8
BeatDivisor: 2
GridSize: 32
TimelineZoom: 0.8500001

[Metadata]
Title:yukai young
TitleUnicode:yukai young
Artist:jan Misali
ArtistUnicode:jan Misali
Creator:yenmaster
Version:futsuu
Source:涼宮ハルヒの憂鬱
Tags:novelty english pop ke$ha kesha Die Young suzumiya Haruhi Aya Hirano 平野綾 ハレ晴レユカイ hare hare yukai mashup the melancholy of haruhi suzumiya anime
BeatmapID:3295419
BeatmapSetID:1614152

[Difficulty]
HPDrainRate:8
CircleSize:9.2
OverallDifficulty:3
ApproachRate:10
SliderMultiplier:1.4
SliderTickRate:1

[Events]
//Background and Video events
0,0,"jpg.jpg",0,-10
//Break Periods
//Storyboard Layer 0 (Background)
//Storyboard Layer 1 (Fail)
//Storyboard Layer 2 (Pass)
//Storyboard Layer 3 (Foreground)
//Storyboard Layer 4 (Overlay)
//Storyboard Sound Samples

[TimingPoints]
1970,348.837209302325,4,1,0,70,1,0
7628,-100,4,1,0,60,0,0
17308,-100,4,1,0,61,0,0
17657,-100,4,1,0,63,0,0
18006,-100,4,1,0,65,0,0
18355,-100,4,1,0,67,0,0
18704,-100,4,1,0,69,0,0
18791,-100,4,1,0,60,0,0
24208,-100,4,1,0,70,0,0
29876,-95.2380952380952,4,1,0,80,0,1
41039,-95.2380952380952,4,1,0,80,0,0
41388,-95.2380952380952,4,1,0,80,0,1
52279,-95.2380952380952,4,1,0,75,0,1
56388,-100,4,1,0,65,0,0

[HitObjects]
256,512,574,5,12,0:0:0:0:
256,512,923,1,0,0:0:0:0:
256,512,1272,1,8,0:0:0:0:
256,512,1621,1,8,0:0:0:0:
256,512,1970,1,4,0:0:0:0:
256,512,2318,1,8,0:0:0:0:
256,512,2493,1,8,0:0:0:0:
256,512,2842,1,8,0:0:0:0:
256,512,3365,1,4,0:0:0:0:
256,512,3714,1,8,0:0:0:0:
256,512,3888,1,0,0:0:0:0:
256,512,4237,1,8,0:0:0:0:
256,512,4760,1,4,0:0:0:0:
256,512,4935,1,8,0:0:0:0:
256,512,5109,1,8,0:0:0:0:
256,512,5283,1,0,0:0:0:0:
256,512,5458,1,8,0:0:0:0:
256,512,5807,1,8,0:0:0:0:
256,512,5981,1,0,0:0:0:0:
256,512,6330,1,0,0:0:0:0:
256,512,6679,1,0,0:0:0:0:
256,512,7028,1,8,0:0:0:0:
256,512,7202,1,8,0:0:0:0:
256,512,7376,1,8,0:0:0:0:
256,512,7551,1,4,0:0:0:0:
256,512,8249,1,8,0:0:0:0:
256,512,8597,1,8,0:0:0:0:
256,512,8946,1,8,0:0:0:0:
256,512,9121,1,0,0:0:0:0:
256,512,9295,1,8,0:0:0:0:
256,512,9644,1,0,0:0:0:0:
256,512,9993,1,8,0:0:0:0:
256,512,10342,1,0,0:0:0:0:
256,512,10690,1,0,0:0:0:0:
256,512,11039,1,8,0:0:0:0:
256,512,11214,1,8,0:0:0:0:
256,512,11388,1,0,0:0:0:0:
256,512,11737,1,0,0:0:0:0:
256,512,12086,1,8,0:0:0:0:
256,512,12435,1,0,0:0:0:0:
256,512,13132,1,12,0:0:0:0:
256,512,13481,1,8,0:0:0:0:
256,512,13656,1,0,0:0:0:0:
256,512,13830,1,8,0:0:0:0:
256,512,14179,1,0,0:0:0:0:
256,512,14528,1,0,0:0:0:0:
256,512,14876,1,8,0:0:0:0:
256,512,15051,1,8,0:0:0:0:
256,512,15400,1,0,0:0:0:0:
256,512,15574,1,8,0:0:0:0:
256,512,15923,1,0,0:0:0:0:
256,512,16272,1,8,0:0:0:0:
256,512,16446,1,8,0:0:0:0:
256,512,16621,1,0,0:0:0:0:
256,512,16969,1,8,0:0:0:0:
256,512,17318,1,0,0:0:0:0:
256,512,17667,1,8,0:0:0:0:
256,512,18016,1,0,0:0:0:0:
256,512,18365,1,8,0:0:0:0:
256,512,18714,1,4,0:0:0:0:
256,512,19411,1,8,0:0:0:0:
256,512,19760,1,0,0:0:0:0:
256,512,20109,1,8,0:0:0:0:
256,512,20632,1,0,0:0:0:0:
256,512,21156,1,8,0:0:0:0:
256,512,21504,1,0,0:0:0:0:
256,512,22202,1,8,0:0:0:0:
256,512,22551,1,8,0:0:0:0:
256,512,22900,1,0,0:0:0:0:
256,512,23423,1,8,0:0:0:0:
256,512,24295,1,4,0:0:0:0:
256,512,24644,1,0,0:0:0:0:
256,512,24818,1,8,0:0:0:0:
256,512,25341,1,8,0:0:0:0:
256,512,25690,1,0,0:0:0:0:
256,512,26039,1,8,0:0:0:0:
256,512,26214,1,0,0:0:0:0:
256,512,27086,1,0,0:0:0:0:
256,512,27260,1,0,0:0:0:0:
256,512,27609,1,8,0:0:0:0:
256,512,27783,1,8,0:0:0:0:
256,512,28132,1,0,0:0:0:0:
256,512,28307,1,8,0:0:0:0:
256,512,28656,1,8,0:0:0:0:
256,512,29004,1,8,0:0:0:0:
256,512,29179,1,8,0:0:0:0:
256,512,29876,1,12,0:0:0:0:
256,512,30225,1,0,0:0:0:0:
256,512,30574,1,8,0:0:0:0:
256,512,30923,1,0,0:0:0:0:
256,512,31097,1,8,0:0:0:0:
256,512,31272,1,0,0:0:0:0:
256,512,31621,1,0,0:0:0:0:
256,512,31795,1,8,0:0:0:0:
256,512,32318,1,0,0:0:0:0:
256,512,32667,1,8,0:0:0:0:
256,512,32842,1,0,0:0:0:0:
256,512,33016,1,8,0:0:0:0:
256,512,33190,1,8,0:0:0:0:
256,512,33365,1,0,0:0:0:0:
256,512,33714,1,0,0:0:0:0:
256,512,33888,1,8,0:0:0:0:
256,512,34063,1,8,0:0:0:0:
256,512,34411,1,8,0:0:0:0:
256,512,34760,1,0,0:0:0:0:
256,512,35109,1,0,0:0:0:0:
256,512,35458,1,8,0:0:0:0:
256,512,36330,1,0,0:0:0:0:
256,512,36504,1,8,0:0:0:0:
256,512,36679,1,8,0:0:0:0:
256,512,36853,1,0,0:0:0:0:
256,512,37202,1,8,0:0:0:0:
256,512,37376,1,0,0:0:0:0:
256,512,37725,1,0,0:0:0:0:
256,512,37900,1,8,0:0:0:0:
256,512,38249,1,0,0:0:0:0:
256,512,38423,1,8,0:0:0:0:
256,512,38597,1,0,0:0:0:0:
256,512,38772,1,8,0:0:0:0:
256,512,38946,1,8,0:0:0:0:
256,512,39295,1,0,0:0:0:0:
256,512,39469,1,8,0:0:0:0:
256,512,39818,1,8,0:0:0:0:
256,512,40167,1,8,0:0:0:0:
256,512,40516,1,8,0:0:0:0:
256,512,41388,1,12,0:0:0:0:
256,512,41737,1,8,0:0:0:0:
256,512,42086,1,0,0:0:0:0:
256,512,42260,1,8,0:0:0:0:
256,512,42435,1,0,0:0:0:0:
256,512,42783,1,0,0:0:0:0:
256,512,42958,1,8,0:0:0:0:
256,512,43481,1,0,0:0:0:0:
256,512,43830,1,8,0:0:0:0:
256,512,44004,1,0,0:0:0:0:
256,512,44179,1,0,0:0:0:0:
256,512,44353,1,8,0:0:0:0:
256,512,44528,1,0,0:0:0:0:
256,512,44876,1,0,0:0:0:0:
256,512,45051,1,8,0:0:0:0:
256,512,45225,1,8,0:0:0:0:
256,512,45574,1,8,0:0:0:0:
256,512,45923,1,0,0:0:0:0:
256,512,46272,1,0,0:0:0:0:
256,512,46621,1,8,0:0:0:0:
256,512,47493,1,0,0:0:0:0:
256,512,47667,1,8,0:0:0:0:
256,512,47842,1,0,0:0:0:0:
256,512,48016,1,0,0:0:0:0:
256,512,48365,1,0,0:0:0:0:
256,512,48539,1,8,0:0:0:0:
256,512,48888,1,8,0:0:0:0:
256,512,49237,1,0,0:0:0:0:
256,512,49586,1,8,0:0:0:0:
256,512,49760,1,0,0:0:0:0:
256,512,49935,1,0,0:0:0:0:
256,512,50109,1,8,0:0:0:0:
256,512,50458,1,0,0:0:0:0:
256,512,50807,1,8,0:0:0:0:
256,512,51156,1,8,0:0:0:0:
256,512,51504,1,0,0:0:0:0:
256,512,51679,1,0,0:0:0:0:
256,512,51853,1,8,0:0:0:0:
256,512,52202,1,0,0:0:0:0:
256,512,52900,1,8,0:0:0:0:
256,512,53249,1,0,0:0:0:0:
256,512,53597,1,8,0:0:0:0:
256,512,54295,1,0,0:0:0:0:
256,512,54469,1,0,0:0:0:0:
256,512,54644,1,8,0:0:0:0:
256,512,54993,1,0,0:0:0:0:
256,512,55690,1,0,0:0:0:0:
256,512,56039,1,0,0:0:0:0:
256,512,56388,1,8,0:0:0:0:
256,512,57609,1,0,0:0:0:0:
256,512,58132,1,0,0:0:0:0:
256,512,58481,1,8,0:0:0:0:
256,512,59179,1,8,0:0:0:0:
256,512,59876,1,8,0:0:0:0:
256,512,60225,1,0,0:0:0:0:
256,512,60749,1,8,0:0:0:0:
256,512,61272,1,8,0:0:0:0:
256,512,61446,1,0,0:0:0:0:
256,512,61795,1,0,0:0:0:0:
256,512,61969,1,0,0:0:0:0:
256,512,62144,1,0,0:0:0:0:
256,512,62493,1,8,0:0:0:0:
256,512,62667,1,8,0:0:0:0:
256,512,62842,1,8,0:0:0:0:
256,512,63190,1,8,0:0:0:0:
256,512,63539,1,0,0:0:0:0:
