osu file format v14

[General]
AudioFilename: H.mp3
AudioLeadIn: 0
PreviewTime: 29251
Countdown: 0
SampleSet: Normal
StackLeniency: 0.7
Mode: 1
LetterboxInBreaks: 0
WidescreenStoryboard: 0

[Editor]
Bookmarks: 1970,7551,18714,29876,41388,52202
DistanceSpacing: 0.8
BeatDivisor: 4
GridSize: 32
TimelineZoom: 1.75

[Metadata]
Title:yukai young
TitleUnicode:yukai young
Artist:jan Misali
ArtistUnicode:jan Misali
Creator:yenmaster
Version:H
Source:涼宮ハルヒの憂鬱
Tags:novelty english pop ke$ha kesha Die Young suzumiya Haruhi Aya Hirano 平野綾 ハレ晴レユカイ hare hare yukai mashup the melancholy of haruhi suzumiya anime
BeatmapID:3295420
BeatmapSetID:1614152

[Difficulty]
HPDrainRate:7
CircleSize:9.2
OverallDifficulty:6
ApproachRate:10
SliderMultiplier:1.44
SliderTickRate:1

[Events]
//Background and Video events
0,0,"jpg.jpg",0,-10
//Break Periods
//Storyboard Layer 0 (Background)
//Storyboard Layer 1 (Fail)
//Storyboard Layer 2 (Pass)
//Storyboard Layer 3 (Foreground)
//Storyboard Layer 4 (Overlay)
//Storyboard Sound Samples

[TimingPoints]
1970,348.837209302325,4,1,0,70,1,0
6058,-97.5609756097561,4,1,0,70,0,0
6233,-95.2380952380952,4,1,0,70,0,0
6582,-90.9090909090909,4,1,0,70,0,0
6930,-86.9565217391304,4,1,0,70,0,0
7105,-85.1063829787234,4,1,0,70,0,0
7279,-83.3333333333333,4,1,0,70,0,0
7454,-81.6326530612245,4,1,0,70,0,0
7628,-105.263157894737,4,1,0,60,0,0
17308,-104.166666666667,4,1,0,61,0,0
17483,-103.092783505155,4,1,0,62,0,0
17657,-102.040816326531,4,1,0,63,0,0
17832,-101.010101010101,4,1,0,64,0,0
18006,-99.009900990099,4,1,0,65,0,0
18180,-98.0392156862745,4,1,0,66,0,0
18355,-97.0873786407767,4,1,0,67,0,0
18529,-96.1538461538461,4,1,0,68,0,0
18704,-95.2380952380952,4,1,0,69,0,0
18791,-105.263157894737,4,1,0,60,0,0
24285,-105.263157894737,4,1,0,70,0,0
24459,-103.092783505155,4,1,0,70,0,0
24634,-101.010101010101,4,1,0,70,0,0
24808,-99.009900990099,4,1,0,70,0,0
25158,-101.010101010101,4,1,0,70,0,0
25332,-99.009900990099,4,1,0,70,0,0
25506,-97.0873786407767,4,1,0,70,0,0
25680,-101.010101010101,4,1,0,70,0,0
25854,-99.009900990099,4,1,0,70,0,0
26028,-97.0873786407767,4,1,0,70,0,0
26204,-95.2380952380952,4,1,0,70,0,0
26465,-105.263157894737,4,1,0,70,0,0
28384,-102.564102564103,4,1,0,70,0,0
28558,-100,4,1,0,70,0,0
28907,-95.2380952380954,4,1,0,70,0,0
29082,-93.0232558139535,4,1,0,70,0,0
29876,-83.3333333333333,4,1,0,80,0,1
39372,-82.3045267489712,4,1,0,80,0,1
39547,-81.3008130081301,4,1,0,80,0,1
39721,-80.3212851405623,4,1,0,80,0,1
40070,-78.4313725490196,4,1,0,80,0,1
40419,-76.0456273764259,4,1,0,80,0,1
40593,-75.187969924812,4,1,0,80,0,1
40768,-74.3494423791822,4,1,0,80,0,1
41039,-83.3333333333333,4,1,0,80,0,0
41388,-83.3333333333333,4,1,0,80,0,1
51146,-81.799591002045,4,1,0,80,0,1
51320,-81.0536980749747,4,1,0,80,0,1
51494,-80.3212851405622,4,1,0,80,0,1
51582,-79.960019990005,4,1,0,80,0,1
51669,-79.6019900497512,4,1,0,80,0,1
51756,-79.247152055473,4,1,0,80,0,1
51843,-78.8954635108481,4,1,0,80,0,1
51930,-78.546882670594,4,1,0,80,0,1
52018,-78.2013685239492,4,1,0,80,0,1
52279,-90.9090909090909,4,1,0,75,0,1
52512,-84.0336134453781,4,1,0,80,0,1
56388,-84.0336134453781,4,1,0,80,0,0
56901,-100,4,1,0,65,0,0
60215,-95.2380952380952,4,1,0,70,0,0
61262,-93.9635026962827,4,1,0,70,0,0
61436,-92.7224899326557,4,1,0,70,0,0
61785,-90.3364400035051,4,1,0,70,0,0
61959,-89.188801097379,4,1,0,70,0,0
62134,-88.0700332904726,4,1,0,70,0,0
62483,-85.9145648384334,4,1,0,70,0,0
62657,-84.8759537935308,4,1,0,70,0,0
62832,-83.8621541000626,4,1,0,70,0,0
63180,-81.9054483504243,4,1,0,70,0,0
63355,-80.9609743815189,4,1,0,70,0,0
63529,-80.0379700129742,4,1,0,70,0,0

[HitObjects]
256,512,574,5,12,0:0:0:0:
256,512,749,1,0,0:0:0:0:
256,512,836,1,0,0:0:0:0:
256,512,923,1,8,0:0:0:0:
256,512,1010,1,0,0:0:0:0:
256,512,1097,1,8,0:0:0:0:
256,512,1185,1,8,0:0:0:0:
256,512,1272,1,0,0:0:0:0:
256,512,1330,1,0,0:0:0:0:
256,512,1388,1,0,0:0:0:0:
256,512,1446,1,8,0:0:0:0:
256,512,1533,1,8,0:0:0:0:
256,512,1621,1,0,0:0:0:0:
256,512,1795,1,8,0:0:0:0:
256,512,1970,1,4,0:0:0:0:
256,512,2231,1,0,0:0:0:0:
256,512,2318,1,8,0:0:0:0:
256,512,2493,1,0,0:0:0:0:
256,512,2842,1,8,0:0:0:0:
256,512,2929,1,8,0:0:0:0:
256,512,3016,1,8,0:0:0:0:
256,512,3190,1,0,0:0:0:0:
256,512,3365,1,12,0:0:0:0:
256,512,3626,1,0,0:0:0:0:
256,512,3714,1,8,0:0:0:0:
256,512,3888,1,4,0:0:0:0:
256,512,4237,1,0,0:0:0:0:
256,512,4324,1,0,0:0:0:0:
256,512,4411,1,0,0:0:0:0:
256,512,4586,1,0,0:0:0:0:
256,512,4760,1,12,0:0:0:0:
256,512,4935,1,0,0:0:0:0:
256,512,5022,1,0,0:0:0:0:
256,512,5109,1,8,0:0:0:0:
256,512,5283,1,0,0:0:0:0:
256,512,5458,1,8,0:0:0:0:
256,512,5545,1,8,0:0:0:0:
256,512,5632,1,0,0:0:0:0:
256,512,5807,1,8,0:0:0:0:
256,512,5981,1,4,0:0:0:0:
256,512,6330,1,4,0:0:0:0:
256,512,6679,1,12,0:0:0:0:
256,512,7028,1,12,0:0:0:0:
256,512,7202,1,4,0:0:0:0:
256,512,7376,1,4,0:0:0:0:
256,512,7551,1,12,0:0:0:0:
256,512,7900,1,0,0:0:0:0:
256,512,8249,1,8,0:0:0:0:
256,512,8336,1,0,0:0:0:0:
256,512,8423,1,0,0:0:0:0:
256,512,8597,1,8,0:0:0:0:
256,512,8946,1,0,0:0:0:0:
256,512,9121,1,0,0:0:0:0:
256,512,9208,1,8,0:0:0:0:
256,512,9295,1,0,0:0:0:0:
256,512,9469,1,0,0:0:0:0:
256,512,9644,1,8,0:0:0:0:
256,512,9731,1,8,0:0:0:0:
256,512,9818,1,0,0:0:0:0:
256,512,9906,1,0,0:0:0:0:
256,512,9993,1,8,0:0:0:0:
256,512,10342,1,8,0:0:0:0:
256,512,10429,1,0,0:0:0:0:
256,512,10516,1,0,0:0:0:0:
256,512,10690,1,8,0:0:0:0:
256,512,10778,1,8,0:0:0:0:
256,512,10865,1,0,0:0:0:0:
256,512,11039,1,0,0:0:0:0:
256,512,11214,1,8,0:0:0:0:
256,512,11388,1,0,0:0:0:0:
256,512,11737,1,8,0:0:0:0:
256,512,11824,1,8,0:0:0:0:
256,512,11911,1,0,0:0:0:0:
256,512,12086,1,8,0:0:0:0:
256,512,12260,1,0,0:0:0:0:
256,512,12435,1,8,0:0:0:0:
256,512,12522,1,0,0:0:0:0:
256,512,12609,1,8,0:0:0:0:
256,512,12696,1,8,0:0:0:0:
256,512,12783,1,0,0:0:0:0:
256,512,13132,1,12,0:0:0:0:
256,512,13307,1,0,0:0:0:0:
256,512,13481,1,8,0:0:0:0:
256,512,13656,1,8,0:0:0:0:
256,512,13830,1,0,0:0:0:0:
256,512,13917,1,0,0:0:0:0:
256,512,14004,1,8,0:0:0:0:
256,512,14179,1,0,0:0:0:0:
256,512,14353,1,0,0:0:0:0:
256,512,14528,1,8,0:0:0:0:
256,512,14789,1,8,0:0:0:0:
256,512,14876,1,0,0:0:0:0:
256,512,15051,1,0,0:0:0:0:
256,512,15400,1,0,0:0:0:0:
256,512,15574,1,8,0:0:0:0:
256,512,15661,1,8,0:0:0:0:
256,512,15749,1,8,0:0:0:0:
256,512,15923,1,0,0:0:0:0:
256,512,16097,1,0,0:0:0:0:
256,512,16272,1,8,0:0:0:0:
256,512,16446,1,8,0:0:0:0:
256,512,16621,1,0,0:0:0:0:
256,512,16708,1,8,0:0:0:0:
256,512,16795,1,8,0:0:0:0:
256,512,16969,1,0,0:0:0:0:
256,512,17144,1,8,0:0:0:0:
256,512,17318,1,4,0:0:0:0:
256,512,17493,1,0,0:0:0:0:
256,512,17667,1,12,0:0:0:0:
256,512,17842,1,8,0:0:0:0:
256,512,18016,1,4,0:0:0:0:
256,512,18190,1,0,0:0:0:0:
256,512,18365,1,12,0:0:0:0:
256,512,18539,1,8,0:0:0:0:
256,512,18714,1,4,0:0:0:0:
256,512,18888,1,8,0:0:0:0:
256,512,19237,1,8,0:0:0:0:
256,512,19411,1,0,0:0:0:0:
256,512,19760,1,0,0:0:0:0:
256,512,20109,1,8,0:0:0:0:
256,512,20196,1,8,0:0:0:0:
256,512,20283,1,8,0:0:0:0:
256,512,20458,1,0,0:0:0:0:
256,512,20632,1,8,0:0:0:0:
256,512,21156,1,0,0:0:0:0:
256,512,21504,1,0,0:0:0:0:
256,512,21679,1,8,0:0:0:0:
256,512,22028,1,8,0:0:0:0:
256,512,22202,1,0,0:0:0:0:
256,512,22551,1,8,0:0:0:0:
256,512,22900,1,0,0:0:0:0:
256,512,22987,1,0,0:0:0:0:
256,512,23074,1,0,0:0:0:0:
256,512,23249,1,8,0:0:0:0:
256,512,23423,1,0,0:0:0:0:
256,512,23946,1,8,0:0:0:0:
256,512,24295,1,4,0:0:0:0:
256,512,24469,1,8,0:0:0:0:
256,512,24644,1,8,0:0:0:0:
256,512,24818,1,4,0:0:0:0:
256,512,25167,1,0,0:0:0:0:
256,512,25342,1,8,0:0:0:0:
256,512,25516,1,4,0:0:0:0:
256,512,25865,1,0,0:0:0:0:
256,512,26039,1,0,0:0:0:0:
256,512,26214,1,12,0:0:0:0:
256,512,26563,1,0,0:0:0:0:
256,512,26737,1,0,0:0:0:0:
256,512,27086,1,4,0:0:0:0:
256,512,27260,1,8,0:0:0:0:
256,512,27609,1,8,0:0:0:0:
256,512,27783,1,0,0:0:0:0:
256,512,28132,1,8,0:0:0:0:
256,512,28307,1,4,0:0:0:0:
256,512,28656,1,4,0:0:0:0:
256,512,29004,1,4,0:0:0:0:
256,512,29179,1,12,0:0:0:0:
256,512,29876,1,12,0:0:0:0:
256,512,30051,1,0,0:0:0:0:
256,512,30138,1,0,0:0:0:0:
256,512,30225,1,8,0:0:0:0:
256,512,30400,1,0,0:0:0:0:
256,512,30574,1,8,0:0:0:0:
256,512,30749,1,8,0:0:0:0:
256,512,30923,1,0,0:0:0:0:
256,512,31010,1,0,0:0:0:0:
256,512,31097,1,8,0:0:0:0:
256,512,31185,1,8,0:0:0:0:
256,512,31272,1,0,0:0:0:0:
256,512,31446,1,8,0:0:0:0:
256,512,31533,1,8,0:0:0:0:
256,512,31621,1,0,0:0:0:0:
256,512,31795,1,8,0:0:0:0:
256,512,32144,1,0,0:0:0:0:
256,512,32318,1,8,0:0:0:0:
256,512,32406,1,8,0:0:0:0:
256,512,32493,1,8,0:0:0:0:
256,512,32667,1,4,0:0:0:0:
256,512,32842,1,0,0:0:0:0:
256,512,32929,1,0,0:0:0:0:
256,512,33016,1,8,0:0:0:0:
256,512,33103,1,8,0:0:0:0:
256,512,33190,1,0,0:0:0:0:
256,512,33365,1,8,0:0:0:0:
256,512,33539,1,0,0:0:0:0:
256,512,33714,1,0,0:0:0:0:
256,512,33888,1,8,0:0:0:0:
256,512,34063,1,8,0:0:0:0:
256,512,34150,1,8,0:0:0:0:
256,512,34237,1,0,0:0:0:0:
256,512,34411,1,8,0:0:0:0:
256,512,34499,1,0,0:0:0:0:
256,512,34586,1,0,0:0:0:0:
256,512,34760,1,8,0:0:0:0:
256,512,34935,1,8,0:0:0:0:
256,512,35109,1,0,0:0:0:0:
256,512,35283,1,0,0:0:0:0:
256,512,35458,1,12,0:0:0:0:
256,512,35807,1,0,0:0:0:0:
256,512,35981,1,8,0:0:0:0:
256,512,36330,1,0,0:0:0:0:
256,512,36504,1,8,0:0:0:0:
256,512,36592,1,8,0:0:0:0:
256,512,36679,1,0,0:0:0:0:
256,512,36853,1,12,0:0:0:0:
256,512,37028,1,0,0:0:0:0:
256,512,37115,1,0,0:0:0:0:
256,512,37202,1,8,0:0:0:0:
256,512,37376,1,4,0:0:0:0:
256,512,37725,1,8,0:0:0:0:
256,512,37900,1,0,0:0:0:0:
256,512,38074,1,0,0:0:0:0:
256,512,38249,1,12,0:0:0:0:
256,512,38423,1,8,0:0:0:0:
256,512,38510,1,8,0:0:0:0:
256,512,38597,1,0,0:0:0:0:
256,512,38685,1,0,0:0:0:0:
256,512,38772,1,8,0:0:0:0:
256,512,38946,1,0,0:0:0:0:
256,512,39121,1,8,0:0:0:0:
256,512,39295,1,8,0:0:0:0:
256,512,39469,1,4,0:0:0:0:
256,512,39818,1,12,0:0:0:0:
256,512,40167,1,12,0:0:0:0:
256,512,40516,1,12,0:0:0:0:
256,512,40690,1,8,0:0:0:0:
256,512,40865,1,0,0:0:0:0:
256,512,41388,1,12,0:0:0:0:
256,512,41563,1,0,0:0:0:0:
256,512,41737,1,8,0:0:0:0:
256,512,41911,1,0,0:0:0:0:
256,512,42086,1,8,0:0:0:0:
256,512,42173,1,8,0:0:0:0:
256,512,42260,1,0,0:0:0:0:
256,512,42347,1,0,0:0:0:0:
256,512,42435,1,8,0:0:0:0:
256,512,42609,1,0,0:0:0:0:
256,512,42696,1,8,0:0:0:0:
256,512,42783,1,8,0:0:0:0:
256,512,42958,1,0,0:0:0:0:
256,512,43307,1,0,0:0:0:0:
256,512,43481,1,8,0:0:0:0:
256,512,43568,1,8,0:0:0:0:
256,512,43656,1,8,0:0:0:0:
256,512,43830,1,4,0:0:0:0:
256,512,44004,1,8,0:0:0:0:
256,512,44092,1,0,0:0:0:0:
256,512,44179,1,0,0:0:0:0:
256,512,44266,1,0,0:0:0:0:
256,512,44353,1,8,0:0:0:0:
256,512,44528,1,0,0:0:0:0:
256,512,44702,1,8,0:0:0:0:
256,512,44876,1,0,0:0:0:0:
256,512,45051,1,0,0:0:0:0:
256,512,45225,1,8,0:0:0:0:
256,512,45313,1,8,0:0:0:0:
256,512,45400,1,0,0:0:0:0:
256,512,45574,1,8,0:0:0:0:
256,512,45661,1,0,0:0:0:0:
256,512,45749,1,0,0:0:0:0:
256,512,45923,1,8,0:0:0:0:
256,512,46097,1,0,0:0:0:0:
256,512,46272,1,8,0:0:0:0:
256,512,46446,1,8,0:0:0:0:
256,512,46621,1,4,0:0:0:0:
256,512,46969,1,0,0:0:0:0:
256,512,47144,1,8,0:0:0:0:
256,512,47493,1,8,0:0:0:0:
256,512,47667,1,8,0:0:0:0:
256,512,47754,1,0,0:0:0:0:
256,512,47842,1,8,0:0:0:0:
256,512,48016,1,4,0:0:0:0:
256,512,48190,1,0,0:0:0:0:
256,512,48278,1,0,0:0:0:0:
256,512,48365,1,8,0:0:0:0:
256,512,48539,1,4,0:0:0:0:
256,512,48888,1,8,0:0:0:0:
256,512,49063,1,0,0:0:0:0:
256,512,49237,1,0,0:0:0:0:
256,512,49411,1,12,0:0:0:0:
256,512,49586,1,0,0:0:0:0:
256,512,49760,1,8,0:0:0:0:
256,512,49847,1,8,0:0:0:0:
256,512,49935,1,0,0:0:0:0:
256,512,50022,1,0,0:0:0:0:
256,512,50109,1,8,0:0:0:0:
256,512,50283,1,8,0:0:0:0:
256,512,50458,1,0,0:0:0:0:
256,512,50545,1,0,0:0:0:0:
256,512,50632,1,8,0:0:0:0:
256,512,50807,1,0,0:0:0:0:
256,512,51156,1,0,0:0:0:0:
256,512,51330,1,8,0:0:0:0:
256,512,51504,1,8,0:0:0:0:
256,512,51592,1,0,0:0:0:0:
256,512,51679,1,0,0:0:0:0:
256,512,51766,1,0,0:0:0:0:
256,512,51853,1,8,0:0:0:0:
256,512,51940,1,8,0:0:0:0:
256,512,52028,1,0,0:0:0:0:
256,512,52202,1,12,0:0:0:0:
256,512,52551,1,0,0:0:0:0:
256,512,52725,1,8,0:0:0:0:
256,512,52900,1,0,0:0:0:0:
256,512,53249,1,0,0:0:0:0:
256,512,53423,1,8,0:0:0:0:
256,512,53597,1,0,0:0:0:0:
256,512,53946,1,0,0:0:0:0:
256,512,54121,1,0,0:0:0:0:
256,512,54295,1,8,0:0:0:0:
256,512,54382,1,8,0:0:0:0:
256,512,54469,1,0,0:0:0:0:
256,512,54644,1,8,0:0:0:0:
256,512,54818,1,0,0:0:0:0:
256,512,54993,1,12,0:0:0:0:
256,512,55342,1,8,0:0:0:0:
256,512,55516,1,0,0:0:0:0:
256,512,55690,1,8,0:0:0:0:
256,512,56039,1,8,0:0:0:0:
256,512,56214,1,0,0:0:0:0:
256,512,56388,1,8,0:0:0:0:
256,512,57260,1,8,0:0:0:0:
256,512,57435,1,0,0:0:0:0:
256,512,57609,1,8,0:0:0:0:
256,512,57958,1,8,0:0:0:0:
256,512,58132,1,0,0:0:0:0:
256,512,58481,1,8,0:0:0:0:
256,512,58656,1,0,0:0:0:0:
256,512,58830,1,8,0:0:0:0:
256,512,59179,1,0,0:0:0:0:
256,512,59353,1,8,0:0:0:0:
256,512,59528,1,0,0:0:0:0:
256,512,59702,1,8,0:0:0:0:
256,512,59876,1,0,0:0:0:0:
256,512,60225,1,12,0:0:0:0:
256,512,60574,1,8,0:0:0:0:
256,512,60749,1,4,0:0:0:0:
256,512,61097,1,8,0:0:0:0:
256,512,61272,1,0,0:0:0:0:
256,512,61446,1,12,0:0:0:0:
256,512,61795,1,4,0:0:0:0:
256,512,61969,1,4,0:0:0:0:
256,512,62144,1,12,0:0:0:0:
256,512,62493,1,4,0:0:0:0:
256,512,62667,1,12,0:0:0:0:
256,512,62842,1,12,0:0:0:0:
256,512,63190,1,12,0:0:0:0:
256,512,63539,1,4,0:0:0:0:
