osu file format v14

[General]
AudioFilename: audio.mp3
AudioLeadIn: 0
PreviewTime: 0
Countdown: 0
SampleSet: Soft
StackLeniency: 0.7
Mode: 3
LetterboxInBreaks: 0
SpecialStyle: 0
WidescreenStoryboard: 0

[Editor]
DistanceSpacing: 0.8
BeatDivisor: 4
GridSize: 8
TimelineZoom: 1.5

[Metadata]
Title:unintentionally and unexpectedly hearable piano song
TitleUnicode:unintentionally and unexpectedly hearable piano song
Artist:jakads
ArtistUnicode:jakads
Creator:jakads
Version:just a reminder that i actually compose stuff lol
Source:SoundCloud
Tags:
BeatmapID:1363168
BeatmapSetID:643025

[Difficulty]
HPDrainRate:8
CircleSize:7
OverallDifficulty:8
ApproachRate:5
SliderMultiplier:1.4
SliderTickRate:1

[Events]
//Background and Video events
0,0,"95595.png",0,0
//Break Periods
//Storyboard Layer 0 (Background)
//Storyboard Layer 1 (Fail)
//Storyboard Layer 2 (Pass)
//Storyboard Layer 3 (Foreground)
//Storyboard Sound Samples

[TimingPoints]
4,400,4,2,0,0,1,0
12804,-100,4,2,0,0,0,1
27204,-100,4,2,0,0,0,0

[HitObjects]
182,192,4,5,0,0:0:0:0:
402,192,4,1,0,0:0:0:0:
256,192,204,1,0,0:0:0:0:
329,192,404,1,0,0:0:0:0:
402,192,604,1,0,0:0:0:0:
109,192,804,1,0,0:0:0:0:
475,192,804,1,0,0:0:0:0:
256,192,804,1,0,0:0:0:0:
36,192,1604,1,0,0:0:0:0:
402,192,1604,1,0,0:0:0:0:
109,192,1804,1,0,0:0:0:0:
182,192,2004,1,0,0:0:0:0:
329,192,2004,1,0,0:0:0:0:
402,192,2054,1,0,0:0:0:0:
329,192,2154,1,0,0:0:0:0:
256,192,2204,1,0,0:0:0:0:
329,192,2404,1,0,0:0:0:0:
475,192,2404,1,0,0:0:0:0:
182,192,2404,1,0,0:0:0:0:
36,192,2804,1,0,0:0:0:0:
109,192,3204,1,0,0:0:0:0:
329,192,3204,1,0,0:0:0:0:
182,192,3404,1,0,0:0:0:0:
256,192,3604,1,0,0:0:0:0:
402,192,3604,1,0,0:0:0:0:
329,192,3804,1,0,0:0:0:0:
475,192,3804,1,0,0:0:0:0:
402,192,4004,1,0,0:0:0:0:
182,192,4004,1,0,0:0:0:0:
256,192,4204,1,0,0:0:0:0:
36,192,4204,1,0,0:0:0:0:
329,192,4537,1,0,0:0:0:0:
109,192,4604,1,0,0:0:0:0:
402,192,4804,1,0,0:0:0:0:
256,192,4804,1,0,0:0:0:0:
36,192,4804,1,0,0:0:0:0:
182,192,5004,1,0,0:0:0:0:
475,192,5004,1,0,0:0:0:0:
329,192,5054,1,0,0:0:0:0:
475,192,5154,1,0,0:0:0:0:
109,192,5204,1,0,0:0:0:0:
329,192,5204,1,0,0:0:0:0:
475,192,5254,1,0,0:0:0:0:
329,192,5304,1,0,0:0:0:0:
256,192,5404,1,0,0:0:0:0:
402,192,5504,1,0,0:0:0:0:
182,192,5604,1,0,0:0:0:0:
402,192,5604,1,0,0:0:0:0:
36,192,5604,1,0,0:0:0:0:
109,192,5804,1,0,0:0:0:0:
36,192,6004,1,0,0:0:0:0:
182,192,6204,1,0,0:0:0:0:
109,192,6404,1,0,0:0:0:0:
475,192,6404,1,0,0:0:0:0:
256,192,6604,1,0,0:0:0:0:
402,192,6804,1,0,0:0:0:0:
329,192,7004,1,0,0:0:0:0:
475,192,7204,1,0,0:0:0:0:
182,192,7204,1,0,0:0:0:0:
36,192,7204,1,0,0:0:0:0:
36,192,8004,1,0,0:0:0:0:
402,192,8004,1,0,0:0:0:0:
182,192,8204,1,0,0:0:0:0:
475,192,8204,1,0,0:0:0:0:
329,192,8404,1,0,0:0:0:0:
256,192,8604,1,0,0:0:0:0:
109,192,8604,1,0,0:0:0:0:
402,192,8804,1,0,0:0:0:0:
182,192,8804,1,0,0:0:0:0:
475,192,8804,1,0,0:0:0:0:
109,192,9204,1,0,0:0:0:0:
256,192,9404,1,0,0:0:0:0:
402,192,9604,1,0,0:0:0:0:
36,192,9604,1,0,0:0:0:0:
182,192,9804,1,0,0:0:0:0:
329,192,10004,1,0,0:0:0:0:
402,192,10004,1,0,0:0:0:0:
256,192,10204,1,0,0:0:0:0:
329,192,10304,1,0,0:0:0:0:
402,192,10404,1,0,0:0:0:0:
182,192,10404,1,0,0:0:0:0:
109,192,10404,1,0,0:0:0:0:
475,192,10604,1,0,0:0:0:0:
329,192,11004,1,0,0:0:0:0:
182,192,11204,1,0,0:0:0:0:
329,192,11404,1,0,0:0:0:0:
109,192,11404,1,0,0:0:0:0:
475,192,11604,1,0,0:0:0:0:
256,192,11804,1,0,0:0:0:0:
402,192,11804,1,0,0:0:0:0:
36,192,12004,128,0,12804:0:0:0:0:
329,192,12004,1,0,0:0:0:0:
475,192,12004,1,0,0:0:0:0:
256,192,12204,1,0,0:0:0:0:
182,192,12404,1,0,0:0:0:0:
109,192,12604,1,0,0:0:0:0:
475,192,12804,128,0,14404:0:0:0:0:
329,192,12804,1,0,0:0:0:0:
402,192,12804,1,0,0:0:0:0:
256,192,13004,1,0,0:0:0:0:
402,192,13204,128,0,13604:0:0:0:0:
182,192,13204,1,0,0:0:0:0:
109,192,13404,1,0,0:0:0:0:
256,192,13604,128,0,14004:0:0:0:0:
36,192,13604,1,0,0:0:0:0:
182,192,13604,1,0,0:0:0:0:
329,192,13604,1,0,0:0:0:0:
329,192,14004,128,0,14404:0:0:0:0:
36,192,14404,128,0,16004:0:0:0:0:
182,192,14404,1,0,0:0:0:0:
109,192,14404,1,0,0:0:0:0:
256,192,14604,1,0,0:0:0:0:
182,192,14804,128,0,15204:0:0:0:0:
475,192,14804,1,0,0:0:0:0:
329,192,14854,1,0,0:0:0:0:
475,192,14954,1,0,0:0:0:0:
402,192,15004,1,0,0:0:0:0:
329,192,15004,1,0,0:0:0:0:
256,192,15204,128,0,15604:0:0:0:0:
475,192,15204,1,0,0:0:0:0:
109,192,15204,1,0,0:0:0:0:
402,192,15204,1,0,0:0:0:0:
109,192,15604,128,0,16004:0:0:0:0:
329,192,15604,1,0,0:0:0:0:
182,192,16004,128,0,17604:0:0:0:0:
256,192,16004,1,0,0:0:0:0:
475,192,16004,1,0,0:0:0:0:
402,192,16204,1,0,0:0:0:0:
109,192,16404,128,0,16804:0:0:0:0:
329,192,16404,1,0,0:0:0:0:
36,192,16404,1,0,0:0:0:0:
256,192,16604,1,0,0:0:0:0:
475,192,16604,1,0,0:0:0:0:
36,192,16804,128,0,17204:0:0:0:0:
329,192,16804,1,0,0:0:0:0:
402,192,16804,1,0,0:0:0:0:
402,192,17004,1,0,0:0:0:0:
475,192,17004,1,0,0:0:0:0:
256,192,17204,128,0,17604:0:0:0:0:
109,192,17204,1,0,0:0:0:0:
402,192,17337,1,0,0:0:0:0:
36,192,17404,1,0,0:0:0:0:
329,192,17604,128,0,19204:0:0:0:0:
402,192,17604,1,0,0:0:0:0:
109,192,17604,1,0,0:0:0:0:
182,192,17804,1,0,0:0:0:0:
475,192,17804,1,0,0:0:0:0:
36,192,17854,1,0,0:0:0:0:
182,192,17954,1,0,0:0:0:0:
36,192,18004,1,0,0:0:0:0:
109,192,18004,1,0,0:0:0:0:
402,192,18004,128,0,18404:0:0:0:0:
182,192,18054,1,0,0:0:0:0:
36,192,18104,1,0,0:0:0:0:
256,192,18204,1,0,0:0:0:0:
109,192,18304,1,0,0:0:0:0:
475,192,18404,128,0,19204:0:0:0:0:
182,192,18404,1,0,0:0:0:0:
109,192,18404,1,0,0:0:0:0:
256,192,18604,1,0,0:0:0:0:
36,192,18804,1,0,0:0:0:0:
402,192,18804,128,0,19204:0:0:0:0:
109,192,18804,1,0,0:0:0:0:
182,192,19004,1,0,0:0:0:0:
109,192,19204,128,0,20804:0:0:0:0:
36,192,19204,1,0,0:0:0:0:
256,192,19204,1,0,0:0:0:0:
402,192,19404,1,0,0:0:0:0:
182,192,19604,128,0,20004:0:0:0:0:
475,192,19604,1,0,0:0:0:0:
329,192,19804,1,0,0:0:0:0:
36,192,20004,128,0,20404:0:0:0:0:
256,192,20004,1,0,0:0:0:0:
402,192,20004,1,0,0:0:0:0:
475,192,20004,1,0,0:0:0:0:
256,192,20404,128,0,20804:0:0:0:0:
402,192,20804,128,0,22404:0:0:0:0:
182,192,20804,1,0,0:0:0:0:
329,192,20804,1,0,0:0:0:0:
109,192,21004,1,0,0:0:0:0:
256,192,21004,1,0,0:0:0:0:
475,192,21204,128,0,21604:0:0:0:0:
36,192,21204,1,0,0:0:0:0:
182,192,21404,1,0,0:0:0:0:
329,192,21404,1,0,0:0:0:0:
256,192,21604,128,0,22004:0:0:0:0:
109,192,21604,1,0,0:0:0:0:
36,192,21604,1,0,0:0:0:0:
329,192,22004,128,0,22404:0:0:0:0:
109,192,22004,1,0,0:0:0:0:
182,192,22204,1,0,0:0:0:0:
36,192,22404,128,0,24004:0:0:0:0:
256,192,22404,1,0,0:0:0:0:
475,192,22404,1,0,0:0:0:0:
182,192,22604,1,0,0:0:0:0:
109,192,22804,128,0,23204:0:0:0:0:
329,192,22804,1,0,0:0:0:0:
475,192,22804,1,0,0:0:0:0:
256,192,23004,1,0,0:0:0:0:
329,192,23104,1,0,0:0:0:0:
402,192,23204,128,0,23604:0:0:0:0:
182,192,23204,1,0,0:0:0:0:
475,192,23204,1,0,0:0:0:0:
256,192,23204,1,0,0:0:0:0:
329,192,23404,1,0,0:0:0:0:
182,192,23604,128,0,24004:0:0:0:0:
402,192,23804,1,0,0:0:0:0:
475,192,24004,128,0,25604:0:0:0:0:
109,192,24004,1,0,0:0:0:0:
329,192,24004,1,0,0:0:0:0:
402,192,24204,1,0,0:0:0:0:
182,192,24204,1,0,0:0:0:0:
256,192,24404,1,0,0:0:0:0:
329,192,24404,128,0,24804:0:0:0:0:
109,192,24604,1,0,0:0:0:0:
36,192,24604,1,0,0:0:0:0:
402,192,24804,1,0,0:0:0:0:
182,192,24804,1,0,0:0:0:0:
256,192,24804,128,0,25204:0:0:0:0:
109,192,25004,1,0,0:0:0:0:
182,192,25204,1,0,0:0:0:0:
36,192,25204,1,0,0:0:0:0:
402,192,25204,128,0,25604:0:0:0:0:
109,192,25404,1,0,0:0:0:0:
256,192,25604,128,0,27204:0:0:0:0:
36,192,25604,1,0,0:0:0:0:
329,192,25604,1,0,0:0:0:0:
182,192,25604,128,0,26004:0:0:0:0:
109,192,25804,128,0,26004:0:0:0:0:
329,192,26004,128,0,26404:0:0:0:0:
36,192,26004,1,0,0:0:0:0:
402,192,26204,128,0,26404:0:0:0:0:
109,192,26404,128,0,26804:0:0:0:0:
475,192,26404,1,0,0:0:0:0:
36,192,26604,128,0,26804:0:0:0:0:
402,192,26804,128,0,27204:0:0:0:0:
182,192,26804,1,0,0:0:0:0:
475,192,27004,128,0,27204:0:0:0:0:
36,192,27204,128,0,28804:0:0:0:0:
182,192,27204,1,0,0:0:0:0:
329,192,27304,128,0,29104:0:0:0:0:
109,192,27304,128,0,28904:0:0:0:0:
402,192,27404,128,0,29204:0:0:0:0:
182,192,27404,128,0,29004:0:0:0:0:
475,192,27504,128,0,29304:0:0:0:0:
