osu file format v14

[General]
AudioFilename: audio.mp3
AudioLeadIn: 0
PreviewTime: 23547
Countdown: 1
SampleSet: None
StackLeniency: 0.7
Mode: 0
LetterboxInBreaks: 0
WidescreenStoryboard: 0

[Editor]
DistanceSpacing: 0.8
BeatDivisor: 8
GridSize: 4
TimelineZoom: 1

[Metadata]
Title:ur name is jordan
TitleUnicode:ur name is jordan
Artist:jacksfilms
ArtistUnicode:jacksfilms
Creator:OwOwWhatsThis
Version:extra
Source:jackasks 68
Tags:diss jack forehead
BeatmapID:1657649
BeatmapSetID:789891

[Difficulty]
HPDrainRate:10
CircleSize:2
OverallDifficulty:10
ApproachRate:10
SliderMultiplier:1.4
SliderTickRate:1

[Events]
//Background and Video events
0,0,"death.jpg",0,0
//Break Periods
//Storyboard Layer 0 (Background)
//Storyboard Layer 1 (Fail)
//Storyboard Layer 2 (Pass)
//Storyboard Layer 3 (Foreground)
//Storyboard Sound Samples

[TimingPoints]
23547,187.5,4,1,0,100,1,0
23547,-100,4,1,0,100,0,1
28090,-100,4,1,0,100,0,0

[Colours]
Combo1 : 64,0,64
Combo2 : 255,128,192
Combo3 : 128,0,255
Combo4 : 128,255,0
Combo5 : 128,0,0
Combo6 : 64,0,64
Combo7 : 0,64,128
Combo8 : 0,128,255

[HitObjects]
40,204,23703,6,0,P|76:264|92:268,1,70
200,88,23828,2,0,L|192:144,1,46.6666666666667
376,300,23922,2,0,L|420:260,1,46.6666666666667
172,132,24078,1,0,3:3:0:0:
168,148,24109,1,0,3:3:0:0:
168,168,24140,1,0,3:3:0:0:
176,188,24172,1,0,3:3:0:0:
192,204,24203,1,0,3:3:0:0:
216,208,24234,1,0,3:3:0:0:
352,92,24265,5,0,3:3:0:0:
184,312,24297,2,0,L|160:288,1,23.3333333333333
344,268,24359,2,0,L|364:244,1,23.3333333333333
84,260,24422,2,0,L|68:240,1,23.3333333333333
404,252,24484,2,0,L|428:216,1,23.3333333333333
24,232,24547,2,0,L|52:204,1,23.3333333333333
484,228,24609,2,0,L|464:208,1,23.3333333333333
16,80,24797,2,0,L|16:128,1,46.6666666666667
296,256,24890,2,0,P|336:276|376:268,1,70
436,52,25015,2,0,L|436:136,1,70
64,224,25140,2,0,L|92:224,3,23.3333333333333
212,176,25265,5,0,3:3:0:0:
292,228,25297,1,0,3:3:0:0:
192,296,25328,1,0,3:3:0:0:
184,72,25359,1,0,3:3:0:0:
264,336,25390,1,0,3:3:0:0:
96,112,25422,1,0,3:3:0:0:
344,340,25453,1,0,3:3:0:0:
52,176,25484,1,0,3:3:0:0:
444,104,25609,2,0,L|400:104,1,23.3333333333333
292,108,25672,2,0,L|336:108,1,23.3333333333333
312,96,25734,6,0,L|344:92,1,23.3333333333333
420,88,25797,6,0,L|456:88,1,23.3333333333333
136,120,25859,1,0,0:0:0:0:
472,292,25890,1,0,0:0:0:0:
256,28,25922,1,0,0:0:0:0:
160,364,25953,1,0,0:0:0:0:
440,160,25984,1,0,0:0:0:0:
164,40,26007,1,0,0:0:0:0:
60,340,26031,1,0,0:0:0:0:
336,68,26054,1,0,0:0:0:0:
56,160,26078,1,0,0:0:0:0:
480,164,26101,1,0,0:0:0:0:
16,160,26125,1,0,0:0:0:0:
216,176,26148,6,0,L|180:200,1,35
304,248,26218,6,2,P|320:264|348:272,1,52.5
168,152,26312,6,0,L|140:152,1,17.5
264,152,26359,2,0,L|312:152,1,35
64,148,26476,1,0,0:0:0:0:
360,64,26500,1,0,0:0:0:0:
152,312,26523,1,0,0:0:0:0:
184,8,26547,1,0,0:0:0:0:
380,312,26570,1,0,0:0:0:0:
56,224,26593,1,0,0:0:0:0:
384,220,26617,1,0,0:0:0:0:
224,232,26640,1,0,0:0:0:0:
476,220,26664,1,0,0:0:0:0:
160,68,26687,2,0,L|128:68,1,17.5
228,64,26734,2,0,L|256:64,1,17.5
56,200,26781,6,0,L|32:200,1,17.5
456,204,26828,6,0,L|496:204,1,35
176,304,26898,2,0,P|232:320|256:316,1,70
264,316,27015,1,0,0:0:0:0:
276,304,27039,1,0,0:0:0:0:
284,284,27062,1,0,0:0:0:0:
144,152,27086,1,0,0:0:0:0:
368,148,27109,1,0,0:0:0:0:
56,296,27132,1,0,0:0:0:0:
44,288,27156,1,0,0:0:0:0:
40,268,27179,1,0,0:0:0:0:
396,168,27203,1,0,0:0:0:0:
408,152,27226,1,0,0:0:0:0:
412,128,27250,1,0,0:0:0:0:
156,96,27273,1,0,0:0:0:0:
388,92,27297,5,0,0:0:0:0:
220,324,27320,5,0,0:0:0:0:
272,16,27343,5,0,0:0:0:0:
384,336,27367,5,0,0:0:0:0:
68,264,27390,5,0,0:0:0:0:
264,144,27414,5,0,0:0:0:0:
336,256,27437,5,0,0:0:0:0:
88,184,27461,5,0,0:0:0:0:
408,152,27484,5,0,0:0:0:0:
168,112,27507,5,0,0:0:0:0:
64,80,27531,5,0,0:0:0:0:
60,96,27554,1,0,0:0:0:0:
64,116,27578,1,0,0:0:0:0:
68,124,27601,1,0,0:0:0:0:
80,136,27625,1,0,0:0:0:0:
84,136,27648,1,0,0:0:0:0:
88,136,27672,1,0,0:0:0:0:
96,136,27695,1,0,0:0:0:0:
100,132,27718,1,0,0:0:0:0:
100,128,27742,1,0,0:0:0:0:
108,120,27765,2,0,L|116:92,1,17.5
428,84,27812,2,0,L|428:104,1,17.5
256,184,27859,2,0,P|248:252|240:256,1,87.5
56,192,28047,1,0,0:0:0:0:
316,156,28070,5,0,0:0:0:0:
316,136,28093,1,0,0:0:0:0:
256,192,28117,12,0,28656,0:0:0:0:
