osu file format v14

[General]
AudioFilename: audio.mp3
AudioLeadIn: 0
PreviewTime: 144
Countdown: 1
SampleSet: Normal
StackLeniency: 0.2
Mode: 0
LetterboxInBreaks: 0
WidescreenStoryboard: 0

[Editor]
DistanceSpacing: 1.6
BeatDivisor: 16
GridSize: 8
TimelineZoom: 3.099999

[Metadata]
Title:New Kidzbop Song
TitleUnicode:New Kidzbop Song
Artist:jacksfilms
ArtistUnicode:jacksfilms
Creator:Osuology
Version:screams
Source:
Tags:
BeatmapID:1544797
BeatmapSetID:732111

[Difficulty]
HPDrainRate:5
CircleSize:4
OverallDifficulty:10
ApproachRate:10
SliderMultiplier:1.4
SliderTickRate:1

[Events]
//Background and Video events
//Break Periods
//Storyboard Layer 0 (Background)
//Storyboard Layer 1 (Fail)
//Storyboard Layer 2 (Pass)
//Storyboard Layer 3 (Foreground)
//Storyboard Sound Samples

[TimingPoints]
144,454.545454545455,4,2,0,40,1,0
1507,-50,4,1,0,70,0,0

[HitObjects]
224,280,144,5,0,0:1:0:0:
224,280,144,2,0,L|339:277,1,105,0|0,0:1|0:1,0:1:0:0:
224,280,598,1,0,0:1:0:0:
224,280,598,2,0,L|339:277,1,105,0|0,0:1|0:1,0:1:0:0:
224,280,1053,2,0,L|335:273,1,105,0|0,0:1|0:1,0:1:0:0:
224,280,1053,1,0,0:1:0:0:
45,26,1507,6,0,B|26:46|48:80|83:37|83:37|115:47|123:118|62:130|62:130|39:191,1,210,0|0,0:1|0:1,0:1:0:0:
45,26,1507,1,0,0:1:0:0:
45,26,1507,1,0,0:1:0:0:
51,190,1962,5,0,0:1:0:0:
51,190,1962,1,0,0:1:0:0:
102,201,2075,5,0,0:1:0:0:
102,201,2075,1,0,0:1:0:0:
222,81,2189,5,0,0:1:0:0:
45,322,2189,1,0,0:1:0:0:
51,190,2303,5,0,0:1:0:0:
51,190,2303,1,0,0:1:0:0:
258,0,2416,5,0,0:1:0:0:
258,0,2416,1,0,0:1:0:0:
247,38,2529,5,0,0:1:0:0:
247,38,2529,1,0,0:1:0:0:
367,158,2643,5,0,0:1:0:0:
126,0,2643,1,0,0:1:0:0:
258,0,2757,5,0,0:1:0:0:
258,0,2757,1,0,0:1:0:0:
402,48,2871,5,0,0:1:0:0:
402,48,2871,1,0,0:1:0:0:
358,76,2984,5,0,0:1:0:0:
358,76,2984,1,0,0:1:0:0:
358,246,3098,5,0,0:1:0:0:
313,0,3098,1,0,0:1:0:0:
402,48,3212,5,0,0:1:0:0:
402,48,3212,1,0,0:1:0:0:
399,338,3325,5,0,0:1:0:0:
399,338,3325,1,0,0:1:0:0:
371,294,3438,5,0,0:1:0:0:
371,294,3438,1,0,0:1:0:0:
201,294,3552,5,0,0:1:0:0:
497,249,3552,1,0,0:1:0:0:
399,338,3666,5,0,0:1:0:0:
399,338,3666,1,0,0:1:0:0:
371,294,3780,5,0,0:1:0:0:
371,294,3780,1,0,0:1:0:0:
201,294,3894,5,0,0:1:0:0:
497,249,3894,1,0,0:1:0:0:
399,338,4008,5,0,0:1:0:0:
399,338,4008,1,0,0:1:0:0:
144,84,4234,5,0,0:1:0:0:
172,80,4234,1,0,0:1:0:0:
199,77,4234,1,0,0:1:0:0:
227,74,4234,1,0,0:1:0:0:
227,74,4235,1,0,0:1:0:0:
227,74,4235,1,0,0:1:0:0:
