osu file format v14

[General]
AudioFilename: audio.mp3
AudioLeadIn: 0
PreviewTime: -1
Countdown: 1
SampleSet: None
StackLeniency: 0.7
Mode: 0
LetterboxInBreaks: 0
WidescreenStoryboard: 1

[Editor]
Bookmarks: 30,11030,20780,22530
DistanceSpacing: 0.8
BeatDivisor: 2
GridSize: 8
TimelineZoom: 1

[Metadata]
Title:IDFB Theme
TitleUnicode:IDFB Theme
Artist:jacknjellify
ArtistUnicode:jacknjellify
Creator:Pruz
Version:Normal
Source:
Tags:
BeatmapID:1073055
BeatmapSetID:504325

[Difficulty]
HPDrainRate:6.2
CircleSize:4
OverallDifficulty:5
ApproachRate:6.3
SliderMultiplier:1.4
SliderTickRate:1

[Events]
//Background and Video events
0,0,"IDFB.png",0,0
//Break Periods
//Storyboard Layer 0 (Background)
//Storyboard Layer 1 (Fail)
//Storyboard Layer 2 (Pass)
//Storyboard Layer 3 (Foreground)
//Storyboard Sound Samples

[TimingPoints]
30.4026311007148,250,4,1,0,100,1,0
11030,-100,4,1,0,100,0,1
20780,-200,4,2,0,100,0,0

[Colours]
Combo1 : 255,84,141
Combo2 : 255,198,84
Combo3 : 255,113,84

[HitObjects]
128,136,30,6,0,P|152:104|256:96,1,140
210,164,530,2,0,P|258:172|322:116,1,140
308,39,1030,2,0,P|390:59|451:50,1,140
373,64,1530,2,0,P|413:117|489:109,1,140
454,186,2030,5,0,0:0:0:0:
395,242,2280,1,0,0:0:0:0:
378,171,2530,2,0,P|342:180|294:266,1,140
218,263,3030,2,0,P|195:199|134:171,1,140
117,242,3529,1,0,0:0:0:0:
58,186,3779,1,0,0:0:0:0:
79,108,4030,6,0,P|130:88|203:125,1,140
309,123,4530,2,0,P|367:88|433:108,1,140
454,186,5031,1,0,0:0:0:0:
395,242,5281,1,0,0:0:0:0:
401,316,5530,2,0,P|449:293|461:206,1,140
389,168,6030,6,0,P|341:191|329:278,1,140
321,354,6530,2,0,P|261:334|173:368,1,140
104,339,7030,1,0,0:0:0:0:
64,265,7280,1,0,0:0:0:0:
60,179,7530,2,0,P|106:184|150:273,1,140
229,258,8030,6,0,P|219:195|169:127,1,140
120,76,8530,2,0,P|185:55|243:91,1,140
293,151,9030,2,0,P|318:116|213:21,1,210
225,16,9530,1,0,0:0:0:0:
147,52,9780,1,0,0:0:0:0:
83,111,10030,6,0,P|97:165|90:255,1,140
21,172,10530,2,0,P|15:240|-27:311,1,140
39,362,11030,2,0,P|77:335|171:351,1,140
276,344,11530,2,0,P|342:361|402:328,1,140
327,273,12030,6,0,P|264:257|194:306,1,140
255,227,12530,1,0,0:0:0:0:
231,147,12780,1,0,0:0:0:0:
254,70,13030,2,0,P|308:50|367:118,1,140
338,183,13530,2,0,P|284:203|225:135,1,140
266,77,14030,5,0,0:0:0:0:
175,84,14280,1,0,0:0:0:0:
94,49,14530,2,0,P|39:47|0:131,1,140
42,182,15030,2,0,P|85:185|52:117,1,140
42,182,15530,2,0,P|75:244|156:296,1,140
131,193,16030,6,0,P|188:148|205:55,1,140
256,12,16530,1,0,0:0:0:0:
256,12,16780,1,0,0:0:0:0:
303,85,17030,2,0,P|326:151|381:193,1,140
382,285,17530,2,0,P|437:243|470:182,1,140
441,114,18030,6,0,P|411:166|470:182,1,140
512,112,18530,2,0,P|484:53|418:48,1,140
334,82,19030,2,0,P|264:102|192:62,1,140
129,28,19530,2,0,P|65:2|0:23,1,140
63,85,20030,6,0,P|110:115|194:82,1,140
226,167,20530,1,0,0:0:0:0:
256,192,20780,12,0,22530,0:0:0:0:
