osu file format v14

[General]
AudioFilename: audio.mp3
AudioLeadIn: 0
PreviewTime: -1
Countdown: 1
SampleSet: Soft
StackLeniency: 0.7
Mode: 0
LetterboxInBreaks: 0
WidescreenStoryboard: 1

[Editor]
Bookmarks: 30,11030,20780,22530
DistanceSpacing: 0.8
BeatDivisor: 2
GridSize: 8
TimelineZoom: 1

[Metadata]
Title:IDFB Theme
TitleUnicode:IDFB Theme
Artist:jacknjellify
ArtistUnicode:jacknjellify
Creator:Pruz
Version:Insane
Source:
Tags:
BeatmapID:1073054
BeatmapSetID:504325

[Difficulty]
HPDrainRate:7.7
CircleSize:4.3
OverallDifficulty:6.9
ApproachRate:8.1
SliderMultiplier:1.4
SliderTickRate:1

[Events]
//Background and Video events
0,0,"IDFB.png",0,0
//Break Periods
//Storyboard Layer 0 (Background)
//Storyboard Layer 1 (Fail)
//Storyboard Layer 2 (Pass)
//Storyboard Layer 3 (Foreground)
//Storyboard Sound Samples

[TimingPoints]
30.4026311007148,250,4,1,0,100,1,0
11030,-100,4,1,0,100,0,1
20780,-200,4,2,0,100,0,0

[Colours]
Combo1 : 255,84,141
Combo2 : 255,198,84
Combo3 : 255,113,84

[HitObjects]
180,249,30,6,0,P|244:273|319:254,1,140
240,128,405,1,0,0:0:0:0:
120,32,530,2,0,P|46:57|6:118,1,140
60,330,1030,2,0,L|189:247,1,140
349,197,1530,2,0,P|271:185|266:102,1,140
280,72,1905,1,0,0:0:0:0:
346,71,2030,5,0,0:0:0:0:
241,29,2280,1,0,0:0:0:0:
157,93,2530,2,0,P|73:103|14:64,1,140
219,253,3030,2,0,P|193:328|77:349,1,140
200,216,3405,1,0,0:0:0:0:
339,129,3530,2,0,P|425:103|480:125,1,140
286,209,4030,1,0,0:0:0:0:
287,13,4280,5,0,0:0:0:0:
397,208,4530,2,0,P|375:288|305:353,1,140
92,289,5030,1,0,0:0:0:0:
254,116,5280,1,0,0:0:0:0:
188,158,5530,2,0,P|176:91|243:38,1,140
297,53,5905,1,0,0:0:0:0:
254,116,6030,2,0,P|185:112|168:103,1,70
105,51,6280,6,0,P|81:122|88:227,1,140
165,361,6780,2,0,P|234:322|259:228,1,140
188,40,7280,1,0,0:0:0:0:
80,192,7530,2,0,P|103:255|176:273,1,140
243,265,7905,1,0,0:0:0:0:
166,178,8030,6,0,P|104:206|97:301,1,140
243,265,8530,2,0,L|408:263,1,140
157,276,9030,2,0,P|179:208|276:186,1,140
118,344,9530,2,0,P|80:295|96:192,1,140
200,128,9905,1,0,0:0:0:0:
321,90,10030,5,0,0:0:0:0:
338,330,10280,1,0,0:0:0:0:
246,188,10530,2,0,P|268:113|353:95,1,140
175,234,11030,1,0,0:0:0:0:
108,45,11280,1,0,0:0:0:0:
224,32,11405,1,0,0:0:0:0:
316,91,11530,1,0,0:0:0:0:
148,144,11780,1,0,0:0:0:0:
316,91,12030,6,0,P|399:127|385:225,1,140
280,288,12530,2,0,P|288:224|333:166,1,140
212,332,13030,1,0,0:0:0:0:
117,169,13280,1,0,0:0:0:0:
208,80,13405,1,0,0:0:0:0:
346,88,13530,2,0,P|401:124|411:211,1,140
207,234,14030,6,0,L|333:172,1,140
113,165,14530,2,0,P|94:246|100:326,1,140
221,338,14905,1,0,0:0:0:0:
365,270,15030,1,0,0:0:0:0:
211,80,15280,1,0,0:0:0:0:
92,306,15530,2,0,P|145:338|230:336,1,140
211,80,16030,6,0,P|150:55|47:78,1,140
176,256,16530,2,0,L|343:237,1,140
368,136,16905,1,0,0:0:0:0:
311,42,17030,2,0,P|407:49|444:93,1,140
232,188,17530,1,0,0:0:0:0:
443,191,17780,2,0,P|408:260|323:284,1,140
250,112,18280,6,0,P|164:86|77:97,2,140
248,240,18905,1,0,0:0:0:0:
163,337,19030,2,0,P|108:269|92:209,1,140
323,331,19530,1,0,0:0:0:0:
455,168,19780,1,0,0:0:0:0:
480,328,20030,5,0,0:0:0:0:
286,112,20280,1,0,0:0:0:0:
223,320,20530,1,0,0:0:0:0:
256,192,20780,12,0,22530,0:0:0:0:
