osu file format v14

[General]
AudioFilename: audio.mp3
AudioLeadIn: 0
PreviewTime: -1
Countdown: 1
SampleSet: None
StackLeniency: 0.7
Mode: 0
LetterboxInBreaks: 0
WidescreenStoryboard: 1

[Editor]
Bookmarks: 30,11030,20780,22530
DistanceSpacing: 0.8
BeatDivisor: 2
GridSize: 8
TimelineZoom: 1

[Metadata]
Title:IDFB Theme
TitleUnicode:IDFB Theme
Artist:jacknjellify
ArtistUnicode:jacknjellify
Creator:Pruz
Version:Hard
Source:
Tags:
BeatmapID:1073053
BeatmapSetID:504325

[Difficulty]
HPDrainRate:6.7
CircleSize:4.1
OverallDifficulty:5.8
ApproachRate:7.3
SliderMultiplier:1.4
SliderTickRate:1

[Events]
//Background and Video events
0,0,"IDFB.png",0,0
//Break Periods
//Storyboard Layer 0 (Background)
//Storyboard Layer 1 (Fail)
//Storyboard Layer 2 (Pass)
//Storyboard Layer 3 (Foreground)
//Storyboard Sound Samples

[TimingPoints]
30.4026311007148,250,4,1,0,100,1,0
11030,-100,4,1,0,100,0,1
20780,-200,4,2,0,100,0,0

[Colours]
Combo1 : 255,84,141
Combo2 : 255,198,84
Combo3 : 255,113,84

[HitObjects]
192,320,30,6,0,P|136:264|64:264,1,140
104,344,530,1,0,0:0:0:0:
160,280,780,1,0,0:0:0:0:
80,104,1030,2,0,P|117:46|192:16,1,140
152,168,1530,2,0,P|152:112|248:120,1,140
312,152,2030,6,0,P|376:184|448:184,1,140
512,128,2530,2,0,B|528:64|528:64|448:72|432:64,1,140
328,88,3030,2,0,P|264:128|232:232,1,140
160,88,3530,2,0,P|152:160|176:240,2,140
232,144,4280,5,0,0:0:0:0:
88,144,4530,2,0,P|32:128|-40:56,1,140
64,56,5030,2,0,P|112:72|208:64,1,140
288,72,5530,2,0,P|248:136|160:144,1,140
368,56,6030,5,0,0:0:0:0:
440,120,6280,1,0,0:0:0:0:
344,152,6530,2,0,P|280:104|272:32,1,140
168,64,7030,1,0,0:0:0:0:
112,112,7155,1,0,0:0:0:0:
88,184,7280,2,0,P|80:256|104:336,1,140
184,320,7780,2,0,P|200:240|176:160,1,140
152,104,8280,6,0,P|104:160|120:248,2,140
224,160,9030,2,0,P|144:192|56:104,1,210
200,32,9530,2,0,P|240:96|208:176,1,140
280,224,10030,6,0,P|352:200|440:248,1,140
280,304,10530,2,0,P|216:272|208:184,1,140
280,192,11030,2,0,P|232:136|160:136,1,140
112,200,11530,2,0,P|64:216|24:128,1,140
71,76,12030,6,0,P|109:119|85:223,1,140
57,288,12530,1,0,0:0:0:0:
162,284,12780,1,0,0:0:0:0:
252,335,13030,2,0,P|259:271|181:182,1,140
319,174,13530,2,0,P|256:118|165:130,1,140
148,37,14030,6,0,P|111:109|155:190,1,140
32,146,14530,2,0,P|75:224|159:259,1,140
114,248,15030,2,0,P|140:179|220:160,1,140
290,134,15530,1,0,0:0:0:0:
344,60,15780,1,0,0:0:0:0:
249,39,16030,6,0,P|171:60|88:48,1,140
50,115,16530,2,0,P|75:192|54:262,1,140
104,322,17030,1,0,0:0:0:0:
154,241,17280,1,0,0:0:0:0:
232,186,17530,2,0,P|273:228|359:239,1,140
324,151,18030,6,0,P|357:122|456:145,1,140
232,186,18530,2,0,P|231:109|300:43,1,140
195,257,19030,2,0,P|113:265|54:171,1,140
271,58,19530,2,0,P|351:78|388:149,1,140
411,244,20030,5,0,0:0:0:0:
471,323,20280,1,0,0:0:0:0:
371,335,20530,1,0,0:0:0:0:
256,192,20780,12,0,22530,0:0:0:0:
