osu file format v14

[General]
AudioFilename: audio.mp3
AudioLeadIn: 0
PreviewTime: 70604
Countdown: 0
SampleSet: Drum
StackLeniency: 0.3
Mode: 0
LetterboxInBreaks: 0
WidescreenStoryboard: 0

[Editor]
Bookmarks: 5777,28365,50953,51306,51659,73541,96129,118718,141306,186482,220365,231659
DistanceSpacing: 1.9
BeatDivisor: 6
GridSize: 16
TimelineZoom: 3.199998

[Metadata]
Title:Gertrude (feat. Lonemoon & Samad Savage)
TitleUnicode:Gertrude (feat. Lonemoon & Samad Savage)
Artist:JKuch
ArtistUnicode:JKuch
Creator:squirrelpascals
Version:Welcome to my Let's Play
Source:
Tags:english striderin jasontime12345 jasontime hip hop rap electronic
BeatmapID:2421999
BeatmapSetID:1160876

[Difficulty]
HPDrainRate:6
CircleSize:5
OverallDifficulty:8.5
ApproachRate:8.8
SliderMultiplier:1
SliderTickRate:1

[Events]
//Background and Video events
0,0,"veryworldly.jpg",0,0
//Break Periods
2,96339,106099
//Storyboard Layer 0 (Background)
//Storyboard Layer 1 (Fail)
//Storyboard Layer 2 (Pass)
//Storyboard Layer 3 (Foreground)
//Storyboard Layer 4 (Overlay)
//Storyboard Sound Samples

[TimingPoints]
140,352.941176470588,4,3,1,40,1,0
140,-88.8888888888889,4,3,1,40,0,0
375,-88.8888888888889,4,3,1,5,0,0
492,-88.8888888888889,4,3,1,40,0,0
728,-88.8888888888889,4,3,1,5,0,0
845,-88.8888888888889,4,3,1,40,0,0
3198,-88.8888888888889,4,3,1,5,0,0
3316,-88.8888888888889,4,3,1,40,0,0
3551,-88.8888888888889,4,3,1,5,0,0
3669,-88.8888888888889,4,3,1,40,0,0
5787,-800,4,3,2,40,0,0
10728,-133.333333333333,4,3,2,40,0,0
11434,-800,4,3,2,40,0,0
17081,-200,4,3,1,40,0,0
17787,-200,4,3,2,40,0,0
18492,-800,4,3,2,40,0,0
22728,-333.333333333333,4,3,2,40,0,0
24845,-62.5,4,3,2,40,0,0
25434,-62.5,4,3,2,5,0,0
25551,-62.5,4,3,2,40,0,0
26610,-100,4,3,2,40,0,0
26787,-100,4,3,2,5,0,0
26845,-50,4,3,2,60,0,0
27198,-50,4,3,2,5,0,0
27316,-76.9230769230769,4,3,2,60,0,0
27492,-76.9230769230769,4,3,1,5,0,0
27669,-76.9230769230769,4,3,1,60,0,0
29787,-100,4,3,1,60,0,0
30492,-76.9230769230769,4,3,1,60,0,0
34022,-100,4,3,1,60,0,0
34728,-76.9230769230769,4,3,1,60,0,0
36139,-66.6666666666667,4,3,1,60,0,0
36845,-76.9230769230769,4,3,1,60,0,0
37551,-100,4,3,1,60,0,0
37904,-62.5,4,3,1,60,0,0
39316,-55.5555555555556,4,3,1,60,0,0
39669,-76.9230769230769,4,3,1,60,0,0
47610,-133.333333333333,4,3,1,60,0,0
48139,-76.9230769230769,4,3,1,60,0,0
50610,-133.333333333333,4,3,1,60,0,0
51434,-50,4,3,1,60,0,0
51610,-50,4,3,1,40,0,0
51669,-50,4,3,1,60,0,0
52022,-62.5,4,3,1,60,0,0
52375,-76.9230769230769,4,3,1,60,0,0
53875,-76.9230769230769,4,3,1,5,0,0
53963,-76.9230769230769,4,3,1,60,0,0
55551,-62.5,4,3,1,60,0,0
55904,-62.5,4,3,1,60,0,1
56522,-62.5,4,3,1,40,0,1
56610,-76.9230769230769,4,3,1,60,0,0
60845,-76.9230769230769,4,3,1,60,0,1
62257,-76.9230769230769,4,3,1,60,0,0
66845,-50,4,3,1,60,0,0
67551,-100,4,3,1,60,0,0
67904,-76.9230769230769,4,3,1,60,0,0
72845,-76.9230769230769,4,3,1,30,0,0
73081,-76.9230769230769,4,3,1,35,0,0
73198,-76.9230769230769,4,3,1,40,0,0
73434,-76.9230769230769,4,3,1,45,0,0
73551,-76.9230769230769,4,3,1,60,0,1
74139,-76.9230769230769,4,3,1,60,0,1
74198,-76.9230769230769,4,3,1,30,0,1
74257,-76.9230769230769,4,3,1,60,0,0
74610,-50,4,3,1,60,0,1
75316,-76.9230769230769,4,3,1,60,0,1
77434,-50,4,3,1,60,0,1
79198,-76.9230769230769,4,3,1,60,0,1
79316,-76.9230769230769,4,3,1,30,0,1
79551,-76.9230769230769,4,3,1,60,0,1
79904,-50,4,3,1,60,0,1
80257,-62.5,4,3,1,60,0,1
84139,-37.037037037037,4,3,1,60,0,1
84492,-37.037037037037,4,3,1,60,0,0
84845,-62.5,4,3,1,60,0,1
88375,-50,4,3,1,60,0,1
89081,-100,4,3,1,60,0,1
89787,-50,4,3,1,60,0,1
95904,-250,4,3,2,60,0,1
96139,-250,4,3,1,30,0,0
106728,-133.333333333333,4,3,1,40,0,0
107316,-133.333333333333,4,3,1,5,0,0
107434,-133.333333333333,4,3,1,40,0,0
107610,-133.333333333333,4,3,1,35,0,0
107787,-133.333333333333,4,3,1,30,0,0
108669,-133.333333333333,4,3,1,35,0,0
109551,-133.333333333333,4,3,1,40,0,0
109787,-133.333333333333,4,3,1,35,0,0
110022,-133.333333333333,4,3,1,30,0,0
110728,-133.333333333333,4,3,1,35,0,0
111610,-133.333333333333,4,3,1,50,0,0
113081,-133.333333333333,4,3,1,30,0,0
113787,-363.636363636364,4,3,1,30,0,0
116492,-363.636363636364,4,3,1,5,0,0
116728,-147.058823529412,4,3,1,30,0,0
118610,-147.058823529412,4,3,1,5,0,0
118728,-800,4,3,2,40,0,0
120845,-133.333333333333,4,3,2,40,0,0
121551,-800,4,3,2,40,0,0
122963,-200,4,3,2,40,0,0
124022,-133.333333333333,4,3,2,40,0,0
124257,-133.333333333333,4,3,2,5,0,0
124375,-800,4,3,2,40,0,0
126492,-200,4,3,2,40,0,0
128257,-800,4,3,2,40,0,0
128610,-200,4,3,2,40,0,0
128963,-133.333333333333,4,3,2,40,0,0
129492,-86.2068965517241,4,3,2,40,0,0
130022,-86.2068965517241,4,3,1,40,0,0
130610,-200,4,3,1,40,0,0
132139,-100,4,3,2,40,0,0
132492,-100,4,3,1,30,0,0
132845,-100,4,3,1,40,0,0
133434,-200,4,3,1,40,0,0
137081,-133.333333333333,4,3,1,40,0,0
138139,-133.333333333333,4,3,1,30,0,0
138492,-769.230769230769,4,3,1,30,0,0
139904,-76.9230769230769,4,3,1,60,0,0
140492,-76.9230769230769,4,3,1,5,0,0
140610,-76.9230769230769,4,3,1,60,0,0
141316,-76.9230769230769,4,3,1,60,0,0
143434,-62.5,4,3,1,60,0,0
144139,-76.9230769230769,4,3,1,60,0,0
145904,-38.4615384615385,4,3,1,60,0,0
146257,-76.9230769230769,4,3,1,60,0,0
149787,-100,4,3,2,60,0,0
150492,-100,4,3,1,60,0,0
150845,-100,4,3,2,60,0,0
151551,-50,4,3,1,60,0,0
152610,-76.9230769230769,4,3,1,60,0,0
161787,-50,4,3,1,60,0,0
162139,-62.5,4,3,1,60,0,0
163551,-133.333333333333,4,3,1,60,0,0
164139,-62.5,4,3,1,60,0,0
164610,-50,4,3,1,60,0,0
164963,-62.5,4,3,1,60,0,0
166022,-76.9230769230769,4,3,1,60,0,0
167787,-62.5,4,3,1,60,0,0
168139,-76.9230769230769,4,3,1,60,0,0
171669,-62.5,4,3,1,60,0,0
172728,-769.230769230769,4,3,1,60,0,0
173787,-200,4,3,1,60,0,0
174492,-43.4782608695652,4,3,2,60,0,0
174845,-43.4782608695652,4,3,1,60,0,0
175198,-76.9230769230769,4,3,1,60,0,0
176728,-62.5,4,3,1,60,0,0
178022,-76.9230769230769,4,3,1,60,0,0
179787,-62.5,4,3,1,60,0,0
181904,-76.9230769230769,4,3,1,60,0,0
182257,-62.5,4,3,1,60,0,0
183669,-62.5,4,3,1,60,0,0
184963,-76.9230769230769,4,3,1,60,0,0
185787,-1000,4,3,2,60,0,0
186434,-1000,4,3,2,5,0,0
186492,-133.333333333333,4,3,1,60,0,0
187198,-76.9230769230769,4,3,1,60,0,0
207669,-62.5,4,3,1,60,0,0
210845,-62.5,4,3,90,60,0,0
211198,-62.5,4,3,91,60,0,0
211375,-62.5,4,3,1,60,0,0
212610,-62.5,4,3,91,60,0,0
212963,-62.5,4,3,1,60,0,0
214728,-50,4,3,1,60,0,0
218963,-62.5,4,3,1,60,0,0
219316,-76.9230769230769,4,3,1,60,0,0
219669,-100,4,3,1,60,0,0
220022,-200,4,3,1,60,0,0
231669,-200,4,3,1,5,0,0

[Colours]
Combo1 : 133,163,134
Combo2 : 230,175,108
Combo3 : 113,163,179

[HitObjects]
39,219,140,6,0,P|89:236|108:271,1,75,2|0,0:2|0:0,0:0:0:0:
49,300,492,2,0,P|43:263|67:218,1,75,0|0,0:2|0:0,0:0:0:0:
119,325,845,2,0,L|239:365,1,112.500004291535,8|2,0:1|0:0,0:0:0:0:
385,294,1434,1,8,0:1:0:0:
385,294,1551,6,0,B|438:282|439:326|495:308,2,112.500004291535,2|0|8,0:2|0:0|0:1,0:0:0:0:
334,195,2434,2,0,P|323:234|336:268,1,56.2500021457673,0|2,0:0|0:0,0:0:0:0:
447,74,2963,6,0,P|426:54|431:3,1,75,2|0,0:2|0:0,0:0:0:0:
462,72,3316,2,0,P|433:104|400:108,1,75
356,50,3669,2,0,P|327:32|238:7,1,112.500004291535,8|2,0:1|0:0,0:0:0:0:
85,27,4257,1,8,0:1:0:0:
85,27,4375,6,0,B|66:11|98:-31|117:-34|153:85|39:97|14:126|60:247|101:247|148:186|152:115|102:118,1,337.500012874604,2|2,0:2|0:0,0:0:0:0:
33,166,5787,6,0,L|29:211,1,25,8|8,0:0|2:3,0:0:0:0:
135,319,7198,2,0,L|158:315,1,20.8333333333333,8|0,0:0|0:0,0:0:0:0:
219,342,7904,2,0,L|217:356,1,12.5,12|0,2:3|0:0,0:0:0:0:
344,153,8610,6,0,L|339:129,1,25,8|8,0:0|2:3,0:0:0:0:
426,279,10022,2,0,P|437:276|443:273,1,18.75,8|0,0:0|0:0,0:0:0:0:
506,305,10728,2,0,B|504:329|504:329|514:317,1,37.5000014305115,8|0,0:1|0:0,0:0:0:0:
208,227,11434,6,0,L|182:223,1,25,8|8,0:0|2:3,0:0:0:0:
32,128,12845,2,0,L|28:108,1,20.8333333333333,8|0,0:0|0:0,0:0:0:0:
83,175,13551,2,0,L|81:188,1,12.5,12|0,0:0|0:0,0:0:0:0:
232,17,14257,6,0,L|257:14,3,25,10|8|8|8,0:0|2:3|0:0|0:0,0:0:0:0:
187,67,16728,1,0,0:0:0:0:
458,41,17081,6,0,L|471:150,1,100,10|8,0:0|2:3,0:0:0:0:
311,237,18492,2,0,L|289:233,1,20.8333333333333,8|0,0:0|0:0,0:0:0:0:
229,273,19198,2,0,L|217:281,1,12.5,12|0,2:3|0:0,0:0:0:0:
330,377,19904,6,0,L|352:363,1,25,8|8,0:0|2:3,0:0:0:0:
123,265,21316,2,0,L|125:277,1,12.5,8|0,0:0|0:0,0:0:0:0:
80,330,22022,2,0,L|78:344,1,12.5,10|0,0:1|0:0,0:0:0:0:
12,178,22728,5,8,0:0:0:0:
25,181,23081,1,0,0:0:0:0:
39,185,23434,2,0,L|69:191,1,29.9999990844727,8|0,2:3|0:0,0:0:0:0:
159,119,24139,5,8,0:0:0:0:
226,98,24492,1,0,0:0:0:0:
294,149,24845,2,0,B|345:182|393:142|386:61|297:44|316:-18|343:-39|379:-8|353:35,1,266.666666666667,10|0,0:1|0:0,0:0:0:0:
430,55,25551,5,8,0:2:0:0:
502,172,26139,1,8,0:2:0:0:
488,239,26257,1,8,0:1:0:0:
211,227,26610,6,0,P|188:211|163:208,1,50,8|0,0:2|0:0,0:0:0:0:
224,209,26845,6,0,B|231:285|317:334|317:334|305:314|306:284,1,200,4|0,0:1|0:0,0:0:0:0:
388,334,27316,6,0,P|355:370|339:403,1,64.9999970245363,8|0,0:2|0:0,0:0:0:0:
106,354,27669,1,8,0:1:0:0:
34,23,28110,6,0,B|33:45|45:59|45:59|36:69|36:69|46:86,1,64.9999970245363,0|0,2:0|2:0,2:0:0:0:
25,193,28375,6,0,B|10:239|9:269|30:299,2,97.4999955368044,8|0|0,0:0|0:0|0:0,0:0:0:0:
174,223,29081,2,0,L|270:189,1,86.6666626993817,8|0,0:1|0:0,0:0:0:0:
323,241,29434,5,8,0:0:0:0:
344,24,29669,1,0,0:0:0:0:
434,0,29787,2,0,P|437:31|418:63,1,66.6666666666667,2|0,0:2|0:0,0:0:0:0:
278,117,30139,2,0,P|240:95|208:92,1,66.6666666666667,8|0,0:0|0:0,0:0:0:0:
436,152,30492,6,0,L|453:10,1,129.999994049073,8|0,0:1|0:0,0:0:0:0:
510,275,31081,1,0,0:0:0:0:
510,275,31198,6,0,B|474:278|449:294|442:320,1,86.6666626993817,8|0,0:0|0:0,0:0:0:0:
364,249,31551,2,0,B|328:245|303:229|296:203,1,86.6666626993817
205,384,31904,2,0,P|175:313|222:272,1,129.999994049073,8|8,0:1|0:0,0:0:0:0:
29,328,32492,1,0,0:0:0:0:
73,255,32610,6,0,B|59:212|59:212|67:176,1,64.9999970245363,2|2,0:2|0:2,0:0:0:0:
204,89,32963,2,0,P|149:99|107:123,1,86.6666626993817,8|0,0:0|0:0,0:0:0:0:
45,65,33316,5,8,0:1:0:0:
40,80,33551,1,0,0:0:0:0:
2,253,33669,6,0,B|14:260|14:260|48:211|48:211|71:221,1,86.6666626993817,2|0,0:0|0:0,0:0:0:0:
139,230,34022,6,0,P|165:233|199:205,1,66.6666666666667,8|0,0:0|0:0,0:0:0:0:
217,17,34375,2,0,P|200:50|209:84,1,66.6666666666667
421,127,34728,2,0,B|356:136|341:155|342:178,1,86.6666626993817,8|0,0:1|0:0,0:0:0:0:
337,234,35081,6,0,B|362:241|410:252|399:296,1,86.6666626993817
247,148,35434,1,8,0:0:0:0:
67,206,35669,5,0,0:0:0:0:
131,252,35787,1,8,0:0:0:0:
142,0,36022,5,0,0:0:0:0:
49,48,36139,2,0,B|43:114|43:114|95:104,1,100.000003814697,8|0,0:1|0:0,0:0:0:0:
304,66,36610,5,0,0:0:0:0:
392,44,36728,1,0,0:0:0:0:
483,24,36845,6,0,B|488:33|499:44|499:44|445:37|412:45|394:66,1,129.999994049073,10|0,0:2|0:0,0:0:0:0:
485,301,37551,6,0,B|509:278|509:278|514:249,1,50,8|0,0:1|0:0,0:0:0:0:
369,211,37904,2,0,L|378:312,1,80,8|0,0:0|0:0,0:0:0:0:
351,323,38139,1,8,0:0:0:0:
399,384,38257,5,8,0:0:0:0:
212,283,38434,6,0,B|193:291|193:291|204:108,1,186.666666666667,8|8,0:1|0:0,0:0:0:0:
377,23,38963,5,8,0:1:0:0:
323,30,39081,1,2,0:2:0:0:
294,72,39198,1,2,0:2:0:0:
387,5,39316,6,0,L|399:94,2,59.9999981689454,2|0|0,0:0|0:0|0:0,0:0:0:0:
216,14,39669,6,0,B|188:32|160:43|129:38,1,86.6666626993817,8|0,0:0|0:0,0:0:0:0:
55,39,40022,2,0,P|82:52|81:118,1,86.6666626993817,8|0,0:0|0:0,0:0:0:0:
59,264,40375,6,0,L|208:234,1,129.999994049073,8|0,0:1|0:0,0:0:0:0:
369,304,40963,1,8,0:0:0:0:
357,377,41081,6,0,P|343:339|294:330,1,86.6666626993817,8|0,0:0|0:0,0:0:0:0:
432,229,41434,2,0,P|467:207|459:147,1,86.6666626993817,8|0,0:0|0:0,0:0:0:0:
486,57,41787,2,0,L|386:70,1,86.6666626993817,8|0,0:1|0:0,0:0:0:0:
314,0,42139,6,0,B|327:7|337:24|315:65|279:72,1,86.6666626993817,2|0,0:0|0:0,0:0:0:0:
224,75,42492,1,8,0:0:0:0:
147,225,42728,1,0,0:0:0:0:
147,225,42845,2,0,P|141:184|93:172,1,86.6666626993817
43,1,43198,6,0,B|62:60|64:85|35:110,1,97.4999955368044,8|0,0:1|0:0,0:0:0:0:
11,157,43551,1,8,0:0:0:0:
77,273,43787,1,8,0:0:0:0:
63,343,43904,1,8,0:0:0:0:
198,384,44081,5,0,0:0:0:0:
238,230,44257,6,0,P|225:206|188:187,1,64.9999970245363,2|0,0:2|0:0,0:0:0:0:
406,282,44610,2,0,B|436:324|468:328|491:326,1,86.6666626993817,8|0,0:1|0:0,0:0:0:0:
388,310,44963,6,0,L|381:375,1,64.9999970245363,2|0,0:0|0:0,0:0:0:0:
502,212,45316,6,0,L|489:106,1,97.4999955368044,8|0,0:0|0:0,0:0:0:0:
407,65,45669,5,8,0:0:0:0:
430,49,45787,1,0,0:0:0:0:
419,3,45904,1,0,0:0:0:0:
372,126,46022,5,8,0:1:0:0:
231,69,46257,1,0,0:0:0:0:
159,93,46375,2,0,L|57:130,1,86.6666626993817,0|8,0:0|0:0,0:0:0:0:
15,62,46728,6,0,B|8:45|36:50|38:16|18:5,1,64.9999970245363,8|2,0:0|0:2,0:0:0:0:
118,222,47081,2,0,B|123:254|152:237|183:238|201:286|181:311,1,129.999994049073,8|8,0:0|0:1,0:0:0:0:
246,356,47610,6,0,L|283:371,1,37.5000014305115,0|0,0:0|0:2,0:0:0:0:
173,322,47963,1,0,0:0:0:0:
486,224,48139,6,0,B|475:255|431:209|399:255,1,86.6666626993817,8|0,0:0|0:0,0:0:0:0:
386,319,48492,1,0,0:0:0:0:
247,168,48728,1,8,0:0:0:0:
269,153,48845,6,0,B|268:130|271:122|283:100,1,43.3333313496908,8|0,0:1|0:0,0:0:0:0:
170,241,49081,1,0,0:0:0:0:
114,199,49198,2,0,P|98:139|77:95,1,86.6666626993817,8|0,0:0|0:0,0:0:0:0:
40,22,49551,21,2,0:2:0:0:
190,0,49728,1,0,0:2:0:0:
300,91,49904,1,8,0:0:0:0:
398,74,50081,1,2,0:2:0:0:
476,149,50257,6,0,L|484:227,1,64.9999970245363,8|0,0:1|0:0,0:0:0:0:
426,272,50610,6,0,L|395:278,2,25.0000009536744,0|0|0,2:0|2:0|2:0,2:0:0:0:
428,283,50963,5,0,0:0:0:0:
263,347,51434,2,0,B|275:351|277:367|277:367|242:340|194:356,1,100,0|0,0:0|2:0,0:0:0:0:
137,370,51669,6,0,B|107:360|67:313|71:243,1,133.333333333333,8|0,0:1|0:0,0:0:0:0:
232,161,52022,2,0,B|198:158|181:210|124:202,1,106.666666666667,8|0,0:0|0:0,0:0:0:0:
47,151,52375,6,0,B|25:156|26:158|4:174,1,43.3333313496908,2|0,0:0|0:0,0:0:0:0:
119,82,52610,1,0,0:0:0:0:
78,0,52728,2,0,L|73:82,1,64.9999970245363,8|0,0:0|0:0,0:0:0:0:
232,161,53081,6,0,B|237:182|263:195|301:212,1,64.9999970245363,8|0,0:1|0:0,0:0:0:0:
350,224,53434,1,2,0:0:0:0:
512,8,53787,6,0,P|496:2|480:0,1,32.4999985122681,8|0,0:0|0:0,0:0:0:0:
382,15,53963,1,0,0:0:0:0:
360,157,54139,1,10,0:0:0:0:
456,139,54316,1,0,0:0:0:0:
490,251,54492,6,0,L|517:328,1,64.9999970245363,8|0,0:1|0:0,0:0:0:0:
405,370,54845,1,10,0:0:0:0:
403,378,55022,1,0,0:0:0:0:
247,330,55198,5,8,0:0:0:0:
346,261,55375,1,0,0:0:0:0:
181,293,55551,2,0,B|170:305|160:308|125:297|106:326,1,80,10|0,0:0|0:0,0:0:0:0:
38,268,55904,5,8,0:1:0:0:
47,118,56081,5,2,2:0:0:0:
98,71,56169,5,0,2:0:0:0:
155,68,56257,5,2,2:0:0:0:
185,88,56345,5,0,2:0:0:0:
190,114,56434,5,2,0:2:0:0:
185,122,56522,5,8,0:1:0:0:
251,156,56610,6,0,L|304:90,1,64.9999970245363,8|0,0:0|0:0,0:0:0:0:
419,92,56963,1,8,0:0:0:0:
456,11,57139,1,0,0:0:0:0:
477,196,57316,1,8,0:1:0:0:
477,196,57404,1,0,0:0:0:0:
477,196,57492,5,0,0:0:0:0:
414,255,57669,2,0,L|327:267,1,64.9999970245363,2|0,0:0|0:0,0:0:0:0:
151,216,58022,6,0,B|129:209|114:169|159:126,1,86.6666626993817,8|0,0:0|0:0,0:0:0:0:
58,231,58375,2,0,P|35:242|40:306,1,86.6666626993817,8|0,0:0|0:0,0:0:0:0:
108,367,58728,1,8,0:1:0:0:
276,269,58992,5,0,0:0:0:0:
330,317,59081,2,0,L|431:299,1,86.6666626993817,2|0,0:0|2:0,0:0:0:0:
304,384,59434,6,0,B|296:373|296:356|308:324,1,43.3333313496908,8|0,0:0|0:0,0:0:0:0:
352,217,59669,1,0,0:0:0:0:
287,162,59787,2,0,B|273:160|257:166|241:182,1,43.3333313496908
412,37,60022,5,8,0:0:0:0:
398,186,60139,2,0,L|499:164,1,86.6666626993817,8|0,0:1|0:0,0:0:0:0:
287,137,60492,2,0,L|196:101,1,86.6666626993817,10|8,0:0|0:0,0:0:0:0:
30,219,60845,22,0,P|18:178|53:150,1,86.6666626993817,10|0,0:2|3:0,3:0:0:0:
69,222,61198,2,0,P|52:196|40:237,1,86.6666626993817,10|0,0:2|0:0,0:0:0:0:
0,300,61551,1,8,0:1:0:0:
166,384,61787,1,0,0:0:0:0:
256,309,61904,5,2,2:3:0:0:
234,314,62022,1,2,2:3:0:0:
216,327,62139,1,2,2:3:0:0:
377,347,62257,6,0,L|475:368,1,86.6666626993817,8|0,0:0|0:0,0:0:0:0:
512,238,62610,2,0,P|505:280|459:283,1,86.6666626993817,8|0,0:0|0:0,0:0:0:0:
256,309,62963,5,8,0:1:0:0:
135,108,63316,6,0,B|130:86|110:101|78:85|96:40,1,86.6666626993817,2|8,0:0|0:0,0:0:0:0:
159,0,63669,2,0,L|232:16,1,64.9999970245363,8|0,0:0|0:0,0:0:0:0:
281,159,64022,2,0,B|253:186|228:161|196:189,1,86.6666626993817,8|0,0:0|0:0,0:0:0:0:
184,259,64375,5,8,0:1:0:0:
43,351,64610,1,0,0:0:0:0:
59,357,64728,2,0,B|57:364|65:384|104:346|80:293,1,86.6666626993817,2|0,0:0|0:0,0:0:0:0:
41,196,65081,6,0,P|61:163|46:105,1,86.6666626993817,8|0,0:0|0:0,0:0:0:0:
136,12,65434,2,0,P|101:26|106:61,1,64.9999970245363
241,153,65787,2,0,B|257:159|257:159|312:152|312:152|333:168,1,86.6666626993817,8|0,0:1|0:0,0:0:0:0:
375,214,66139,5,10,0:0:0:0:
497,93,66375,1,8,0:0:0:0:
448,27,66492,6,0,P|413:22|365:12,1,64.9999970245363,8|0,0:0|0:0,0:0:0:0:
173,99,66845,2,0,B|181:109|191:115|191:115|137:116|82:138,1,133.333333333333,12|0,0:0|0:0,0:0:0:0:
23,180,67198,5,8,0:1:0:0:
37,346,67434,1,0,0:0:0:0:
63,330,67551,6,0,P|65:296|102:282,1,66.6666666666667,2|0,0:0|0:0,0:0:0:0:
173,275,67904,5,8,0:0:0:0:
270,216,68081,1,0,0:0:0:0:
312,372,68257,1,8,0:0:0:0:
424,384,68434,1,0,0:0:0:0:
511,256,68610,6,0,P|488:259|469:305,1,64.9999970245363,8|0,0:1|0:0,0:0:0:0:
331,238,68963,2,0,L|257:211,1,64.9999970245363,2|0,0:0|0:0,0:0:0:0:
254,169,69198,1,8,0:0:0:0:
191,114,69316,6,0,B|206:106|210:80|198:51,1,64.9999970245363,8|0,0:0|0:0,0:0:0:0:
93,4,69669,1,8,0:0:0:0:
106,78,69845,1,0,0:0:0:0:
8,172,70022,2,0,L|-1:237,1,64.9999970245363,8|0,0:1|0:0,0:0:0:0:
256,192,70728,12,0,72845,2:0:0:0:
431,29,73081,5,0,2:0:0:0:
402,123,73198,6,0,P|370:133|352:146,1,43.3333313496908,0|0,2:0|2:0,2:0:0:0:
291,123,73434,1,0,2:0:0:0:
259,376,73551,5,8,0:0:0:0:
12,318,74139,6,0,P|17:327|21:341,1,21.6666656748454,8|0,0:0|0:0,0:0:0:0:
64,272,74257,2,0,B|47:261|36:206|49:173,1,86.6666626993817,8|0,0:1|0:0,0:0:0:0:
208,323,74610,6,0,B|250:348|302:335|319:288|298:252|347:235|368:245,1,200,8|2,0:0|0:0,0:0:0:0:
428,41,75198,5,0,0:0:0:0:
499,61,75316,6,0,L|507:41,2,21.6666656748454,8|0|0,2:3|2:0|2:0,2:0:0:0:
402,134,75669,2,0,L|374:137,2,21.6666656748454,8|0|0,2:1|2:0|2:0,2:0:0:0:
503,187,76022,2,0,L|512:207,2,21.6666656748454,2|0|0,2:3|2:0|2:0,2:0:0:0:
247,37,76375,5,8,0:0:0:0:
179,39,76492,1,0,0:0:0:0:
112,58,76610,1,0,0:0:0:0:
54,95,76728,1,2,0:0:0:0:
12,150,76845,2,0,B|6:182|20:201,1,43.3333313496908,0|8,0:0|0:3,0:0:0:0:
92,322,77081,5,8,0:1:0:0:
205,341,77198,1,0,0:0:0:0:
164,228,77316,1,0,0:0:0:0:
77,306,77434,6,0,B|69:394,2,66.6666666666667,8|0|0,0:0|0:0|0:0,0:0:0:0:
188,351,77787,6,0,B|232:386|285:397|332:379,1,133.333333333333,2|0,0:0|0:2,0:0:0:0:
380,346,78139,1,8,0:0:0:0:
478,110,78375,5,0,0:0:0:0:
439,202,78492,5,8,0:1:0:0:
420,209,78610,1,0,0:0:0:0:
401,210,78728,1,0,0:0:0:0:
277,237,78845,6,0,B|260:229|239:239|212:271|138:245,1,133.333333333333,6|0,0:2|0:0,0:0:0:0:
39,212,79198,6,0,L|36:181,5,21.6666656748454,8|0|0|0|0|0,2:3|2:0|2:0|2:0|2:0|2:0,2:0:0:0:
19,203,79551,2,0,P|24:174|37:158,1,43.3333313496908,2|0,0:0|0:0,0:0:0:0:
139,147,79787,5,8,0:0:0:0:
186,10,79904,6,0,B|220:-8|272:7|243:71|304:60,1,133.333333333333,8|0,0:1|0:0,0:0:0:0:
512,63,80257,6,0,B|523:51|513:32|475:50|503:77|500:104|467:119,1,106.666666666667,10|0,0:2|0:0,0:0:0:0:
396,127,80610,1,2,0:0:0:0:
178,365,80845,5,0,0:0:0:0:
94,331,80963,6,0,L|47:343,2,26.6666666666667,8|0|0,2:3|2:0|2:0,2:0:0:0:
176,246,81316,2,0,L|189:199,2,26.6666666666667,8|0|0,2:1|2:0|2:0,2:0:0:0:
205,360,81669,2,0,L|246:384,2,26.6666666666667,2|0|0,2:3|2:0|2:0,2:0:0:0:
94,158,82022,5,8,0:0:0:0:
85,63,82139,1,0,0:0:0:0:
156,114,82257,1,0,0:0:0:0:
78,147,82375,5,2,0:0:0:0:
108,35,82492,2,0,L|135:101,1,53.3333333333333,0|8,0:0|0:0,0:0:0:0:
284,106,82728,5,8,0:1:0:0:
350,113,82845,1,0,0:0:0:0:
418,120,82963,1,0,0:0:0:0:
278,95,83081,2,0,L|361:107,1,53.3333333333333,8|0,0:0|0:0,0:0:0:0:
481,4,83316,5,8,0:1:0:0:
481,4,83434,2,0,P|493:18|500:68,1,53.3333333333333,2|0,0:0|0:0,0:0:0:0:
396,179,83669,5,8,0:1:0:0:
376,255,83787,2,0,B|358:267|327:257|337:217|302:205|243:232,1,106.666666666667,8|8,0:0|0:0,0:0:0:0:
323,340,84139,2,0,P|286:230|246:242,1,180.000000686646,12|0,0:1|0:0,0:0:0:0:
189,294,84492,5,0,2:0:0:0:
167,304,84610,1,0,2:0:0:0:
142,307,84728,1,0,2:0:0:0:
0,307,84845,5,12,0:0:0:0:
0,307,85198,1,2,0:0:0:0:
267,74,85434,1,8,0:0:0:0:
333,122,85551,6,0,B|369:139|387:104|415:111|415:111|402:118|394:138,1,106.666666666667,8|0,0:1|0:0,0:0:0:0:
259,239,85904,2,0,B|261:226|256:202|240:174|186:147,1,106.666666666667,8|0,0:0|0:0,0:0:0:0:
434,317,86257,6,0,B|443:303|454:296|489:286,1,53.3333333333333,2|0,0:0|0:0,0:0:0:0:
302,362,86492,1,0,0:0:0:0:
229,343,86610,6,0,L|182:357,2,26.6666666666667,8|0|0,2:3|2:0|2:0,2:0:0:0:
299,251,86963,2,0,L|309:203,2,26.6666666666667,8|0|0,2:1|2:0|2:0,2:0:0:0:
334,367,87316,2,0,L|376:388,2,26.6666666666667,2|0|0,2:3|2:0|2:0,2:0:0:0:
371,120,87669,5,8,0:0:0:0:
478,97,87787,1,0,0:0:0:0:
413,8,87904,1,0,0:0:0:0:
353,107,88022,6,0,L|342:179,1,53.3333333333333,2|0,0:0|0:0,0:0:0:0:
421,26,88257,1,8,0:0:0:0:
249,122,88375,6,0,B|231:113|192:129|174:156|111:141,1,133.333333333333,8|0,0:1|0:0,0:0:0:0:
2,232,88728,2,0,L|1:290,5,33.3333333333333,8|0|0|0|0|0,1:3|1:3|1:3|1:3|1:3|1:3,1:3:0:0:
20,262,89081,6,0,L|102:292,1,75,8|0,0:0|0:0,0:0:0:0:
180,351,89434,2,0,L|216:351,3,25,0|0|0|0,2:0|2:0|2:0|2:0,2:0:0:0:
240,340,89787,6,0,B|256:351|263:370|263:370|277:317|326:308|346:285|346:285|378:252|368:217|335:196|301:210|286:238|291:260|310:277,1,333.333333333333,8|0,0:1|0:0,0:0:0:0:
425,305,90492,5,8,0:0:0:0:
505,82,90728,1,0,0:0:0:0:
512,164,90845,2,0,B|473:172|454:182|450:199,1,66.6666666666667,2|0,0:0|0:0,0:0:0:0:
245,20,91081,5,8,0:0:0:0:
387,104,91198,2,0,B|399:137|350:152|330:180|336:222,1,133.333333333333,8|0,0:1|0:0,0:0:0:0:
340,325,91551,1,8,0:0:0:0:
191,216,91787,5,0,0:0:0:0:
175,243,91904,2,0,B|109:244|76:256|35:276,1,133.333333333333,2|0,0:0|0:0,0:0:0:0:
31,187,92257,6,0,L|-15:203,2,33.3333333333333,8|0|0,2:3|2:0|2:0,2:0:0:0:
120,104,92610,2,0,L|132:54,2,33.3333333333333,8|0|0,2:1|2:0|2:0,2:0:0:0:
144,229,92963,2,0,L|190:249,2,33.3333333333333,2|0|0,2:3|2:0|2:0,2:0:0:0:
308,82,93316,5,8,0:3:0:0:
381,64,93434,1,2,0:2:0:0:
330,7,93551,1,2,0:2:0:0:
325,91,93669,5,2,0:0:0:0:
391,31,93787,2,0,L|330:7,1,66.6666666666667,0|8,0:0|0:0,0:0:0:0:
448,172,94022,5,8,0:1:0:0:
490,229,94139,1,2,0:2:0:0:
491,297,94257,1,2,0:2:0:0:
456,154,94375,2,0,B|473:174|456:207|407:211|416:283,1,133.333333333333,8|8,0:0|0:1,0:0:0:0:
282,363,94728,6,0,B|236:343|236:343|245:365,1,66.6666666666667,8|0,0:0|0:0,0:0:0:0:
293,359,94963,1,8,0:1:0:0:
178,281,95081,5,8,0:0:0:0:
101,342,95198,1,0,0:0:0:0:
14,301,95316,1,2,0:3:0:0:
149,223,95434,6,0,L|162:317,1,66.6666666666667,8|0,0:1|0:0,0:0:0:0:
136,215,95669,1,2,0:0:0:0:
206,147,95787,5,2,0:0:0:0:
215,102,95904,1,0,0:0:0:0:
218,87,96022,2,0,L|221:70,1,13.3333333333333,8|0,0:3|2:0,0:0:0:0:
379,103,106728,6,0,B|390:116|392:131|360:164|360:196|375:228,1,125.000004768372,2|0,2:0|2:0,2:0:0:0:
388,301,107434,6,0,L|388:320,20,12.5000004768372,12|0|0|0|0|0|0|0|0|0|0|0|0|0|0|0|0|0|0|0|0,0:0|0:0|0:0|0:0|0:0|0:0|0:0|0:0|0:0|0:0|0:0|0:0|0:0|0:0|0:0|0:0|0:0|0:0|0:0|0:0|0:0,0:0:0:0:
419,333,108669,6,0,L|428:368,4,18.7500007152558
247,282,109316,6,0,L|253:255,1,25.0000009536744,0|0,2:0|2:0,2:0:0:0:
212,307,109551,1,0,2:0:0:0:
163,303,109669,1,0,2:0:0:0:
119,317,109787,1,0,2:0:0:0:
91,332,109904,1,0,2:0:0:0:
64,334,110022,1,0,2:0:0:0:
51,333,110139,1,0,2:0:0:0:
13,196,110728,6,0,B|10:184|10:184|14:169|13:155,3,37.5000014305115,0|0|0|0,2:0|2:0|2:0|2:0,2:0:0:0:
42,223,111492,6,0,L|71:228,1,25.0000009536744
256,192,111669,12,0,113081,0:1:0:0:
217,126,113787,6,0,L|426:147,1,210.833339767456
171,46,116728,6,0,B|193:63|193:63|192:137|233:212|337:203|345:158|280:115|364:97|415:126|386:145|406:160|437:161,1,362.666668880208,0|0,2:0|0:0,0:0:0:0:
491,227,118728,6,0,L|488:251,1,25,8|8,0:0|2:3,0:0:0:0:
315,302,119787,2,0,L|316:311,1,8.33333333333333
258,380,120139,5,8,0:0:0:0:
258,380,120492,1,0,0:0:0:0:
190,375,120845,2,0,L|95:366,1,75.0000028610231,12|0,2:3|0:0,0:0:0:0:
14,183,121551,6,0,L|9:157,1,25,8|8,0:0|2:3,0:0:0:0:
99,38,122610,2,0,L|100:27,1,8.33333333333333
153,87,122963,6,0,B|181:92|198:95|203:106,2,50,8|0|8,0:0|0:0|2:3,0:0:0:0:
399,23,124022,2,0,B|387:44|385:64|395:75,1,50.0000019073487
446,126,124375,6,0,L|448:154,1,25,12|8,0:0|2:3,0:0:0:0:
288,255,125434,2,0,L|286:245,1,8.33333333333333
242,325,125787,5,8,0:0:0:0:
242,325,126139,1,0,0:0:0:0:
301,364,126492,2,0,L|361:359,1,50,8|0,2:3|0:0,0:0:0:0:
501,233,127198,6,0,B|481:227|458:229|451:247|422:246|401:230,1,100,8|8,0:0|2:3,0:0:0:0:
250,131,128257,6,0,L|249:121,1,8.33333333333333
220,172,128610,6,0,L|216:202,1,25,8|0,0:0|0:0,0:0:0:0:
205,271,128963,6,0,B|212:328|212:328|226:349,1,75.0000028610231,4|4,0:0|2:3,0:0:0:0:
102,369,129492,2,0,B|105:356|92:338|69:362|40:353|23:330|40:297,1,116.666666666667
44,168,130022,5,2,0:0:0:0:
44,168,130610,2,0,L|64:170,1,16.6666666666667,2|0,0:0|2:0,0:0:0:0:
199,122,131081,6,0,L|196:87,1,33.3333333333333
248,14,131434,1,2,0:0:0:0:
248,14,131787,1,0,0:0:0:0:
248,14,132022,1,2,0:0:0:0:
289,36,132139,6,0,B|310:51|336:49|346:36|364:45|364:45|356:45|348:59,1,100,4|2,2:3|0:0,0:0:0:0:
263,197,132845,2,0,B|250:221|245:238|249:280|258:289|264:290|278:295,1,100,2|0,0:0|0:0,0:0:0:0:
322,359,133434,2,0,L|324:382,1,16.6666666666667,2|0,0:0|2:0,0:0:0:0:
488,288,133904,6,0,L|494:256,1,33.3333333333333
460,192,134257,1,2,0:0:0:0:
460,192,134610,1,0,0:0:0:0:
460,192,134845,1,2,0:0:0:0:
432,152,134963,6,0,L|379:143,1,50,2|0,2:3|2:0,0:0:0:0:
256,192,135669,2,0,P|232:195|212:133,1,100,2|2,0:0|2:3,0:0:0:0:
163,12,136728,6,0,L|163:-10,3,12.5,0|0|0|0,2:0|2:0|2:0|2:0,2:0:0:0:
112,55,137081,2,0,B|91:80|116:108|88:128,1,75.0000028610231,2|0,0:0|0:0,0:0:0:0:
14,248,137669,1,2,0:0:0:0:
83,263,137787,6,0,L|178:280,1,75.0000028610231,2|2,2:3|0:0,0:0:0:0:
277,368,138492,6,0,L|303:362,1,25.9999998413086,8|8,0:0|0:1,0:0:0:0:
407,283,139551,2,0,L|407:294,1,8.66666661376953,8|0,0:0|0:0,0:0:0:0:
427,322,139904,6,0,B|439:340|453:347|480:323|444:288|417:277|425:191|425:191|434:216|454:225,1,216.666656748454,4|0,0:0|0:0,0:0:0:0:
500,166,140610,5,8,0:1:0:0:
500,166,140963,1,0,0:0:0:0:
318,7,141198,1,8,0:1:0:0:
284,96,141316,6,0,B|199:100|174:101|153:142,1,129.999994049073,8|2,0:0|0:0,0:0:0:0:
346,294,142022,1,8,0:1:0:0:
234,359,142198,6,0,P|244:327|224:296,1,64.9999970245363,0|8,0:0|0:0,0:0:0:0:
258,256,142463,2,0,L|266:172,1,64.9999970245363
301,149,142728,5,2,0:0:0:0:
440,273,142963,1,0,0:0:0:0:
411,344,143081,2,0,B|385:344|349:359|361:371,1,64.9999970245363,8|0,0:0|0:0,0:0:0:0:
54,344,143434,6,0,L|39:165,1,160,8|2,0:1|0:0,0:0:0:0:
156,0,144139,5,8,0:0:0:0:
266,43,144316,2,0,B|257:73|253:87|264:111,1,64.9999970245363,0|2,0:0|0:0,0:0:0:0:
314,157,144610,2,0,P|331:153|363:155,1,43.3333313496908
142,76,144845,6,0,L|45:96,1,86.6666626993817,8|0,0:1|0:0,0:0:0:0:
21,156,145198,1,8,0:0:0:0:
256,248,145434,1,0,0:0:0:0:
270,329,145551,6,0,P|243:348|237:368,2,43.3333313496908
361,335,145904,6,0,B|404:364|357:408|345:391|374:299|446:280,1,173.333325398763,2|0,0:2|0:0,0:0:0:0:
512,194,146257,6,0,B|508:204|511:215|511:215|484:185|450:217|415:171,1,129.999994049073,8|2,0:1|0:0,0:0:0:0:
384,65,146787,5,2,0:2:0:0:
253,72,146963,6,0,B|230:66|212:33|214:-20,1,86.6666626993817,8|0,0:0|0:0,0:0:0:0:
141,50,147316,2,0,P|146:71|91:107,1,86.6666626993817
10,86,147669,5,8,0:1:0:0:
21,297,147934,2,0,L|-11:388,2,64.9999970245363,0|2|0,0:0|0:2|0:0,0:0:0:0:
52,282,148375,6,0,P|96:312|143:313,1,86.6666626993817,8|0,0:0|0:0,0:0:0:0:
331,271,148728,6,0,L|387:291,2,43.3333313496908,8|2|2,0:0|0:0|0:0,0:0:0:0:
302,201,149081,2,0,L|292:104,1,86.6666626993817,8|0,0:1|0:0,0:0:0:0:
219,186,149434,6,0,B|210:222|208:237|221:265,1,64.9999970245363,2|0,0:2|0:0,0:0:0:0:
437,350,149787,5,8,0:0:0:0:
506,335,150139,1,0,0:0:0:0:
434,344,150492,1,8,0:1:0:0:
503,329,150845,2,0,L|509:249,1,66.6666666666667,8|0,0:0|0:0,0:0:0:0:
456,101,151198,5,8,0:0:0:0:
460,106,151551,2,0,B|439:91|431:79|440:54|457:42|478:46|476:74|437:106|414:124|387:124|393:78|340:110,1,200,8|2,0:0|0:2,0:0:0:0:
292,182,152257,5,8,0:0:0:0:
296,186,152492,1,8,0:0:0:0:
207,204,152610,5,4,0:0:0:0:
189,290,152728,2,0,B|179:294|164:304|160:325,1,43.3333313496908
77,291,152963,6,0,P|69:256|13:245,1,86.6666626993817,8|0,0:0|0:0,0:0:0:0:
50,37,153316,2,0,B|54:20|60:9|77:-4,1,43.3333313496908,8|0,0:1|0:0,0:0:0:0:
0,98,153551,1,0,0:0:0:0:
0,98,153669,5,2,0:0:0:0:
169,152,153904,1,8,0:0:0:0:
241,125,154022,6,0,B|278:127|294:138|311:170,1,86.6666626993817,8|0,0:0|0:0,0:0:0:0:
480,111,154375,2,0,B|435:105|402:142,1,86.6666626993817,8|0,0:0|0:0,0:0:0:0:
301,2,154728,2,0,L|308:140,1,129.999994049073,8|2,0:1|0:0,0:0:0:0:
142,376,155434,5,8,0:0:0:0:
235,338,155610,2,0,B|246:278|179:304|178:197,1,151.666659723918,2|0,0:2|0:0,0:0:0:0:
95,160,156139,6,0,P|117:149|130:91,1,86.6666626993817,10|0,0:1|0:0,0:0:0:0:
235,6,156492,5,8,0:0:0:0:
357,43,156610,1,8,0:1:0:0:
226,3,156728,1,8,0:1:0:0:
238,91,156845,5,8,0:0:0:0:
345,326,157198,6,0,B|401:353|401:353|439:302|439:302|371:214|371:214|347:301,1,324.999985122681,2|8,0:2|0:1,0:0:0:0:
250,353,158257,6,0,B|232:378|201:386|170:383,1,86.6666626993817,8|0,0:0|0:0,0:0:0:0:
0,308,158610,2,0,P|35:317|72:353,1,86.6666626993817,8|0,0:0|0:0,0:0:0:0:
179,302,158963,1,8,0:1:0:0:
15,85,159198,5,0,0:0:0:0:
5,177,159316,2,0,P|51:174|101:158,1,86.6666626993817,2|8,0:2|0:0,0:0:0:0:
250,98,159669,6,0,P|277:95|299:149,1,86.6666626993817,10|0,0:2|0:0,0:0:0:0:
188,34,160022,2,0,B|158:5|144:3|93:12,1,86.6666626993817,10|0,0:2|0:0,0:0:0:0:
426,92,160375,5,8,0:1:0:0:
453,24,160492,2,0,B|430:16|430:16|315:35|315:35|253:16,1,173.333325398763,2|0,0:2|0:0,0:0:0:0:
261,121,161081,5,8,0:0:0:0:
243,135,161169,5,2,0:2:0:0:
263,144,161257,6,0,L|270:191,1,32.4999985122681,2|0,0:2|0:0,0:0:0:0:
341,210,161434,6,0,B|355:213|378:240|374:287,1,86.6666626993817,2|0,0:0|0:0,0:0:0:0:
248,373,161787,6,0,B|222:363|222:363|100:368|100:368|90:338,1,166.666666666667,8|2,0:1|0:2,0:0:0:0:
76,329,162139,6,0,L|85:202,1,106.666666666667,8|10,0:0|0:2,0:0:0:0:
62,139,162492,5,0,0:0:0:0:
216,156,162845,5,0,0:0:0:0:
428,45,163081,5,0,0:0:0:0:
428,45,163198,1,8,0:1:0:0:
470,117,163551,2,0,L|474:149,2,25.0000009536744,0|2|2,0:0|0:2|0:2,0:0:0:0:
417,194,163904,6,0,L|415:225,1,25.0000009536744,8|2,0:0|0:2,0:0:0:0:
425,234,164139,2,0,B|433:250|451:287|450:339|411:367|361:347|399:316,1,160
255,383,164610,6,0,B|257:369|266:358|266:358|216:382|158:368,1,133.333333333333,8|0,0:1|0:0,0:0:0:0:
30,282,164963,2,0,P|58:266|80:324,1,106.666666666667,2|0,0:2|0:0,0:0:0:0:
251,198,165316,6,0,B|284:203|296:207|303:227,1,53.3333333333333,10|0,0:2|0:0,0:0:0:0:
241,210,165551,1,0,0:0:0:0:
155,139,165669,2,0,B|136:126|123:105|128:16,1,106.666666666667,10|0,0:2|0:0,0:0:0:0:
310,12,166022,6,0,L|400:-1,1,86.6666626993817,8|0,0:1|0:0,0:0:0:0:
417,110,166375,2,0,L|318:98,1,86.6666626993817,2|0,0:2|0:0,0:0:0:0:
189,253,166728,6,0,P|209:214|258:226,1,86.6666626993817,10|0,0:2|0:0,0:0:0:0:
220,190,167081,2,0,P|220:162|162:154,1,86.6666626993817,10|0,0:2|0:0,0:0:0:0:
27,244,167434,6,0,L|18:149,1,86.6666626993817,8|0,0:1|0:0,0:0:0:0:
13,105,167787,6,0,B|-2:185|-2:185|2:231,1,106.666666666667,10|0,0:2|0:0,0:0:0:0:
13,308,168139,5,2,0:0:0:0:
223,338,168375,5,0,0:0:0:0:
286,384,168492,2,0,L|342:374,1,43.3333313496908,10|0,0:2|0:0,0:0:0:0:
488,357,168728,5,0,0:0:0:0:
387,322,168845,2,0,B|370:298|397:283|380:222,1,86.6666626993817,8|0,0:1|0:0,0:0:0:0:
432,170,169198,6,0,P|452:151|444:189,1,86.6666626993817,2|0,0:0|0:0,0:0:0:0:
243,123,169551,6,0,B|199:117|174:105|157:76,1,86.6666626993817,8|0,0:0|0:0,0:0:0:0:
340,0,169904,2,0,L|334:123,1,108.333328374227,2|0,0:0|0:0,0:0:0:0:
347,99,170257,6,0,L|437:134,1,86.6666626993817,8|0,0:1|0:0,0:0:0:0:
453,206,170610,1,2,0:0:0:0:
172,268,170845,5,0,0:0:0:0:
172,268,170963,2,0,B|148:273|138:280|126:289,2,43.3333313496908,10|0|0,0:2|0:0|0:0,0:0:0:0:
112,357,171316,2,0,P|114:331|52:303,1,86.6666626993817,10|0,0:2|0:0,0:0:0:0:
200,158,171669,6,0,B|173:142|169:121|190:-10,1,160,8|2,0:1|0:2,0:0:0:0:
307,41,172198,6,0,L|393:24,1,80
446,66,172728,6,0,L|447:80,1,12.9999999206543
474,327,173669,1,0,0:0:0:0:
474,327,173787,6,0,L|439:336,1,33.3333333333333,2|0,2:2|0:0,0:0:0:0:
360,293,174139,2,0,L|392:284,1,33.3333333333333,2|0,2:2|0:0,0:0:0:0:
292,360,174492,6,0,B|284:349|265:341|249:356|236:351|214:345|214:318|233:310|219:294|185:314|192:340|215:325|211:349|189:367,1,153.333336257935,6|0,0:0|0:0,0:0:0:0:
121,368,174845,5,8,0:0:0:0:
124,373,175081,1,8,0:0:0:0:
71,252,175198,6,0,B|74:212|97:198|135:205,1,86.6666626993817,12|0,0:0|0:0,0:0:0:0:
57,135,175551,2,0,P|46:100|-6:94,1,86.6666626993817,8|0,0:0|0:0,0:0:0:0:
163,0,175904,6,0,L|264:9,1,86.6666626993817,8|0,0:1|0:0,0:0:0:0:
300,71,176257,2,0,B|340:82|353:79|388:51,1,86.6666626993817,2|8,0:0|0:0,0:0:0:0:
495,113,176610,5,8,0:0:0:0:
485,200,176728,2,0,P|455:213|456:262,1,80,0|0,0:0|0:2,0:0:0:0:
432,244,176963,6,0,L|341:233,1,80,8|0,0:0|0:0,0:0:0:0:
210,370,177316,5,8,0:1:0:0:
145,286,177492,6,0,P|102:298|79:382,1,133.333333333333,2|0,0:2|0:0,0:0:0:0:
364,359,178022,6,0,B|440:232|449:322|522:190,1,216.666656748454,10|0,0:2|0:0,0:0:0:0:
462,111,178728,6,0,L|466:63,2,43.3333313496908,8|0|0,0:1|0:0|0:0,0:0:0:0:
416,161,179081,1,8,0:0:0:0:
254,17,179316,5,8,0:0:0:0:
231,87,179434,2,0,B|196:92|166:96|151:128,1,86.6666626993817,8|0,0:0|0:0,0:0:0:0:
36,56,179787,6,0,P|20:43|23:-1,1,53.3333333333333,10|0,0:2|0:0,0:0:0:0:
34,67,180022,1,0,0:0:0:0:
55,194,180139,6,0,L|112:264,1,80,8|2,0:1|0:2,0:0:0:0:
181,235,180492,1,2,0:0:0:0:
393,302,180728,5,2,0:2:0:0:
336,348,180845,6,0,B|311:339|294:295|332:197,1,160,8|8,0:0|0:0,0:0:0:0:
370,124,181316,1,0,0:0:0:0:
346,46,181434,1,0,0:0:0:0:
215,86,181551,6,0,P|164:101|98:104,1,106.666666666667,8|0,0:1|0:0,0:0:0:0:
19,152,181904,2,0,P|55:162|67:213,1,86.6666626993817,2|8,0:0|0:0,0:0:0:0:
70,332,182257,6,0,B|90:353|106:356|173:347,1,106.666666666667,10|0,0:2|0:0,0:0:0:0:
262,373,182610,2,0,B|275:341|277:320|253:265,1,106.666666666667,10|0,0:2|0:0,0:0:0:0:
403,194,182963,6,0,P|444:171|422:236,1,160,8|2,0:1|0:2,0:0:0:0:
475,332,183434,2,0,P|488:306|523:281,1,53.3333333333333
255,270,183669,6,0,B|230:266|237:252|218:235|193:232|165:256|153:289|83:292|50:250,1,213.333333333333,8|0,0:0|0:0,0:0:0:0:
51,253,184257,1,8,0:0:0:0:
39,128,184375,5,8,0:1:0:0:
219,149,184728,5,8,0:0:0:0:
440,22,184963,6,0,L|448:79,1,43.3333313496908
463,167,185434,1,0,0:0:0:0:
393,150,185787,6,0,L|375:155,1,18.3333333333333,8|0,0:1|0:0,0:0:0:0:
326,206,186492,6,0,L|245:198,1,75.0000028610231,8|8,0:0|0:0,0:0:0:0:
39,321,187198,6,0,L|23:396,2,64.9999970245363,8|0|2,0:1|0:0|0:0,0:0:0:0:
215,303,187787,1,8,0:1:0:0:
215,303,187904,5,8,0:0:0:0:
195,179,188081,1,0,0:0:0:0:
63,202,188257,1,8,0:0:0:0:
83,326,188434,1,0,0:0:0:0:
281,373,188610,5,8,0:1:0:0:
363,317,188787,2,0,P|404:313|447:383,1,129.999994049073
512,279,189316,6,0,L|503:204,1,64.9999970245363,8|0,0:0|0:0,0:0:0:0:
436,161,189669,2,0,L|445:82,1,64.9999970245363,8|0,0:0|0:0,0:0:0:0:
184,11,190022,6,0,L|331:30,1,129.999994049073,8|2,0:1|0:0,0:0:0:0:
130,223,190610,1,8,0:1:0:0:
130,223,190728,5,8,0:0:0:0:
50,146,190904,1,0,0:0:0:0:
100,40,191081,1,8,0:0:0:0:
180,117,191257,1,0,0:0:0:0:
184,293,191434,5,8,0:1:0:0:
184,293,191610,2,0,L|165:370,2,64.9999970245363,0|2|0,0:0|0:0|0:0,0:0:0:0:
373,367,192139,6,0,P|339:339|309:336,1,64.9999970245363,10|0,0:2|0:0,0:0:0:0:
116,273,192492,2,0,P|84:295|39:292,1,64.9999970245363,10|0,0:2|0:0,0:0:0:0:
12,72,192845,6,0,L|3:222,1,129.999994049073,8|2,0:1|0:0,0:0:0:0:
254,102,193434,1,8,0:1:0:0:
254,102,193551,5,8,0:0:0:0:
396,93,193728,1,0,0:0:0:0:
388,0,193904,1,8,0:0:0:0:
246,9,194081,1,0,0:0:0:0:
203,178,194257,5,8,0:1:0:0:
129,140,194434,1,0,0:0:0:0:
209,181,194610,2,0,P|213:217|231:255,1,64.9999970245363,8|0,0:0|0:0,0:0:0:0:
356,374,194963,6,0,L|426:359,1,64.9999970245363,10|0,0:0|0:0,0:0:0:0:
449,254,195316,2,8,L|528:275,1,64.9999970245363,8|0,0:0|0:0,0:0:0:0:
394,88,195669,6,0,L|258:106,1,129.999994049073,8|2,0:1|0:0,0:0:0:0:
29,27,196257,1,8,0:1:0:0:
29,27,196375,5,8,0:0:0:0:
20,124,196551,1,0,0:0:0:0:
105,209,196728,5,8,0:0:0:0:
95,295,196904,1,0,0:0:0:0:
15,362,197081,5,8,0:1:0:0:
15,362,197257,2,0,L|-2:291,1,64.9999970245363,0|2,0:0|0:0,0:0:0:0:
266,351,197669,5,8,0:1:0:0:
266,351,197787,2,0,B|299:350|312:344|325:327,1,64.9999970245363,8|0,0:0|0:0,0:0:0:0:
486,258,198139,2,0,P|450:226|403:222,1,86.6666626993817,8|0,0:0|0:0,0:0:0:0:
355,166,198492,6,0,P|405:149|459:78,1,129.999994049073,8|2,0:1|0:0,0:0:0:0:
251,7,199081,1,8,0:1:0:0:
251,7,199198,5,8,0:0:0:0:
124,38,199375,1,0,0:0:0:0:
156,164,199551,1,8,0:0:0:0:
283,133,199728,1,0,0:0:0:0:
77,220,199904,5,8,0:1:0:0:
0,196,200081,1,0,0:0:0:0:
83,223,200257,2,0,P|97:246|107:289,1,64.9999970245363,2|0,0:0|0:0,0:0:0:0:
265,374,200610,6,0,L|332:331,1,64.9999970245363,10|0,0:0|0:0,0:0:0:0:
262,209,200963,2,0,L|253:126,1,64.9999970245363,8|0,0:0|0:0,0:0:0:0:
384,0,201316,6,0,B|348:60|408:88|380:124,1,129.999994049073,8|2,0:1|0:0,0:0:0:0:
449,362,201904,1,8,0:1:0:0:
449,362,202022,6,0,P|460:330|463:287,1,64.9999970245363,8|0,0:0|0:0,0:0:0:0:
281,338,202375,2,0,P|249:329|220:304,1,64.9999970245363,8|0,0:0|0:0,0:0:0:0:
125,313,202728,5,8,0:1:0:0:
125,313,202904,2,0,L|131:231,1,64.9999970245363,0|2,0:0|0:0,0:0:0:0:
190,21,203434,6,0,B|199:23|210:30|210:30|241:12|278:10,1,86.6666626993817,8|0,0:0|0:0,0:0:0:0:
433,52,203787,2,0,B|408:46|372:59|381:76|334:85|296:77,1,129.999994049073,8|8,0:0|0:1,0:0:0:0:
215,53,204316,5,0,0:0:0:0:
215,53,204492,1,2,0:0:0:0:
346,342,204728,5,8,0:1:0:0:
346,342,204845,1,8,0:0:0:0:
473,325,205022,1,0,0:0:0:0:
453,197,205198,1,8,0:0:0:0:
326,214,205375,1,0,0:0:0:0:
262,368,205551,5,8,0:1:0:0:
187,353,205728,1,0,0:0:0:0:
112,335,205904,2,0,P|80:343|50:369,1,64.9999970245363,10|0,0:0|0:0,0:0:0:0:
80,215,206257,6,0,L|88:149,1,64.9999970245363,10|0,0:0|0:0,0:0:0:0:
0,15,206610,2,0,P|14:51|18:112,1,86.6666626993817,8|0,0:0|0:0,0:0:0:0:
76,153,206963,6,0,L|222:127,1,129.999994049073,8|2,0:1|0:0,0:0:0:0:
427,40,207551,1,8,0:1:0:0:
427,40,207669,6,0,P|449:2|490:3,1,80,8|0,0:0|0:0,0:0:0:0:
326,83,208022,2,0,P|281:51|239:66,1,80,8|0,0:0|0:0,0:0:0:0:
482,150,208375,6,0,L|497:281,2,106.666666666667,8|8|8,0:1|0:1|0:1,0:0:0:0:
413,298,209081,6,0,B|377:282|333:292|314:333|312:356|266:372|174:393|106:357,1,320,8|8,0:0|0:1,0:0:0:0:
386,358,210139,1,2,0:0:0:0:
61,218,210375,1,8,0:1:0:0:
61,218,210492,6,0,B|69:167|49:109|-5:100|-5:100|39:93|71:72|27:41|55:3|105:-6|146:12|158:52|137:95|104:95,1,400,8|8,0:0|0:0,0:0:0:0:
202,125,211551,2,0,P|238:100|282:91,1,80,2|0,0:0|0:0,0:0:0:0:
502,21,211904,6,0,B|395:50|501:233|362:272|362:272|319:215|250:254|237:284|268:315|290:303,1,480,8|2,0:0|0:0,0:0:0:0:
41,368,213198,1,8,0:1:0:0:
41,368,213316,6,0,B|49:323|92:280|142:287|143:343|167:313|199:318|196:292|202:282|180:280|184:247|218:201|263:190,1,320,8|8,0:0|0:1,0:0:0:0:
78,235,214198,1,0,0:0:0:0:
10,191,214375,6,0,L|-2:102,1,80,2|0,0:0|0:0,0:0:0:0:
257,0,214728,6,0,B|319:-8|405:14|463:74|479:131|436:185,1,300,8|0,0:0|0:0,0:0:0:0:
397,333,215434,2,0,P|388:290|340:233,1,100,8|0,0:1|0:0,0:0:0:0:
249,252,215787,1,2,0:0:0:0:
36,378,216022,5,8,0:1:0:0:
36,378,216139,2,0,P|26:278|177:179,1,300,8|0,0:0|0:0,0:0:0:0:
326,268,216845,2,0,B|432:287|406:205|524:219,1,200,8|2,0:1|0:0,0:0:0:0:
210,76,217551,6,0,B|244:86|275:50|261:5|220:-10|182:5|179:45|179:45|175:97|169:142|144:194|104:212|69:195|45:175,1,400,8|8,0:0|0:1,0:0:0:0:
367,384,218610,2,0,B|380:304|406:277|431:270,1,133.333333333333,2|8,0:0|0:1,0:0:0:0:
490,229,218963,6,0,L|482:145,1,80,8|0,0:0|0:0,0:0:0:0:
467,16,219316,2,0,L|383:24,1,64.9999970245363,2|0,0:2|0:0,0:0:0:0:
253,32,219669,2,0,L|259:96,1,50,8|0,0:1|0:0,0:0:0:0:
273,237,220022,2,0,L|300:233,1,25,2|0,0:2|0:0,0:0:0:0:
375,143,220375,5,8,0:0:0:0:
256,192,220492,12,0,231669,0:0:0:0:
