osu file format v14

[General]
AudioFilename: audio.mp3
AudioLeadIn: 0
PreviewTime: 50718
Countdown: 0
SampleSet: Soft
StackLeniency: 0.7
Mode: 0
LetterboxInBreaks: 0
WidescreenStoryboard: 1

[Editor]
Bookmarks: 9593,18735,23307,27878,37021,46307,50735,59878,69021,73593,78164,87307,96593,101021,110164,119307,128450,128593,137593,146878,155878,165021,174164,183307,192450,201593,206164,210735,218878
DistanceSpacing: 1
BeatDivisor: 4
GridSize: 32
TimelineZoom: 1.899999

[Metadata]
Title:Control
TitleUnicode:Control
Artist:jAcKp*TrASH feat. AiCA
ArtistUnicode:jAcKp☆TrASH feat. AiCA
Creator:Lasse
Version:Insane
Source:CHU×ペット
Tags:japanese rock visual novel opening chu x pet eroge gwave jackpotrash aurora SHOW mikemike TAKUYA hishiro chizuru amb1d3x
BeatmapID:3430773
BeatmapSetID:1676042

[Difficulty]
HPDrainRate:5
CircleSize:4
OverallDifficulty:8
ApproachRate:9
SliderMultiplier:1.56
SliderTickRate:1

[Events]
//Background and Video events
0,0,"rf534645.jpg",0,0
//Break Periods
//Storyboard Layer 0 (Background)
//Storyboard Layer 1 (Fail)
//Storyboard Layer 2 (Pass)
//Storyboard Layer 3 (Foreground)
//Storyboard Layer 4 (Overlay)
//Storyboard Sound Samples

[TimingPoints]
593,285.714285714286,4,2,1,60,1,0
8164,-100,4,2,2,65,0,0
9593,-100,4,2,1,70,0,0
14164,-100,4,2,2,70,0,0
14235,-100,4,2,1,70,0,0
23307,-111.111111111111,4,2,2,60,0,0
23450,-111.111111111111,4,2,1,60,0,0
25593,-111.111111111111,4,2,2,60,0,0
25735,-111.111111111111,4,2,1,60,0,0
26878,-105.263157894737,4,2,2,60,0,0
27021,-105.263157894737,4,2,1,60,0,0
27878,276.497695852535,4,2,1,65,1,0
27878,-100,4,2,1,65,0,0
28293,285.714285714286,4,2,1,65,1,0
29150,285.714285714286,4,2,1,65,1,0
32578,285.714285714286,4,2,1,65,1,0
45006,295.566502463054,4,2,1,65,1,0
45450,285.714285714286,4,2,1,65,1,0
45450,-116.279069767442,4,2,1,65,0,0
46307,285.714285714286,4,2,1,60,1,0
46307,-133.333333333333,4,2,1,60,0,0
47449,-153.846153846153,4,2,1,60,0,0
48592,-200,4,2,1,60,0,0
49163,-200,4,2,1,40,0,0
49234,-200,4,2,1,30,0,0
50234,-200,4,2,1,5,0,0
50306,-100,4,2,1,60,0,0
50735,-90.9090909090909,4,2,1,72,0,1
55306,-90.9090909090909,4,2,2,72,0,1
55449,-90.9090909090909,4,2,1,72,0,1
59807,-90.9090909090909,4,2,1,72,0,0
59878,-90.9090909090909,4,2,1,72,0,1
64592,-90.9090909090909,4,2,2,72,0,1
64734,-90.9090909090909,4,2,1,72,0,1
66877,-90.9090909090909,4,2,2,72,0,1
66949,-90.9090909090909,4,2,1,72,0,1
69021,-100,4,2,1,70,0,0
73592,-111.111111111111,4,2,2,60,0,0
73734,-111.111111111111,4,2,1,60,0,0
75877,-111.111111111111,4,2,2,60,0,0
76020,-111.111111111111,4,2,1,60,0,0
77163,-105.263157894737,4,2,2,60,0,0
77306,-105.263157894737,4,2,1,60,0,0
78163,-100,4,2,1,65,0,0
82734,-100,4,2,2,65,0,0
82877,-100,4,2,1,65,0,0
91877,-100,4,2,2,65,0,0
92020,-100,4,2,1,65,0,0
95306,-100,4,2,2,65,0,0
95377,-100,4,2,1,65,0,0
96592,-133.333333333333,4,2,1,60,0,0
97734,-153.846153846153,4,2,1,60,0,0
98877,-200,4,2,1,60,0,0
99020,-200,4,2,1,5,0,0
99877,-200,4,2,1,40,0,0
100020,-100,4,2,1,64,0,0
101021,-90.9090909090909,4,2,1,72,0,1
105592,-90.9090909090909,4,2,2,72,0,1
105734,-90.9090909090909,4,2,1,72,0,1
110092,-90.9090909090909,4,2,1,72,0,0
110164,-90.9090909090909,4,2,1,72,0,1
114877,-90.9090909090909,4,2,2,72,0,1
115020,-90.9090909090909,4,2,1,72,0,1
117163,-90.9090909090909,4,2,2,72,0,1
117234,-90.9090909090909,4,2,1,72,0,1
119307,-83.3333333333333,4,2,2,74,0,0
119449,-83.3333333333333,4,2,1,74,0,0
130734,-90.9090909090909,4,2,1,72,0,0
133020,-83.3333333333333,4,2,1,74,0,0
135449,-83.3333333333333,4,2,2,74,0,0
137592,-111.111111111111,4,2,1,62,0,0
146734,-105.263157894737,4,2,1,64,0,0
151449,-100,4,2,1,66,0,0
153734,-83.3333333333333,4,2,1,68,0,0
154592,-83.3333333333333,4,2,1,70,0,0
155306,-83.3333333333333,4,2,1,60,0,0
155449,-83.3333333333333,4,2,1,70,0,0
155878,-90.9090909090909,4,2,1,72,0,1
160449,-90.9090909090909,4,2,2,72,0,1
160592,-90.9090909090909,4,2,1,72,0,1
164949,-90.9090909090909,4,2,1,72,0,0
165021,-90.9090909090909,4,2,1,72,0,1
169734,-90.9090909090909,4,2,2,72,0,1
169877,-90.9090909090909,4,2,1,72,0,1
172020,-90.9090909090909,4,2,2,72,0,1
172092,-90.9090909090909,4,2,1,72,0,1
173163,-90.9090909090909,4,2,3,72,0,1
173234,-90.9090909090909,4,2,1,72,0,1
174092,-90.9090909090909,4,2,1,72,0,0
174164,-83.3333333333333,4,2,1,74,0,1
178734,-83.3333333333333,4,2,2,74,0,1
178877,-83.3333333333333,4,2,1,74,0,1
183235,-83.3333333333333,4,2,1,74,0,0
183307,-83.3333333333333,4,2,1,74,0,1
188020,-83.3333333333333,4,2,2,74,0,1
188163,-83.3333333333333,4,2,1,74,0,1
190306,-100,4,2,1,70,0,1
191449,-83.3333333333333,4,2,1,72,0,1
192020,-100,4,2,1,74,0,1
192449,-90.9090909090909,4,2,1,70,0,0
197020,-90.9090909090909,4,2,2,70,0,0
197163,-90.9090909090909,4,2,1,70,0,0
206163,-100,4,2,1,60,0,0
208449,-100,4,2,1,62,0,0
208877,-90.9090909090909,4,2,1,62,0,0
209734,-100,4,2,1,64,0,0
210020,-100,4,2,1,66,0,0
210306,-100,4,2,1,68,0,0
210734,-500,4,2,2,60,0,0
210877,-490.196078431372,4,2,1,30,0,0
212020,-490.196078431372,4,2,1,25,0,0
213163,-490.196078431372,4,2,1,20,0,0
214306,-490.196078431372,4,2,1,15,0,0
215449,-490.196078431372,4,2,1,10,0,0
216593,-490.196078431372,4,2,71,5,0,0

[Colours]
Combo1 : 240,140,140
Combo2 : 200,180,220
Combo3 : 240,200,155
Combo4 : 150,185,220

[HitObjects]
162,173,593,5,10,1:1:0:0:
162,173,735,1,8,1:2:0:0:
350,211,1450,5,10,1:1:0:0:
350,211,1593,1,8,1:2:0:0:
177,274,2878,5,10,1:1:0:0:
177,274,3021,1,8,1:2:0:0:
335,110,3735,5,10,1:1:0:0:
335,110,3878,1,8,1:2:0:0:
220,179,5164,5,10,1:1:0:0:
292,205,5307,1,8,1:2:0:0:
210,184,6021,5,10,1:1:0:0:
302,200,6164,1,8,1:2:0:0:
269,130,7450,5,10,1:1:0:0:
243,254,7593,1,8,1:2:0:0:
257,115,8164,6,0,P|219:107|171:109,1,78,14|0,1:1|0:2,0:2:0:0:
151,204,8450,2,0,P|86:218|-10:193,1,156,10|0,1:1|0:2,0:2:0:0:
266,22,9593,6,0,B|364:-4|326:67|432:38,1,156,6|0,1:1|1:2,0:1:0:0:
512,155,10021,2,0,P|480:141|432:130,1,78,8|0,0:2|0:2,0:2:0:0:
338,158,10307,1,2,1:2:0:0:
338,158,10450,1,0,1:2:0:0:
352,259,10593,1,8,0:2:0:0:
241,219,10735,6,0,B|186:202|186:202|147:238|79:219,1,156,2|0,1:2|1:2,0:2:0:0:
9,159,11164,2,0,P|3:196|0:239,1,78,8|0,0:2|0:2,0:2:0:0:
121,122,11450,2,0,P|116:81|109:42,2,78,2|0|8,1:2|0:0|0:2,0:2:0:0:
252,233,11878,6,0,P|320:249|411:186,1,156,2|0,1:1|1:2,0:0:0:0:
435,106,12307,2,0,L|531:115,1,78,8|0,0:2|0:2,0:2:0:0:
333,130,12593,2,0,L|255:122,1,78,2|0,1:2|1:2,0:2:0:0:
367,43,12878,1,8,0:2:0:0:
411,202,13021,6,0,P|421:308|399:381,1,156,2|0,1:2|1:2,0:2:0:0:
263,229,13450,2,0,P|249:305|261:382,1,156,8|2,0:2|1:2,0:0:0:0:
338,284,13878,1,0,1:2:0:0:
169,221,14021,1,8,0:2:0:0:
328,171,14164,6,0,P|340:94|326:17,1,156,6|0,1:1|1:2,0:2:0:0:
175,95,14593,2,0,L|83:81,1,78,8|0,0:2|0:2,0:2:0:0:
0,112,14878,1,2,1:2:0:0:
66,156,15021,1,0,1:2:0:0:
30,38,15164,1,8,0:2:0:0:
74,175,15307,6,0,B|85:228|44:265|44:265|53:325,1,156,2|0,1:2|1:2,0:2:0:0:
175,381,15735,2,0,P|181:338|186:290,1,78,8|0,0:2|0:2,0:2:0:0:
334,254,16021,2,0,P|338:292|343:331,1,78,2|0,1:2|1:2,0:2:0:0:
232,208,16307,1,8,0:2:0:0:
316,120,16450,6,0,P|388:91|463:105,1,156,2|0,1:1|1:2,0:0:0:0:
481,239,16878,2,0,P|409:268|334:254,1,156,8|0,0:2|1:2,0:2:0:0:
232,208,17307,1,0,1:2:0:0:
247,316,17450,1,8,0:2:0:0:
150,273,17593,6,0,B|63:235|83:305|0:277,1,156,2|0,1:2|1:2,0:2:0:0:
90,127,18021,2,0,L|13:112,1,78,8|0,0:2|2:2,0:2:0:0:
151,55,18307,1,2,1:2:0:0:
172,172,18450,1,8,0:2:0:0:
233,100,18593,1,8,0:2:0:0:
340,169,18735,6,0,P|414:162|441:93,1,156,6|0,1:1|1:2,0:2:0:0:
306,25,19164,2,0,P|343:12|382:10,1,78,8|0,0:2|0:2,0:2:0:0:
250,116,19450,1,2,1:2:0:0:
172,41,19593,2,0,P|137:29|86:28,1,78,0|8,1:2|0:2,0:2:0:0:
113,148,19878,6,0,P|66:143|19:251,1,156,2|0,1:2|1:2,0:2:0:0:
119,266,20307,2,0,L|203:256,1,78,8|0,0:2|0:2,0:2:0:0:
309,291,20593,2,0,P|279:359|205:366,1,156,2|8,1:2|0:2,0:2:0:0:
119,266,21021,6,0,L|147:84,1,156,2|0,1:1|1:2,0:0:0:0:
254,4,21450,2,0,L|242:81,1,78,8|0,0:2|0:2,0:2:0:0:
316,200,21735,1,2,1:2:0:0:
316,200,21878,2,0,L|327:122,1,78,0|8,1:2|0:2,0:2:0:0:
430,37,22164,6,0,B|480:31|480:31|520:71|495:130,1,156,2|0,1:2|1:2,0:2:0:0:
427,243,22593,2,0,P|465:236|511:237,1,78,8|0,0:2|1:2,0:2:0:0:
415,331,22878,1,10,0:2:0:0:
340,238,23021,1,0,1:2:0:0:
310,381,23164,1,8,0:2:0:0:
235,288,23307,6,0,B|184:280|184:280|158:302|158:302|77:291,1,140.399995715332,6|0,1:1|2:2,0:2:0:0:
19,236,23735,2,0,L|21:385,2,140.399995715332,0|8|2,1:2|0:2|0:2,0:0:0:0:
39,153,24450,1,0,1:2:0:0:
121,172,24593,6,0,B|210:173|165:138|253:137,1,140.399995715332,2|0,0:1|1:2,0:2:0:0:
355,112,25021,2,0,P|336:142|328:176,1,70.1999978576661,2|8,0:2|0:2,0:2:0:0:
405,211,25307,2,0,P|422:183|432:146,1,70.1999978576661,0|8,1:2|0:2,0:2:0:0:
317,35,25593,6,0,P|241:18|169:13,1,140.399995715332,6|0,1:1|0:2,0:2:0:0:
162,124,26021,2,0,P|92:130|23:145,1,140.399995715332,0|8,1:2|0:2,0:2:0:0:
1,227,26450,1,0,1:2:0:0:
62,284,26593,2,0,P|108:275|140:268,1,70.1999978576661,2|0,0:2|1:2,0:2:0:0:
239,195,26878,6,0,P|242:157|251:110,1,74.0999980213166,14|0,0:1|1:2,0:0:0:0:
200,36,27164,1,8,0:2:0:0:
297,7,27307,1,2,1:2:0:0:
297,7,27378,1,0,1:2:0:0:
297,7,27450,1,8,0:2:0:0:
345,92,27593,2,0,P|342:128|335:165,1,74.0999980213166,8|8,0:2|0:2,0:0:0:0:
257,291,27878,6,2,B|262:363|327:373|327:373|377:346,1,156,6|0,1:2|1:2,0:1:0:0:
434,310,28292,1,8,0:2:0:0:
439,292,28864,1,8,0:2:0:0:
444,274,29435,1,8,0:2:0:0:
449,256,30007,5,8,0:2:0:0:
396,187,30150,2,2,B|305:163|336:213|228:179,1,156,2|0,1:2|1:2,0:1:0:0:
184,119,30578,1,8,0:2:0:0:
177,102,31150,5,8,0:2:0:0:
103,146,31292,2,2,P|79:202|84:302,1,156,2|0,1:2|1:2,0:1:0:0:
141,357,31721,1,8,0:2:0:0:
158,365,32292,5,8,0:2:0:0:
236,330,32435,2,2,P|260:274|255:174,1,156,2|0,1:2|1:2,0:1:0:0:
215,105,32863,1,8,0:2:0:0:
221,87,33435,1,8,0:2:0:0:
227,69,34006,1,8,0:2:0:0:
233,51,34578,5,8,0:2:0:0:
295,108,34720,2,2,B|319:128|356:127|356:127|392:92|440:104,1,156,2|0,1:2|1:2,0:1:0:0:
506,158,35149,1,8,0:2:0:0:
512,175,35720,5,8,0:2:0:0:
467,248,35863,2,2,B|438:261|403:250|403:250|381:204|323:197,1,156,2|0,1:2|1:2,0:1:0:0:
246,207,36292,1,8,0:2:0:0:
183,343,36578,5,0,1:2:0:0:
107,359,36720,1,0,1:2:0:0:
31,337,36863,1,8,0:2:0:0:
3,247,37006,6,2,L|43:68,1,156,6|0,1:2|1:2,0:1:0:0:
112,51,37435,1,8,0:2:0:0:
129,44,38006,1,8,0:2:0:0:
146,37,38578,1,8,0:2:0:0:
163,30,39149,5,8,0:2:0:0:
201,106,39292,2,2,L|161:285,1,156,2|0,1:2|1:2,0:1:0:0:
190,340,39720,1,8,0:2:0:0:
198,356,40292,5,8,0:2:0:0:
279,329,40435,2,2,L|313:176,1,156,2|0,0:2|1:2,0:1:0:0:
389,137,40863,1,8,0:2:0:0:
398,120,41435,5,8,0:2:0:0:
466,171,41578,2,2,B|495:221|482:279|482:279|458:288|444:304,1,156,2|0,1:2|1:2,0:1:0:0:
396,373,42006,1,8,0:2:0:0:
379,364,42578,1,8,0:2:0:0:
362,355,43149,1,8,0:2:0:0:
345,346,43720,5,8,0:2:0:0:
262,322,43863,2,2,B|209:314|209:314|175:341|175:341|90:349,1,156,2|0,1:2|1:2,0:1:0:0:
32,325,44292,1,8,0:2:0:0:
20,312,44863,5,8,0:2:0:0:
60,236,45006,2,2,B|76:167|34:171|66:66,1,156,2|0,0:2|1:2,0:1:0:0:
150,15,45449,5,8,0:2:0:0:
196,87,45592,1,8,0:2:0:0:
236,12,45735,1,8,0:2:0:0:
282,84,45878,5,8,0:3:0:0:
355,98,46021,1,4,0:3:0:0:
428,112,46164,1,4,0:3:0:0:
475,183,46307,6,0,P|481:224|456:308,1,117.000004463196,6|0,1:2|0:2,0:2:0:0:
412,353,46735,1,0,1:2:0:0:
412,353,46878,2,0,L|295:330,1,117.000004463196,8|0,0:2|1:2,0:0:0:0:
179,371,47449,6,0,L|202:254,1,101.399995358277,6|0,1:2|0:2,0:2:0:0:
168,203,47878,1,0,1:2:0:0:
168,203,48021,2,0,L|191:86,1,101.399995358277,8|0,0:2|1:2,0:0:0:0:
79,21,48592,6,0,P|28:46|61:131,1,156,6|0,1:2|0:2,0:2:0:0:
256,192,49235,12,0,50235,0:2:0:0:
224,315,50307,6,0,L|214:225,1,78,8|0,0:2|1:2,0:2:0:0:
215,237,50735,6,0,B|113:211|153:280|45:252,1,171.600005236817,6|0,1:1|1:2,0:1:0:0:
0,130,51164,2,0,P|46:125|91:111,1,85.8000026184083,8|0,0:2|0:2,0:2:0:0:
224,38,51449,2,0,P|178:33|133:19,1,85.8000026184083,2|0,1:2|1:2,0:0:0:0:
269,137,51735,1,8,0:2:0:0:
363,69,51878,6,0,P|431:61|501:140,1,171.600005236817,2|0,1:2|1:2,0:2:0:0:
304,218,52307,2,0,P|297:175|309:128,1,85.8000026184083,8|0,0:2|0:2,0:2:0:0:
503,220,52592,2,0,P|449:283|366:280,1,171.600005236817,2|8,1:2|0:2,0:2:0:0:
251,383,53021,6,0,P|197:319|114:322,1,171.600005236817,2|0,1:1|1:2,0:0:0:0:
19,222,53449,2,0,P|6:261|4:306,1,85.8000026184083,8|0,0:2|0:0,0:2:0:0:
158,225,53735,2,0,P|155:182|142:141,1,85.8000026184083,2|0,1:2|1:2,0:0:0:0:
41,74,54021,1,8,0:2:0:0:
149,18,54164,6,0,B|260:-1|217:56|319:35,1,171.600005236817,2|0,1:2|1:2,0:2:0:0:
414,83,54592,2,0,L|499:73,1,85.8000026184083,8|0,0:2|0:2,0:2:0:0:
412,197,54878,1,2,1:2:0:0:
320,122,55021,1,0,1:2:0:0:
313,252,55164,1,8,0:2:0:0:
210,179,55307,6,0,L|28:159,1,171.600005236817,6|0,1:1|1:2,0:2:0:0:
86,276,55735,2,0,P|45:269|-19:265,1,85.8000026184083,8|0,0:2|0:2,0:2:0:0:
157,378,56021,2,0,P|162:335|171:293,1,85.8000026184083,2|0,1:2|1:2,0:0:0:0:
266,364,56307,1,8,0:2:0:0:
372,299,56449,6,0,P|371:218|350:106,1,171.600005236817,2|0,1:2|1:2,0:2:0:0:
327,25,56878,2,0,P|376:15|427:16,1,85.8000026184083,8|0,0:2|0:2,0:2:0:0:
251,116,57164,2,0,P|208:114|166:105,1,85.8000026184083,2|0,1:2|1:2,0:2:0:0:
322,223,57449,2,0,P|363:213|406:212,1,85.8000026184083,8|0,0:2|1:2,0:2:0:0:
199,354,57735,5,2,0:2:0:0:
283,382,57878,2,0,P|280:341|269:297,1,85.8000026184083,0|8,1:2|0:2,0:0:0:0:
79,224,58164,1,2,0:2:0:0:
161,206,58307,2,0,P|158:246|147:290,1,85.8000026184083,0|0,1:2|1:2,0:0:0:0:
9,175,58592,5,10,0:2:0:0:
98,103,58735,1,2,1:1:0:0:
98,103,58807,1,0,1:2:0:0:
98,103,58878,2,0,L|-2:87,1,85.8000026184083,0|0,1:2|1:2,0:2:0:0:
228,20,59164,2,0,L|143:6,1,85.8000026184083,8|0,0:2|0:2,0:2:0:0:
258,123,59449,5,2,1:1:0:0:
366,149,59592,1,0,1:2:0:0:
452,79,59735,1,8,0:2:0:0:
357,167,59878,6,0,P|338:267|361:358,1,171.600005236817,6|0,1:1|1:2,0:2:0:0:
452,298,60307,2,0,P|445:339|439:391,1,85.8000026184083,8|0,0:2|0:2,0:2:0:0:
240,247,60592,2,0,P|247:288|253:340,1,85.8000026184083,2|0,1:2|1:2,0:0:0:0:
380,188,60878,1,8,0:2:0:0:
288,87,61021,6,0,B|178:60|227:135|103:101,1,171.600005236817,2|0,1:2|1:2,0:2:0:0:
0,117,61449,2,0,P|2:74|18:34,1,85.8000026184083,8|0,0:2|0:2,0:2:0:0:
107,208,61735,2,0,P|37:214|6:319,1,171.600005236817,2|8,1:2|0:2,0:2:0:0:
148,355,62164,6,0,B|227:351|227:351|233:354|233:354|334:350,1,171.600005236817,2|0,1:1|1:2,0:0:0:0:
462,293,62592,2,0,P|470:337|470:392,1,85.8000026184083,8|0,0:2|0:2,0:2:0:0:
365,247,62878,2,0,P|366:204|374:162,1,85.8000026184083,2|0,1:2|1:2,0:0:0:0:
267,159,63164,1,8,0:2:0:0:
465,145,63307,6,0,P|417:81|316:87,1,171.600005236817,2|0,1:2|1:2,0:2:0:0:
193,112,63735,2,0,P|184:69|183:27,1,85.8000026184083,10|0,0:2|0:2,0:0:0:0:
72,187,64021,2,0,P|112:200|149:221,1,85.8000026184083,2|0,1:2|1:2,0:0:0:0:
68,44,64307,2,0,P|35:72|0:94,1,85.8000026184083,10|0,0:2|0:2,0:0:0:0:
114,114,64592,6,0,B|214:77|184:150|280:118,1,171.600005236817,6|8,1:1|0:2,0:2:0:0:
356,64,65021,1,0,0:2:0:0:
421,132,65164,2,0,P|437:205|426:233,1,85.8000026184083,2|0,1:2|1:2,0:2:0:0:
434,213,65378,1,0,1:2:0:0:
434,213,65449,1,8,0:2:0:0:
509,302,65592,6,0,P|444:261|338:260,1,171.600005236817,2|0,1:2|1:2,0:2:0:0:
212,299,66021,2,0,L|214:389,1,85.8000026184083,8|0,0:2|0:0,0:2:0:0:
107,316,66307,2,0,L|17:318,1,85.8000026184083,0|0,1:2|1:2,0:0:0:0:
90,211,66592,2,0,L|88:121,1,85.8000026184083,10|0,0:2|0:2,0:2:0:0:
181,26,66878,5,6,1:1:0:0:
181,26,67021,1,0,1:2:0:0:
205,136,67164,1,8,0:2:0:0:
404,15,67449,5,2,1:1:0:0:
404,15,67592,1,0,1:2:0:0:
380,125,67735,1,8,0:2:0:0:
181,26,68021,6,0,L|96:10,1,85.8000026184083,10|8,0:1|0:2,0:0:0:0:
206,174,68307,2,0,L|121:158,1,85.8000026184083,10|8,0:1|0:2,0:0:0:0:
305,103,68592,5,10,0:1:0:0:
334,218,68735,1,8,0:2:0:0:
429,144,68878,1,8,0:2:0:0:
463,269,69021,6,0,B|472:332|420:368|420:368|372:350,1,156,6|0,1:1|1:2,0:2:0:0:
217,303,69449,2,0,P|208:342|203:382,1,78,8|0,0:2|0:2,0:2:0:0:
318,259,69735,2,0,P|312:220|304:182,1,78,2|0,1:2|1:2,0:0:0:0:
255,92,70021,1,8,0:2:0:0:
150,218,70164,6,0,P|83:244|-8:188,1,156,2|0,1:2|1:2,0:2:0:0:
85,108,70592,2,0,L|0:92,1,78,8|0,0:2|0:2,0:2:0:0:
174,13,70878,2,0,B|179:74|236:87|236:87|258:70|282:65,1,156,2|8,1:2|2:2,0:2:0:0:
427,122,71307,6,0,B|422:183|365:196|365:196|348:181|317:174,1,156,2|0,1:1|1:2,0:0:0:0:
208,270,71735,2,0,P|248:264|290:262,1,78,8|0,0:2|0:2,0:2:0:0:
333,377,72021,1,2,1:2:0:0:
440,308,72164,2,0,P|400:302|358:300,1,78,0|8,1:2|0:2,0:2:0:0:
195,249,72449,6,0,P|193:184|222:86,1,156,2|0,1:2|1:2,0:2:0:0:
372,77,72878,2,0,L|365:-2,1,78,8|0,0:2|0:2,0:2:0:0:
448,145,73164,1,2,1:2:0:0:
332,171,73307,1,0,1:2:0:0:
466,140,73449,1,8,0:2:0:0:
314,176,73592,6,0,B|263:168|263:168|234:184|234:184|157:173,1,140.399995715332,6|0,1:1|0:2,0:2:0:0:
60,159,74021,2,0,L|81:14,2,140.399995715332,0|8|2,1:2|0:2|0:2,0:0:0:0:
14,230,74735,1,0,1:2:0:0:
52,305,74878,6,0,P|119:319|181:289,1,140.399995715332,2|0,0:1|1:2,0:2:0:0:
281,229,75307,2,0,P|267:261|265:296,1,70.1999978576661,2|8,0:2|0:2,0:2:0:0:
341,332,75592,2,0,P|355:300|357:265,1,70.1999978576661,0|8,0:2|0:2,0:2:0:0:
323,148,75878,6,0,L|496:129,1,140.399995715332,6|0,1:1|0:2,0:2:0:0:
337,57,76307,2,0,P|280:30|181:44,1,140.399995715332,0|8,1:2|0:2,0:2:0:0:
121,13,76735,1,0,1:2:0:0:
70,80,76878,2,0,P|72:113|83:158,1,70.1999978576661,2|0,0:2|1:2,0:2:0:0:
176,254,77164,6,0,L|264:244,1,74.0999980213166,14|0,0:1|1:2,0:0:0:0:
347,331,77449,1,10,0:2:0:0:
347,331,77521,1,8,0:2:0:0:
347,331,77592,1,8,0:3:0:0:
347,331,77664,1,8,0:3:0:0:
347,331,77735,1,8,0:2:0:0:
436,260,77878,2,0,P|440:222|419:169,1,74.0999980213166,8|8,0:2|0:2,0:0:0:0:
348,59,78164,6,0,B|407:73|442:27|442:27|450:51|476:68,1,156,6|0,1:2|1:2,0:1:0:0:
361,147,78592,2,0,P|324:138|261:127,1,78,8|0,0:2|0:2,0:0:0:0:
226,12,78878,1,2,1:2:0:0:
137,110,79021,2,0,P|175:102|213:93,1,78,0|8,1:2|0:2,0:0:0:0:
62,15,79307,5,2,1:2:0:0:
62,15,79378,1,0,1:2:0:0:
62,14,79449,2,0,P|54:52|49:91,1,78,0|0,1:2|1:2,0:0:0:0:
144,195,79735,2,0,P|139:233|131:272,1,78,8|0,0:2|0:2,0:0:0:0:
59,332,80021,1,2,1:2:0:0:
59,332,80164,1,0,1:2:0:0:
139,379,80307,1,8,0:2:0:0:
211,315,80449,6,0,B|308:296|275:350|371:337,1,156,2|0,1:1|1:2,0:1:0:0:
478,308,80878,2,0,P|469:351|464:392,1,78,8|0,0:2|0:2,0:0:0:0:
344,239,81164,2,0,P|382:230|420:225,1,78,2|0,1:2|1:2,0:0:0:0:
489,164,81449,1,8,0:2:0:0:
419,84,81592,5,2,1:1:0:0:
419,84,81664,1,0,1:2:0:0:
419,84,81735,2,0,P|380:75|342:70,1,78,0|0,1:2|1:2,0:2:0:0:
229,79,82021,2,0,P|234:40|242:2,1,78,8|0,0:2|0:2,0:2:0:0:
299,141,82307,1,0,1:2:0:0:
215,183,82449,1,0,1:2:0:0:
145,121,82592,1,8,0:2:0:0:
58,177,82735,6,0,P|27:251|46:343,1,156,6|0,1:1|1:2,0:2:0:0:
129,377,83164,2,0,L|136:288,1,78,8|0,0:2|0:2,0:0:0:0:
290,243,83449,1,2,1:2:0:0:
215,183,83592,2,0,L|208:260,1,78,0|8,1:2|0:2,0:0:0:0:
369,318,83878,5,2,1:2:0:0:
369,318,83949,1,0,1:2:0:0:
369,318,84021,2,0,L|376:241,1,78,0|0,1:2|1:2,0:0:0:0:
494,196,84307,2,0,L|487:273,1,78,8|0,0:2|0:2,0:0:0:0:
419,130,84592,2,0,P|378:120|342:123,1,78,2|0,1:2|1:2,0:0:0:0:
257,168,84878,1,8,0:2:0:0:
156,115,85021,5,2,1:1:0:0:
156,115,85092,1,0,1:2:0:0:
156,115,85164,2,0,P|153:76|162:38,1,78,0|0,1:2|1:2,0:2:0:0:
257,168,85449,2,0,P|260:207|251:245,1,78,8|0,0:2|0:2,0:2:0:0:
180,305,85735,1,0,1:2:0:0:
180,305,85878,1,0,1:2:0:0:
105,248,86021,1,8,0:2:0:0:
24,299,86164,6,0,P|15:336|18:375,1,78,2|0,1:1|1:2,0:0:0:0:
180,305,86449,2,0,P|183:344|175:382,1,78,2|8,1:1|0:2,0:0:0:0:
105,248,86735,2,0,P|101:209|110:171,1,78,2|0,1:1|1:2,0:0:0:0:
195,117,87021,1,8,0:2:0:0:
285,160,87164,1,8,0:2:0:0:
392,105,87307,6,0,B|439:89|439:89|500:120|476:185,1,156,6|0,1:1|1:2,0:2:0:0:
499,310,87735,2,0,P|462:297|418:291,1,78,8|0,0:2|0:2,0:0:0:0:
343,322,88021,1,2,1:2:0:0:
259,303,88164,1,0,1:2:0:0:
196,361,88307,1,8,0:2:0:0:
100,324,88449,5,2,1:2:0:0:
100,324,88521,1,0,1:2:0:0:
100,324,88592,2,0,P|92:286|91:236,1,78,0|0,1:2|1:2,0:0:0:0:
103,130,88878,2,0,L|26:136,1,78,8|0,0:2|0:2,0:0:0:0:
179,194,89164,1,2,1:2:0:0:
179,194,89307,1,0,1:2:0:0:
222,117,89449,1,8,0:2:0:0:
306,182,89592,6,0,P|364:197|456:155,1,156,2|0,1:1|1:2,0:2:0:0:
435,39,90021,2,0,L|541:31,1,78,8|0,0:2|0:2,0:0:0:0:
350,100,90307,2,0,P|347:61|332:12,1,78,2|0,1:2|1:2,0:0:0:0:
236,1,90592,1,8,0:2:0:0:
161,89,90735,5,2,1:1:0:0:
161,89,90807,1,0,1:2:0:0:
161,89,90878,2,0,P|164:128|179:177,1,78,0|0,1:2|1:2,0:2:0:0:
119,264,91164,2,0,L|41:259,1,78,8|0,0:2|0:2,0:2:0:0:
164,346,91449,1,0,1:2:0:0:
164,346,91592,1,0,1:2:0:0:
228,278,91735,1,8,0:2:0:0:
317,353,91878,6,0,B|392:369|392:369|484:331,1,156,6|0,1:1|1:2,0:2:0:0:
486,217,92307,2,0,L|497:129,1,78,8|0,0:2|0:2,0:0:0:0:
381,262,92592,2,0,L|358:79,1,156,2|8,1:2|0:2,0:0:0:0:
276,27,93021,5,2,1:2:0:0:
276,27,93092,1,0,1:2:0:0:
276,27,93164,2,0,P|317:20|380:18,1,78,0|0,1:2|1:2,0:0:0:0:
237,117,93449,2,0,P|196:110|133:108,1,78,8|0,0:2|0:2,0:0:0:0:
79,59,93735,1,2,1:2:0:0:
79,59,93878,1,0,1:2:0:0:
23,134,94021,1,8,0:2:0:0:
107,194,94164,5,2,1:1:0:0:
107,194,94235,1,0,1:2:0:0:
107,194,94307,2,0,P|148:201|211:203,1,78,0|0,1:2|1:2,0:2:0:0:
258,334,94592,2,0,P|219:327|180:324,1,78,12|0,0:2|0:2,0:2:0:0:
340,277,94878,1,2,1:2:0:0:
340,277,95021,1,0,1:2:0:0:
398,360,95164,1,8,0:2:0:0:
475,304,95307,6,0,P|483:265|477:220,1,78,6|0,1:1|1:2,0:0:0:0:
339,276,95592,2,0,P|336:238|344:200,1,78,8|8,2:2|2:2,0:0:0:0:
422,135,95878,1,8,0:2:0:0:
422,135,95949,1,8,0:2:0:0:
422,135,96021,1,8,0:3:0:0:
344,81,96164,5,8,0:3:0:0:
264,120,96307,5,4,0:3:0:0:
187,91,96449,5,4,0:3:0:0:
122,131,96592,6,0,P|100:182|110:256,1,117.000004463196,6|0,1:2|0:2,0:2:0:0:
146,310,97021,1,0,1:2:0:0:
146,310,97164,2,0,L|264:299,1,117.000004463196,8|0,0:2|1:2,0:0:0:0:
402,376,97735,6,0,B|415:344|400:313|400:313|408:277,1,101.399995358277,6|0,1:2|0:2,0:2:0:0:
468,228,98164,1,0,1:2:0:0:
468,228,98307,2,0,L|459:119,1,101.399995358277,8|0,0:2|1:2,0:0:0:0:
460,127,98878,6,0,B|308:77|349:192|198:149,1,273,6|0,1:2|0:2,0:2:0:0:
94,68,100021,6,0,L|175:62,1,78,12|0,0:2|1:2,0:0:0:0:
115,186,100307,1,8,0:2:0:0:
115,186,100378,1,8,0:2:0:0:
115,186,100449,1,8,0:2:0:0:
115,186,100521,1,8,0:2:0:0:
115,186,100592,1,8,0:2:0:0:
200,149,100735,1,8,0:2:0:0:
236,235,100878,1,8,0:2:0:0:
350,205,101021,6,0,B|405:190|405:190|438:244|503:252,1,171.600005236817,6|0,1:1|1:2,0:1:0:0:
429,95,101449,2,0,P|467:83|518:78,1,85.8000026184083,8|0,0:2|0:2,0:0:0:0:
309,129,101735,2,0,P|303:86|289:46,1,85.8000026184083,2|0,1:2|1:2,0:0:0:0:
162,5,102021,1,8,0:2:0:0:
39,90,102164,6,0,P|24:165|56:268,1,171.600005236817,2|0,1:2|1:2,0:2:0:0:
139,380,102592,2,0,P|143:339|151:292,1,85.8000026184083,8|0,0:2|0:2,0:2:0:0:
341,274,102878,2,0,B|354:341|288:372|288:372|230:346,1,171.600005236817,2|8,1:2|0:2,0:2:0:0:
299,158,103307,6,0,P|383:145|469:137,1,171.600005236817,2|0,1:1|1:2,0:0:0:0:
427,244,103735,2,0,P|472:239|519:235,1,85.8000026184083,8|0,0:2|0:0,0:0:0:0:
371,360,104021,2,0,P|416:355|463:351,1,85.8000026184083,2|0,1:2|1:2,0:0:0:0:
286,249,104307,1,8,0:2:0:0:
213,349,104449,6,0,B|177:373|133:376|133:376|91:360|64:318,1,171.600005236817,2|0,1:2|1:2,0:2:0:0:
87,184,104878,2,0,L|3:196,1,85.8000026184083,8|0,0:2|0:2,0:2:0:0:
154,104,105164,1,2,1:2:0:0:
211,190,105307,1,0,1:2:0:0:
271,105,105449,1,8,0:2:0:0:
327,227,105592,6,0,B|363:251|407:254|407:254|449:238|476:196,1,171.600005236817,6|0,1:1|1:2,0:2:0:0:
374,90,106021,2,0,P|374:51|361:0,1,85.8000026184083,8|0,0:2|0:2,0:2:0:0:
181,95,106307,2,0,P|181:52|191:10,1,85.8000026184083,2|0,1:2|1:2,0:0:0:0:
267,135,106592,1,8,0:2:0:0:
125,177,106735,6,0,P|85:230|96:338,1,171.600005236817,2|0,1:2|1:2,0:2:0:0:
218,240,107164,2,0,P|258:232|314:235,1,85.8000026184083,8|0,0:2|0:2,0:2:0:0:
387,354,107449,2,0,P|344:362|302:360,1,85.8000026184083,2|0,1:2|1:2,0:2:0:0:
490,301,107735,2,0,P|502:342|498:385,1,85.8000026184083,8|0,0:2|1:2,0:2:0:0:
392,254,108021,5,2,0:2:0:0:
458,198,108164,2,0,P|461:155|449:114,1,85.8000026184083,0|8,1:2|0:2,0:0:0:0:
286,118,108449,1,2,0:2:0:0:
357,2,108592,2,0,P|368:42|365:85,1,85.8000026184083,0|0,1:2|1:2,0:0:0:0:
186,28,108878,5,10,0:2:0:0:
107,115,109021,1,2,1:1:0:0:
107,115,109092,1,0,1:2:0:0:
107,115,109164,2,0,P|95:155|98:198,1,85.8000026184083,0|0,1:2|1:2,0:2:0:0:
141,340,109449,2,0,L|53:332,1,85.8000026184083,8|0,0:2|0:2,0:2:0:0:
261,278,109735,1,2,1:1:0:0:
310,377,109878,1,0,1:2:0:0:
396,307,110021,1,8,0:2:0:0:
242,263,110164,6,0,P|230:187|285:94,1,171.600005236817,6|0,1:1|1:2,0:2:0:0:
361,5,110592,2,0,P|366:47|376:102,1,85.8000026184083,8|0,0:2|0:2,0:2:0:0:
173,85,110878,2,0,P|180:42|185:0,1,85.8000026184083,2|0,1:2|1:2,0:0:0:0:
282,132,111164,1,8,0:2:0:0:
170,198,111307,6,0,L|-1:176,1,171.600005236817,2|0,1:2|1:2,0:2:0:0:
111,336,111735,2,0,L|21:325,1,85.8000026184083,8|0,0:2|0:2,0:2:0:0:
195,281,112021,2,0,P|227:343|327:349,1,171.600005236817,2|8,1:2|0:0,0:0:0:0:
443,219,112449,6,0,B|470:233|508:244|508:244|494:294|480:350,1,171.600005236817,2|0,1:1|1:2,0:0:0:0:
329,240,112878,2,0,L|340:146,1,85.8000026184083,8|0,0:2|0:2,0:0:0:0:
195,281,113164,2,0,L|206:187,1,85.8000026184083,2|0,1:2|1:2,0:0:0:0:
122,123,113449,1,8,0:2:0:0:
251,30,113592,6,0,B|361:9|307:63|418:42,1,171.600005236817,2|0,1:2|1:2,0:0:0:0:
429,163,114021,2,0,P|466:152|524:150,1,85.8000026184083,10|0,0:2|0:2,0:0:0:0:
385,301,114307,2,0,P|426:289|468:287,1,85.8000026184083,2|0,1:2|1:2,0:0:0:0:
296,218,114592,2,0,P|293:175|282:134,1,85.8000026184083,10|0,0:2|0:2,0:0:0:0:
133,68,114878,6,0,P|71:126|75:213,1,171.600005236817,6|8,1:1|0:2,0:2:0:0:
42,297,115307,1,0,0:2:0:0:
123,344,115449,2,0,L|225:338,1,85.8000026184083,2|0,1:2|1:2,0:2:0:0:
208,338,115664,1,0,1:2:0:0:
208,338,115735,1,8,0:2:0:0:
353,383,115878,6,0,B|355:329|355:329|385:292|385:292|392:215,1,171.600005236817,2|0,1:2|1:2,0:2:0:0:
427,138,116307,2,0,L|528:145,1,85.8000026184083,8|0,0:2|0:0,0:2:0:0:
337,35,116592,2,0,L|438:42,1,85.8000026184083,0|0,1:2|1:2,0:0:0:0:
306,216,116878,2,0,L|407:223,1,85.8000026184083,10|0,0:2|0:2,0:2:0:0:
223,112,117164,5,6,1:1:0:0:
189,299,117449,1,8,0:2:0:0:
2,265,117735,5,2,1:1:0:0:
2,265,117878,1,0,1:2:0:0:
15,367,118021,1,8,0:2:0:0:
165,204,118307,6,0,L|175:114,1,85.8000026184083,10|8,0:1|0:2,0:0:0:0:
347,180,118592,2,0,L|337:270,1,85.8000026184083,10|8,0:1|0:2,0:0:0:0:
283,98,118878,1,10,0:1:0:0:
400,75,119021,1,8,0:2:0:0:
283,98,119164,1,8,0:2:0:0:
371,194,119307,6,2,B|461:228|461:228|516:199|490:147,1,187.19999428711,6|0,1:1|1:2,0:1:0:0:
396,34,119735,2,0,L|501:17,1,93.5999971435548,8|0,0:2|0:2,0:0:0:0:
278,128,120021,2,0,L|256:28,1,93.5999971435548,2|0,1:2|1:2,0:0:0:0:
176,121,120307,1,8,0:2:0:0:
89,28,120449,5,0,1:2:0:0:
89,28,120521,1,0,1:2:0:0:
89,28,120592,2,0,L|68:119,1,93.5999971435548,2|0,1:1|1:2,0:2:0:0:
88,243,120878,2,0,B|39:249|39:249|-10:222,1,93.5999971435548,8|0,0:2|0:2,0:2:0:0:
164,379,121164,1,2,1:2:0:0:
164,379,121307,2,0,B|125:357|125:357|76:363,1,93.5999971435548,0|0,1:2|0:2,0:2:0:0:
220,269,121592,6,0,B|251:255|251:255|300:269|300:269|318:323|373:333,1,187.19999428711,2|0,1:1|1:2,0:0:0:0:
493,292,122021,2,0,B|487:330|487:330|493:344|493:344|488:384,1,93.5999971435548,8|0,0:2|0:2,0:0:0:0:
416,223,122307,1,2,1:2:0:0:
509,178,122449,1,0,1:2:0:0:
434,106,122592,2,0,B|428:68|428:68|434:54|434:54|426:-1,1,93.5999971435548,8|0,0:2|0:2,0:2:0:0:
315,93,122878,5,2,1:2:0:0:
228,127,123021,1,0,1:2:0:0:
242,34,123164,1,8,0:2:0:0:
301,186,123307,2,2,B|311:232|311:232|293:275,1,93.5999971435548,2|0,0:2|1:2,0:1:0:0:
145,173,123592,2,2,B|127:216|127:216|137:262,1,93.5999971435548,0|8,1:2|0:2,0:1:0:0:
396,232,123878,6,2,B|327:218|327:218|288:239|288:239|214:226,1,187.19999428711,2|0,1:2|1:2,0:1:0:0:
100,354,124307,2,0,B|143:368|143:368|188:342,1,93.5999971435548,10|0,0:2|0:2,0:0:0:0:
45,197,124592,1,2,1:1:0:0:
145,173,124735,1,0,1:2:0:0:
70,101,124878,1,10,0:2:0:0:
214,103,125021,6,0,L|221:-3,1,93.5999971435548,0|0,1:2|1:2,0:0:0:0:
398,90,125307,2,2,B|363:84|363:84|345:89|345:89|306:81,1,93.5999971435548,2|8,1:1|0:2,0:1:0:0:
160,198,125592,2,2,B|195:192|195:192|213:197|213:197|251:189,1,93.5999971435548,2|0,0:2|1:2,0:1:0:0:
385,306,125878,2,2,B|350:300|350:300|332:305|332:305|293:297,1,93.5999971435548,0|8,1:2|0:2,0:1:0:0:
451,187,126164,6,2,B|446:263|514:282|514:282|481:255|480:208,1,187.19999428711,2|0,1:1|1:2,0:1:0:0:
425,79,126592,2,0,P|466:58|517:61,1,93.5999971435548,8|0,0:2|0:2,0:0:0:0:
363,159,126878,1,2,1:2:0:0:
363,159,127021,1,0,1:2:0:0:
280,97,127164,1,8,0:2:0:0:
180,122,127307,6,2,B|156:164|156:164|162:227,1,93.5999971435548,2|0,1:2|0:2,0:1:0:0:
343,246,127592,2,2,B|367:204|367:204|362:158,1,93.5999971435548,0|8,1:2|0:2,0:1:0:0:
263,191,127878,1,2,1:1:0:0:
263,191,127949,1,0,1:2:0:0:
263,191,128021,2,0,B|249:279|249:279|252:285|252:285|238:382,1,187.19999428711,0|8,1:2|0:2,0:0:0:0:
96,277,128449,6,0,B|50:309|50:309|-25:283|-1:199,1,187.19999428711,4|2,1:2|1:2,0:0:0:0:
41,101,128878,1,10,2:2:0:0:
133,181,129021,1,2,2:2:0:0:
133,181,129092,1,2,2:2:0:0:
133,181,129164,2,0,B|177:193|177:193|219:166,1,93.5999971435548,2|0,1:1|1:2,0:0:0:0:
328,98,129449,5,10,2:2:0:0:
328,98,129521,1,2,2:2:0:0:
328,98,129592,2,2,B|314:65|314:65|331:7,1,93.5999971435548,2|0,1:1|0:2,0:1:0:0:
476,104,129878,2,2,B|490:71|490:71|473:15,1,93.5999971435548,2|8,1:2|0:2,0:1:0:0:
395,181,130164,1,2,0:2:0:0:
485,260,130307,1,2,1:2:0:0:
485,260,130378,1,2,0:2:0:0:
485,260,130449,2,0,B|499:293|499:293|482:348,1,93.5999971435548,0|8,1:2|0:2,0:0:0:0:
346,379,130735,6,2,B|267:369|267:369|262:371|262:371|142:357,1,171.600005236817,2|0,1:1|1:2,0:1:0:0:
259,255,131164,2,0,B|180:245|180:245|175:247|175:247|55:233,1,171.600005236817,8|0,0:2|1:2,0:2:0:0:
5,175,131592,1,0,1:2:0:0:
38,78,131735,1,8,0:2:0:0:
141,80,131878,6,2,B|220:70|220:70|225:72|225:72|345:58,1,171.600005236817,2|0,1:2|1:2,2:1:0:0:
431,99,132307,2,0,B|442:60|442:60|415:2,1,85.8000026184083,8|0,0:2|0:2,0:2:0:0:
346,160,132592,1,0,1:2:0:0:
346,160,132735,1,0,1:2:0:0:
429,219,132878,1,8,0:2:0:0:
335,317,133021,6,0,P|379:331|425:327,1,93.5999971435548,4|0,1:2|0:2,0:2:0:0:
194,278,133307,1,2,1:1:0:0:
194,278,133449,2,0,P|179:322|183:368,1,93.5999971435548,8|0,0:1|1:2,0:0:0:0:
232,138,133735,1,10,0:1:0:0:
232,138,133878,2,0,P|187:123|141:127,1,93.5999971435548,0|8,1:2|0:1,0:0:0:0:
372,176,134164,5,2,1:2:0:0:
283,227,134307,1,10,0:1:0:0:
321,87,134449,1,0,1:2:0:0:
372,176,134592,1,8,0:2:0:0:
232,138,134735,2,0,B|186:133|152:151|152:151|83:131|98:71,1,187.19999428711,2|0,1:1|1:2,0:0:0:0:
92,239,135164,2,0,B|53:232|53:232|38:239|38:239|-27:230,1,93.5999971435548,8|0,0:2|1:2,0:2:0:0:
150,349,135449,5,14,2:1:0:0:
150,349,135521,1,0,2:2:0:0:
150,349,135592,1,0,1:2:0:0:
150,349,135664,1,0,2:2:0:0:
150,349,135735,2,0,B|193:363|193:363|240:340,1,93.5999971435548,0|0,2:2|1:2,0:0:0:0:
316,268,136021,5,14,2:1:0:0:
314,259,136092,1,0,2:2:0:0:
312,251,136164,1,0,1:2:0:0:
310,243,136235,1,0,2:2:0:0:
308,234,136307,2,0,L|322:101,1,93.5999971435548,0|0,2:2|1:2,0:0:0:0:
337,10,136592,5,10,0:1:0:0:
337,10,136735,1,8,0:2:0:0:
392,85,136878,1,10,0:1:0:0:
392,85,137021,1,8,0:2:0:0:
262,65,137164,1,10,0:1:0:0:
262,65,137307,1,8,0:2:0:0:
317,140,137449,1,10,0:1:0:0:
237,227,137592,6,2,P|177:254|105:223,1,140.399995715332,6|0,1:2|0:2,0:1:0:0:
47,183,138021,1,0,1:2:0:0:
95,21,138307,1,8,0:2:0:0:
263,77,138592,1,0,3:2:0:0:
263,77,138735,1,0,1:2:0:0:
263,77,138878,2,0,P|321:88|413:62,2,140.399995715332,2|0|8,0:2|1:2|0:2,0:0:0:0:
95,21,139735,5,0,3:2:0:0:
38,83,139878,2,2,P|15:149|19:220,1,140.399995715332,2|0,1:2|0:2,0:1:0:0:
53,295,140307,1,0,1:2:0:0:
203,370,140592,1,8,0:2:0:0:
364,324,140878,1,0,3:2:0:0:
364,324,141021,1,0,1:2:0:0:
364,324,141164,2,0,L|514:350,2,140.399995715332,2|0|8,0:2|1:2|0:2,0:0:0:0:
203,370,142021,5,8,0:2:0:0:
187,287,142164,2,2,B|194:239|194:239|214:217|214:217|225:135,1,140.399995715332,6|0,1:2|0:2,0:1:0:0:
203,72,142592,1,0,1:2:0:0:
362,18,142878,1,8,0:2:0:0:
501,112,143164,1,0,3:2:0:0:
501,112,143307,1,0,1:2:0:0:
501,112,143449,2,0,L|496:271,2,140.399995715332,2|0|8,0:2|1:2|0:2,0:0:0:0:
362,18,144307,5,0,3:2:0:0:
295,70,144449,2,2,B|259:91|259:91|144:70,1,140.399995715332,2|0,1:2|0:2,0:1:0:0:
79,56,144878,1,0,1:2:0:0:
14,211,145164,1,8,0:2:0:0:
125,350,145449,1,0,3:2:0:0:
125,350,145592,1,0,1:2:0:0:
125,350,145735,2,0,L|218:339,1,70.1999978576661,2|8,0:2|0:2,0:2:0:0:
289,384,146021,2,0,L|280:314,1,70.1999978576661,2|0,2:2|1:2,0:2:0:0:
356,237,146307,5,8,0:2:0:0:
432,287,146449,1,8,0:2:0:0:
509,235,146592,1,8,0:2:0:0:
432,185,146735,6,2,B|404:107|457:118|429:22,1,148.199996042633,6|0,1:2|0:2,0:1:0:0:
349,9,147164,1,0,1:2:0:0:
281,173,147449,1,8,0:2:0:0:
147,72,147735,1,0,3:2:0:0:
147,72,147878,1,0,1:2:0:0:
147,72,148021,2,0,L|-11:75,2,148.199996042633,2|0|8,0:2|1:2|0:2,0:0:0:0:
281,173,148878,5,8,0:2:0:0:
213,230,149021,2,2,B|150:259|150:259|71:225,1,148.199996042633,6|0,1:2|0:2,0:1:0:0:
1,180,149449,1,0,1:2:0:0:
82,22,149735,1,8,0:2:0:0:
258,47,150021,1,0,3:2:0:0:
258,47,150164,1,0,1:2:0:0:
258,47,150307,2,0,L|338:37,1,74.0999980213166,2|8,0:2|0:2,0:0:0:0:
404,139,150592,2,0,L|324:129,1,74.0999980213166,8|8,0:2|0:2,0:0:0:0:
247,232,150878,2,0,L|327:222,1,74.0999980213166,8|8,0:2|0:2,0:0:0:0:
428,276,151164,5,4,0:3:0:0:
428,276,151307,1,4,0:3:0:0:
349,349,151449,6,0,P|265:366|178:336,2,156,6|0|8,1:2|1:2|0:2,0:2:0:0:
512,228,152307,1,8,0:2:0:0:
512,228,152449,2,0,L|498:59,1,156,0|0,1:2|0:2,0:2:0:0:
414,16,152878,1,0,1:2:0:0:
254,140,153164,1,12,0:2:0:0:
254,140,153307,2,0,L|268:309,1,156,0|0,1:2|1:2,0:2:0:0:
197,354,153735,5,2,1:2:0:0:
185,352,153807,1,0,1:2:0:0:
173,350,153878,1,0,1:2:0:0:
162,348,153949,1,0,1:2:0:0:
150,347,154021,2,0,L|101:353,3,46.7999985717774,0|0|0|0,1:3|1:2|1:2|1:2,0:0:0:0:
38,312,154307,2,0,L|32:263,3,46.7999985717774,8|0|0|0,1:2|1:2|1:2|1:2,0:0:0:0:
61,191,154592,5,14,1:2:0:0:
62,180,154664,1,0,1:2:0:0:
64,168,154735,1,0,1:2:0:0:
66,157,154807,1,0,1:2:0:0:
68,144,154878,2,0,L|62:95,3,46.7999985717774,0|0|0|0,1:3|1:2|1:2|1:2,0:0:0:0:
115,31,155164,6,0,P|163:18|227:28,1,93.5999971435548,12|0,0:2|0:2,0:2:0:0:
311,83,155449,1,8,0:2:0:0:
214,157,155592,1,8,0:2:0:0:
311,228,155735,1,8,0:2:0:0:
424,157,155878,6,0,B|478:171|478:171|507:232|467:285,1,171.600005236817,6|0,1:1|1:2,0:2:0:0:
349,364,156307,2,0,P|395:359|447:364,1,85.8000026184083,8|0,0:2|0:2,0:0:0:0:
283,211,156592,2,0,P|285:253|280:296,1,85.8000026184083,2|0,1:2|1:2,0:0:0:0:
207,374,156878,1,8,0:2:0:0:
181,255,157021,6,0,B|69:232|125:302|10:278,1,171.600005236817,2|0,1:2|1:2,0:2:0:0:
107,157,157449,2,0,P|102:114|104:71,1,85.8000026184083,8|0,0:2|0:2,0:2:0:0:
281,10,157735,2,0,P|276:84|182:94,1,171.600005236817,2|8,1:2|0:2,0:2:0:0:
372,197,158164,6,0,P|377:271|471:281,1,171.600005236817,2|0,1:1|1:2,0:0:0:0:
427,128,158592,2,0,P|467:119|533:120,1,85.8000026184083,8|0,0:2|0:2,0:0:0:0:
289,169,158878,2,0,P|286:128|273:85,1,85.8000026184083,2|0,1:2|1:2,0:2:0:0:
194,8,159164,1,8,0:2:0:0:
81,96,159307,6,0,P|52:181|64:270,1,171.600005236817,2|0,1:2|1:2,0:2:0:0:
130,355,159735,2,0,P|87:356|46:365,1,85.8000026184083,8|0,0:2|0:2,0:2:0:0:
190,272,160021,1,2,1:2:0:0:
247,357,160164,1,0,1:2:0:0:
338,309,160307,1,8,0:2:0:0:
288,196,160449,6,0,B|289:168|307:140|307:140|302:111|302:111|325:83|327:20,1,171.600005236817,6|0,1:1|1:2,0:2:0:0:
387,205,160878,2,0,P|427:216|489:227,1,85.8000026184083,8|0,0:2|0:2,0:0:0:0:
417,65,161164,2,0,P|459:73|500:84,1,85.8000026184083,2|0,1:2|1:2,0:0:0:0:
331,119,161449,1,8,0:2:0:0:
238,17,161592,6,0,L|61:27,1,171.600005236817,2|0,1:2|1:2,0:2:0:0:
95,152,162021,2,0,L|1:157,1,85.8000026184083,8|0,0:2|0:2,0:2:0:0:
206,202,162307,2,0,P|198:155|206:109,1,85.8000026184083,2|0,1:2|1:2,0:2:0:0:
348,157,162592,2,0,P|353:199|345:241,1,85.8000026184083,8|0,0:2|1:2,0:2:0:0:
208,316,162878,5,2,0:2:0:0:
279,363,163021,2,0,L|375:352,1,85.8000026184083,0|8,1:2|0:2,0:0:0:0:
203,232,163307,5,2,0:2:0:0:
132,279,163449,2,0,L|36:268,1,85.8000026184083,0|0,1:2|1:2,0:0:0:0:
209,148,163735,5,10,0:2:0:0:
290,197,163878,1,2,1:1:0:0:
290,197,163949,1,0,1:2:0:0:
290,197,164021,2,0,L|386:186,1,85.8000026184083,0|0,1:2|1:2,0:2:0:0:
505,138,164307,2,0,P|498:182|492:233,1,85.8000026184083,8|0,0:2|0:2,0:2:0:0:
392,60,164592,5,2,1:1:0:0:
287,95,164735,1,0,1:2:0:0:
214,10,164878,1,8,0:2:0:0:
90,62,165021,6,0,P|54:146|81:249,1,171.600005236817,6|0,1:1|1:2,0:2:0:0:
252,169,165449,2,0,P|203:160|160:166,1,85.8000026184083,8|0,0:2|0:2,0:0:0:0:
169,302,165735,2,0,P|211:305|253:297,1,85.8000026184083,2|0,1:2|1:2,0:0:0:0:
315,373,166021,1,8,0:2:0:0:
443,314,166164,6,0,P|454:230|419:153,1,171.600005236817,2|0,1:2|1:2,0:2:0:0:
330,26,166592,2,0,L|422:19,1,85.8000026184083,8|0,0:2|0:2,0:2:0:0:
234,128,166878,2,0,L|57:114,1,171.600005236817,2|8,1:2|0:2,0:2:0:0:
183,268,167307,6,0,B|192:334|128:364|128:364|59:330,1,171.600005236817,2|0,1:1|1:2,0:0:0:0:
89,208,167735,2,0,L|-2:217,1,85.8000026184083,8|0,0:2|0:0,0:0:0:0:
160,116,168021,2,0,L|151:30,1,85.8000026184083,2|0,1:2|1:2,0:0:0:0:
276,116,168307,1,8,0:2:0:0:
398,40,168449,6,0,L|381:210,1,171.600005236817,2|0,1:2|1:2,0:2:0:0:
382,362,168878,2,0,P|419:347|483:338,1,85.8000026184083,10|0,0:2|0:2,0:0:0:0:
256,258,169164,2,0,P|271:295|280:359,1,85.8000026184083,2|0,1:2|1:2,0:0:0:0:
360,132,169449,2,0,P|322:147|259:156,1,85.8000026184083,10|0,0:2|0:2,0:0:0:0:
486,236,169735,6,0,B|447:158|507:168|462:55,1,171.600005236817,6|8,1:1|2:2,0:2:0:0:
397,4,170164,1,0,0:2:0:0:
319,57,170307,2,0,L|208:46,1,85.8000026184083,2|0,1:2|1:2,0:2:0:0:
233,48,170521,1,0,1:2:0:0:
233,48,170592,1,8,0:2:0:0:
99,19,170735,6,0,B|38:51|38:51|65:169,1,171.600005236817,2|0,1:2|1:2,0:2:0:0:
115,272,171164,2,0,P|72:273|31:285,1,85.8000026184083,8|0,0:2|0:0,0:2:0:0:
202,319,171449,2,0,P|224:355|255:384,1,85.8000026184083,0|0,1:2|1:2,0:0:0:0:
200,221,171735,2,0,P|219:183|230:141,1,85.8000026184083,10|0,0:2|0:2,0:2:0:0:
229,29,172021,5,6,1:1:0:0:
387,152,172307,1,8,0:2:0:0:
204,225,172592,5,2,1:1:0:0:
204,225,172735,1,0,1:2:0:0:
258,144,172878,1,8,0:2:0:0:
419,295,173164,6,0,P|462:288|509:289,1,85.8000026184083,10|8,0:1|0:2,0:0:0:0:
310,382,173449,2,0,P|309:339|301:297,1,85.8000026184083,10|8,0:1|0:2,0:0:0:0:
204,225,173735,5,10,0:1:0:0:
141,317,173878,1,8,0:2:0:0:
37,275,174021,1,8,0:2:0:0:
94,152,174164,6,0,B|123:93|62:28|62:28|37:101,1,187.19999428711,6|0,1:1|1:2,0:2:0:0:
207,93,174592,2,0,L|218:-7,1,93.5999971435548,8|0,0:2|0:2,0:0:0:0:
325,184,174878,2,0,L|336:84,1,93.5999971435548,2|0,1:2|1:2,0:0:0:0:
428,34,175164,1,8,0:2:0:0:
497,147,175307,6,0,L|476:333,1,187.19999428711,2|0,1:2|1:2,0:2:0:0:
294,271,175735,2,0,P|336:275|391:259,1,93.5999971435548,8|0,0:2|0:2,0:2:0:0:
254,126,176021,2,0,P|177:106|67:122,1,187.19999428711,2|8,1:2|0:2,0:2:0:0:
182,300,176449,6,0,P|90:315|0:294,1,187.19999428711,2|0,1:1|1:2,0:0:0:0:
134,215,176878,2,0,L|233:206,1,93.5999971435548,8|0,0:2|0:2,0:0:0:0:
110,35,177164,2,0,L|68:125,1,93.5999971435548,2|0,1:2|1:2,0:2:0:0:
172,125,177449,1,8,0:2:0:0:
227,8,177592,6,0,P|238:63|365:98,1,187.19999428711,2|0,1:2|1:2,0:2:0:0:
413,210,178021,2,0,P|458:199|504:202,1,93.5999971435548,8|0,0:2|0:2,0:0:0:0:
354,296,178307,1,2,1:2:0:0:
296,210,178449,1,0,1:2:0:0:
217,276,178592,1,8,0:2:0:0:
137,183,178735,6,0,B|94:164|94:164|40:172|13:218|40:269,1,187.19999428711,6|0,1:1|1:2,0:2:0:0:
125,381,179164,2,0,P|122:339|137:281,1,93.5999971435548,8|0,0:2|0:2,0:0:0:0:
312,255,179449,2,0,P|323:300|320:346,1,93.5999971435548,2|0,1:2|1:2,0:0:0:0:
220,215,179735,1,8,0:2:0:0:
381,200,179878,6,0,P|397:90|359:7,1,187.19999428711,2|0,1:2|1:2,0:2:0:0:
194,124,180307,2,0,L|295:120,1,93.5999971435548,8|0,0:2|0:2,0:2:0:0:
64,18,180592,2,0,L|165:14,1,93.5999971435548,2|0,1:2|1:2,0:2:0:0:
27,201,180878,2,0,L|128:197,1,93.5999971435548,8|0,0:2|1:2,0:2:0:0:
256,297,181164,5,2,0:1:0:0:
191,365,181307,2,0,P|155:367|93:349,1,93.5999971435548,0|8,1:2|0:2,0:0:0:0:
283,207,181592,5,2,0:1:0:0:
348,275,181735,2,0,P|384:277|446:259,1,93.5999971435548,0|0,1:2|1:2,0:0:0:0:
257,117,182021,5,10,0:2:0:0:
192,185,182164,2,0,P|156:187|94:169,1,93.5999971435548,2|0,1:1|0:2,0:2:0:0:
284,27,182449,5,10,0:2:0:0:
348,95,182592,1,10,0:1:0:0:
374,5,182735,1,8,0:2:0:0:
261,121,182878,5,10,0:1:0:0:
352,99,183021,1,8,0:2:0:0:
288,31,183164,1,8,0:2:0:0:
328,194,183307,6,0,P|374:239|510:227,1,187.19999428711,6|0,1:1|1:2,0:2:0:0:
343,366,183735,2,0,P|395:346|454:351,1,93.5999971435548,8|0,0:2|0:2,0:0:0:0:
267,255,184021,2,0,P|269:296|256:356,1,93.5999971435548,2|0,1:2|1:2,0:0:0:0:
161,384,184307,1,8,0:2:0:0:
31,312,184449,6,0,P|24:220|72:119,1,187.19999428711,2|0,1:2|1:2,0:2:0:0:
181,38,184878,2,0,P|136:21|76:21,1,93.5999971435548,8|0,0:2|0:2,0:2:0:0:
200,165,185164,2,0,B|310:174|252:106|372:108,1,187.19999428711,2|8,1:2|0:2,0:2:0:0:
412,254,185592,6,0,P|496:281|512:369,1,187.19999428711,2|0,1:1|1:2,0:0:0:0:
314,316,186021,2,0,L|326:214,1,93.5999971435548,8|0,0:2|0:2,0:0:0:0:
180,384,186307,2,0,L|192:282,1,93.5999971435548,2|0,1:2|0:0,0:2:0:0:
74,340,186592,1,8,0:2:0:0:
10,198,186735,6,0,B|34:266|110:255|110:255|125:221|174:206,1,187.19999428711,2|0,1:2|1:2,0:2:0:0:
277,63,187164,2,0,P|230:55|182:44,1,93.5999971435548,10|0,0:2|0:2,0:0:0:0:
254,228,187449,2,0,P|284:191|317:155,1,93.5999971435548,2|0,1:2|1:2,0:0:0:0:
122,125,187735,2,0,P|138:169|153:216,1,93.5999971435548,10|0,0:2|0:2,0:0:0:0:
219,141,188021,6,0,P|328:142|390:71,1,187.19999428711,6|8,1:1|0:2,0:2:0:0:
440,6,188449,1,0,0:2:0:0:
506,85,188592,2,0,L|494:192,1,93.5999971435548,2|0,1:2|1:2,0:2:0:0:
495,178,188807,1,0,1:2:0:0:
495,178,188878,1,8,0:2:0:0:
481,283,189021,6,0,P|410:225|319:233,1,187.19999428711,2|0,1:2|1:2,0:2:0:0:
204,291,189449,2,0,L|217:392,1,93.5999971435548,8|0,0:2|0:2,0:2:0:0:
58,249,189735,2,0,L|71:350,1,93.5999971435548,0|0,1:2|0:2,0:2:0:0:
208,195,190021,2,0,P|157:187|104:163,1,93.5999971435548,10|0,0:2|0:2,0:2:0:0:
0,95,190307,5,14,0:2:0:0:
0,95,190449,2,0,P|73:94|154:51,1,156,0|0,1:2|1:2,0:2:0:0:
385,49,190878,5,14,0:2:0:0:
385,49,191021,2,0,P|312:48|231:5,1,156,0|0,1:2|1:2,0:2:0:0:
208,195,191449,6,0,P|206:151|220:93,1,93.5999971435548,10|8,0:1|0:2,0:0:0:0:
397,188,191735,2,0,P|398:234|388:280,1,93.5999971435548,10|8,0:1|0:2,0:0:0:0:
225,370,192021,5,10,0:1:0:0:
123,297,192164,1,8,0:2:0:0:
9,348,192307,1,8,0:2:0:0:
144,283,192449,6,0,B|175:257|175:257|190:184|137:138,1,171.600005236817,6|0,1:1|1:2,0:2:0:0:
29,47,192878,2,0,P|21:93|0:161,1,85.8000026184083,8|0,0:2|0:2,0:2:0:0:
138,18,193164,1,2,1:2:0:0:
233,57,193307,1,0,1:2:0:0:
329,22,193449,1,8,0:2:0:0:
436,62,193592,6,0,P|461:116|442:240,1,171.600005236817,2|0,1:2|1:2,0:2:0:0:
427,340,194021,2,0,P|477:337|522:326,1,85.8000026184083,8|0,0:2|0:2,0:2:0:0:
316,284,194307,1,2,1:2:0:0:
316,284,194449,2,0,P|307:332|309:379,1,85.8000026184083,0|8,1:2|0:2,0:2:0:0:
458,232,194735,5,2,1:1:0:0:
458,232,194807,1,0,1:2:0:0:
458,232,194878,2,0,P|457:189|450:147,1,85.8000026184083,0|0,1:2|1:2,0:2:0:0:
290,119,195164,1,8,0:2:0:0:
365,2,195307,2,0,P|372:44|373:87,1,85.8000026184083,2|0,0:2|1:2,0:2:0:0:
203,97,195592,2,0,P|195:54|194:11,1,85.8000026184083,0|8,1:2|0:2,0:2:0:0:
299,144,195878,6,0,P|316:220|282:331,1,171.600005236817,2|0,1:2|1:2,0:2:0:0:
72,215,196307,2,0,L|159:207,1,85.8000026184083,8|0,0:2|0:2,0:0:0:0:
87,379,196592,1,2,1:2:0:0:
87,379,196735,2,0,L|174:371,1,85.8000026184083,0|8,1:2|0:2,0:0:0:0:
128,294,197021,6,0,B|248:272|196:324|297:309,1,171.600005236817,6|0,1:1|1:2,0:2:0:0:
444,289,197449,2,0,L|436:374,1,85.8000026184083,8|0,0:2|0:2,0:2:0:0:
361,227,197735,1,2,1:2:0:0:
451,178,197878,1,0,1:2:0:0:
382,100,198021,1,8,0:2:0:0:
266,152,198164,6,0,B|155:158|219:103|104:107,1,171.600005236817,2|0,1:2|1:2,0:2:0:0:
0,28,198592,2,0,P|46:26|99:15,1,85.8000026184083,8|0,0:2|0:2,0:0:0:0:
85,201,198878,1,2,1:2:0:0:
85,201,199021,2,0,P|42:193|0:191,1,85.8000026184083,0|8,1:2|0:2,0:2:0:0:
202,99,199307,5,2,1:1:0:0:
202,99,199378,1,0,1:2:0:0:
202,99,199449,2,0,P|244:91|287:89,1,85.8000026184083,0|0,1:2|1:2,0:0:0:0:
372,146,199735,1,8,0:2:0:0:
288,269,199878,2,0,P|280:227|281:183,1,85.8000026184083,2|0,0:2|1:2,0:2:0:0:
459,188,200164,2,0,P|460:231|452:273,1,85.8000026184083,0|8,1:2|0:2,0:2:0:0:
370,231,200449,6,0,B|301:220|301:220|282:228|282:228|165:210,1,171.600005236817,2|0,1:2|1:2,0:2:0:0:
61,234,200878,1,8,0:2:0:0:
121,154,201021,1,2,1:2:0:0:
121,154,201092,1,0,1:2:0:0:
121,154,201164,1,8,0:2:0:0:
140,294,201307,1,2,1:2:0:0:
201,215,201449,1,8,0:2:0:0:
255,336,201592,6,0,B|335:368|335:368|442:325,1,171.600005236817,6|0,1:1|1:2,0:2:0:0:
512,235,202021,2,0,L|507:146,1,85.8000026184083,8|0,0:2|0:2,0:2:0:0:
394,64,202307,1,2,1:2:0:0:
354,159,202449,1,0,1:2:0:0:
267,103,202592,1,8,0:2:0:0:
201,215,202735,6,0,P|169:280|61:265,1,171.600005236817,2|0,1:2|1:2,0:2:0:0:
111,141,203164,2,0,L|21:145,1,85.8000026184083,8|0,0:2|0:2,0:0:0:0:
216,89,203449,1,2,1:2:0:0:
216,89,203592,2,0,L|212:-1,1,85.8000026184083,0|8,1:2|0:2,0:0:0:0:
361,137,203878,5,2,1:1:0:0:
361,137,203949,1,0,1:1:0:0:
361,137,204021,2,0,L|365:47,1,85.8000026184083,0|0,1:2|1:2,0:2:0:0:
203,115,204307,2,0,L|207:201,1,85.8000026184083,8|0,0:2|0:2,0:2:0:0:
155,292,204592,1,2,1:2:0:0:
155,292,204735,1,0,1:2:0:0:
222,370,204878,1,8,0:2:0:0:
331,292,205021,6,0,B|438:271|393:328|504:315,1,171.600005236817,2|0,1:2|1:2,0:2:0:0:
399,179,205449,1,8,0:2:0:0:
483,151,205592,2,0,P|484:195|473:236,1,85.8000026184083,2|0,0:2|1:2,0:2:0:0:
312,206,205878,2,0,P|311:163|321:122,1,85.8000026184083,0|8,1:2|0:2,0:2:0:0:
412,46,206164,6,0,L|234:19,1,156,6|0,1:2|1:2,0:2:0:0:
206,81,206592,1,8,0:2:0:0:
56,53,206878,1,0,1:2:0:0:
56,53,207021,1,0,1:2:0:0:
5,112,207164,1,8,0:2:0:0:
25,187,207307,6,0,P|104:211|189:183,1,156,2|0,1:2|1:2,0:2:0:0:
229,139,207735,1,8,0:2:0:0:
284,306,208021,1,0,1:2:0:0:
284,306,208164,1,0,1:2:0:0:
351,345,208307,1,8,0:2:0:0:
423,315,208449,6,0,P|445:234|421:152,1,156,6|0,1:2|1:2,0:2:0:0:
336,54,208878,2,0,L|445:41,1,85.8000026184083,8|0,0:2|1:2,0:0:0:0:
264,217,209164,2,0,L|373:204,1,85.8000026184083,10|0,0:2|1:2,0:0:0:0:
142,19,209449,2,0,L|251:6,1,85.8000026184083,8|0,0:2|1:2,0:0:0:0:
119,193,209735,5,10,0:2:0:0:
119,193,209878,1,8,0:2:0:0:
14,178,210021,5,10,0:2:0:0:
14,178,210164,1,8,0:2:0:0:
77,110,210307,5,10,0:2:0:0:
55,260,210449,1,8,0:2:0:0:
187,275,210592,1,8,0:2:0:0:
248,343,210735,6,0,B|266:362|297:371|297:371|340:315|391:310|455:335|455:335|296:277|182:70|350:-112|523:-8|503:143|427:198,1,889.2,6|0,1:2|0:2,0:2:0:0:
