osu file format v14

[General]
AudioFilename: audio.mp3
AudioLeadIn: 0
PreviewTime: 50718
Countdown: 0
SampleSet: Soft
StackLeniency: 0.7
Mode: 0
LetterboxInBreaks: 0
WidescreenStoryboard: 1

[Editor]
Bookmarks: 9593,18735,23307,27878,37021,46307,50735,59878,69021,73593,78164,87307,96593,101021,110164,119307,128450,128593,137593,146878,155878,165021,174164,183307,185950,192450,201593,206164,210735,218878
DistanceSpacing: 1
BeatDivisor: 4
GridSize: 32
TimelineZoom: 2.199999

[Metadata]
Title:Control
TitleUnicode:Control
Artist:jAcKp*TrASH feat. AiCA
ArtistUnicode:jAcKp☆TrASH feat. AiCA
Creator:Lasse
Version:Normal
Source:CHU×ペット
Tags:japanese rock visual novel opening chu x pet eroge gwave jackpotrash aurora SHOW mikemike TAKUYA hishiro chizuru amb1d3x
BeatmapID:3424731
BeatmapSetID:1676042

[Difficulty]
HPDrainRate:3
CircleSize:3.4
OverallDifficulty:5
ApproachRate:6
SliderMultiplier:0.999999999999999
SliderTickRate:1

[Events]
//Background and Video events
0,0,"rf534645.jpg",0,0
//Break Periods
//Storyboard Layer 0 (Background)
//Storyboard Layer 1 (Fail)
//Storyboard Layer 2 (Pass)
//Storyboard Layer 3 (Foreground)
//Storyboard Layer 4 (Overlay)
//Storyboard Sound Samples

[TimingPoints]
593,285.714285714286,4,2,1,60,1,0
8164,-100,4,2,2,65,0,0
9593,-100,4,2,1,70,0,0
14164,-100,4,2,2,70,0,0
14235,-100,4,2,1,70,0,0
23307,-105.263157894737,4,2,2,60,0,0
23450,-105.263157894737,4,2,1,60,0,0
25593,-105.263157894737,4,2,2,60,0,0
25735,-105.263157894737,4,2,1,60,0,0
26878,-105.263157894737,4,2,2,60,0,0
27021,-105.263157894737,4,2,1,60,0,0
27878,276.497695852535,4,2,1,65,1,0
27878,-100,4,2,1,65,0,0
28293,285.714285714286,4,2,1,65,1,0
29150,285.714285714286,4,2,1,65,1,0
32578,285.714285714286,4,2,1,65,1,0
45006,295.566502463054,4,2,1,65,1,0
45450,285.714285714286,4,2,1,65,1,0
46307,285.714285714286,4,2,1,60,1,0
46307,-111.111111111111,4,2,1,60,0,0
47450,-111.111111111111,4,2,1,60,0,0
48593,-111.111111111111,4,2,1,60,0,0
49164,-111.111111111111,4,2,1,40,0,0
49235,-111.111111111111,4,2,1,30,0,0
50235,-111.111111111111,4,2,1,5,0,0
50307,-100,4,2,1,60,0,0
50735,-90.9090909090909,4,2,1,72,0,1
55307,-90.9090909090909,4,2,2,72,0,1
55450,-90.9090909090909,4,2,1,72,0,1
59807,-90.9090909090909,4,2,1,72,0,0
59878,-90.9090909090909,4,2,1,72,0,1
64593,-90.9090909090909,4,2,2,72,0,1
64735,-90.9090909090909,4,2,1,72,0,1
66878,-90.9090909090909,4,2,2,72,0,1
66950,-90.9090909090909,4,2,1,72,0,1
69021,-100,4,2,1,70,0,0
73593,-105.263157894737,4,2,2,60,0,0
73735,-105.263157894737,4,2,1,60,0,0
75878,-105.263157894737,4,2,2,60,0,0
76021,-105.263157894737,4,2,1,60,0,0
77164,-105.263157894737,4,2,2,60,0,0
77307,-105.263157894737,4,2,1,60,0,0
78164,-100,4,2,1,65,0,0
82735,-100,4,2,2,65,0,0
82878,-100,4,2,1,65,0,0
91878,-100,4,2,2,65,0,0
92021,-100,4,2,1,65,0,0
95307,-100,4,2,2,65,0,0
95378,-100,4,2,1,65,0,0
96593,-111.111111111111,4,2,1,60,0,0
97735,-111.111111111111,4,2,1,60,0,0
98878,-111.111111111111,4,2,1,60,0,0
99021,-111.111111111111,4,2,1,50,0,0
99878,-111.111111111111,4,2,1,40,0,0
100021,-100,4,2,1,64,0,0
101021,-90.9090909090909,4,2,1,72,0,1
105593,-90.9090909090909,4,2,2,72,0,1
105735,-90.9090909090909,4,2,1,72,0,1
110092,-90.9090909090909,4,2,1,72,0,0
110164,-90.9090909090909,4,2,1,72,0,1
114878,-90.9090909090909,4,2,2,72,0,1
115021,-90.9090909090909,4,2,1,72,0,1
117164,-90.9090909090909,4,2,2,72,0,1
117235,-90.9090909090909,4,2,1,72,0,1
119307,-90.9090909090909,4,2,2,74,0,0
119450,-90.9090909090909,4,2,1,74,0,0
130735,-90.9090909090909,4,2,1,72,0,0
133021,-90.9090909090909,4,2,1,74,0,0
135450,-90.9090909090909,4,2,2,74,0,0
137593,-111.111111111111,4,2,1,62,0,0
146735,-105.263157894737,4,2,1,64,0,0
151450,-100,4,2,1,66,0,0
153735,-83.3333333333333,4,2,1,68,0,0
154593,-83.3333333333333,4,2,1,70,0,0
155307,-83.3333333333333,4,2,1,60,0,0
155450,-83.3333333333333,4,2,1,70,0,0
155878,-90.9090909090909,4,2,1,72,0,1
160450,-90.9090909090909,4,2,2,72,0,1
160593,-90.9090909090909,4,2,1,72,0,1
164949,-90.9090909090909,4,2,1,72,0,0
165021,-90.9090909090909,4,2,1,72,0,1
169735,-90.9090909090909,4,2,2,72,0,1
169878,-90.9090909090909,4,2,1,72,0,1
172021,-90.9090909090909,4,2,2,72,0,1
172093,-90.9090909090909,4,2,1,72,0,1
173164,-90.9090909090909,4,2,3,72,0,1
173235,-90.9090909090909,4,2,1,72,0,1
174092,-90.9090909090909,4,2,1,72,0,0
174164,-90.9090909090909,4,2,1,74,0,1
178735,-90.9090909090909,4,2,2,74,0,1
178878,-90.9090909090909,4,2,1,74,0,1
183235,-90.9090909090909,4,2,1,74,0,0
183307,-90.9090909090909,4,2,1,74,0,1
188021,-90.9090909090909,4,2,2,74,0,1
188164,-90.9090909090909,4,2,1,74,0,1
190307,-100,4,2,1,70,0,1
191450,-90.9090909090909,4,2,1,72,0,1
192021,-90.9090909090909,4,2,1,74,0,1
192449,-100,4,2,1,70,0,0
197021,-100,4,2,2,70,0,0
197164,-100,4,2,1,70,0,0
206164,-100,4,2,1,60,0,0
208450,-100,4,2,1,62,0,0
209735,-100,4,2,1,64,0,0
210021,-100,4,2,1,66,0,0
210307,-100,4,2,1,68,0,0
210735,-490.196078431372,4,2,2,60,0,0
210878,-490.196078431372,4,2,1,30,0,0
212021,-490.196078431372,4,2,1,25,0,0
213164,-490.196078431372,4,2,1,20,0,0
214307,-490.196078431372,4,2,1,15,0,0
215450,-490.196078431372,4,2,1,10,0,0
216593,-490.196078431372,4,2,71,5,0,0

[Colours]
Combo1 : 240,140,140
Combo2 : 200,180,220
Combo3 : 240,200,155
Combo4 : 150,185,220

[HitObjects]
76,95,593,5,10,1:1:0:0:
76,95,735,1,8,1:2:0:0:
107,312,1450,1,10,1:1:0:0:
107,312,1593,1,8,1:2:0:0:
436,95,2878,5,10,1:1:0:0:
436,95,3021,1,8,1:2:0:0:
405,312,3735,1,10,1:1:0:0:
405,312,3878,1,8,1:2:0:0:
130,55,5164,5,10,1:1:0:0:
130,55,5307,1,8,1:2:0:0:
358,41,6021,1,10,1:1:0:0:
358,41,6164,1,8,1:2:0:0:
147,323,7450,5,10,1:1:0:0:
147,323,7593,1,8,1:2:0:0:
324,355,8164,2,0,B|363:350|363:350|372:343|372:343|433:335,1,99.9999999999999,14|10,1:1|1:1,0:2:0:0:
421,337,9593,6,0,P|437:271|407:192,1,150,6|8,1:1|0:2,0:1:0:0:
323,144,10307,2,0,L|207:157,1,99.9999999999999,2|8,1:2|0:2,0:0:0:0:
189,192,10735,2,0,B|169:229|169:229|103:247|66:194,1,150,2|8,1:2|0:2,0:2:0:0:
15,124,11450,1,2,1:2:0:0:
15,124,11593,1,0,0:0:0:0:
82,49,11878,6,0,L|247:40,1,150,2|8,1:1|0:2,0:0:0:0:
324,79,12593,2,0,P|342:114|320:185,1,99.9999999999999,2|8,1:2|0:2,0:2:0:0:
294,205,13021,2,0,L|144:196,1,150,2|8,1:2|0:2,0:2:0:0:
65,258,13735,1,2,1:2:0:0:
65,258,13878,1,0,1:2:0:0:
125,337,14164,6,0,P|205:353|267:313,1,150,6|8,1:1|0:2,0:2:0:0:
303,229,14878,2,0,L|312:116,1,99.9999999999999,2|8,1:2|0:2,0:0:0:0:
341,88,15307,2,0,B|374:56|374:56|435:60|459:110,1,150,2|8,1:2|0:2,0:2:0:0:
491,207,16021,1,2,1:2:0:0:
491,207,16164,1,0,1:2:0:0:
426,283,16450,6,0,B|364:278|364:278|351:286|351:286|263:279,1,150,2|8,1:1|0:2,0:0:0:0:
204,348,17164,2,0,L|89:339,1,99.9999999999999,0|8,1:2|0:2,0:0:0:0:
58,361,17593,2,0,B|34:318|57:274|57:274|42:210,1,150,2|8,1:2|0:2,0:2:0:0:
15,125,18307,1,2,1:2:0:0:
15,125,18450,1,8,0:2:0:0:
81,50,18735,6,0,B|168:22|143:91|240:57,1,150,6|8,1:1|0:2,0:2:0:0:
324,77,19450,2,0,P|372:62|437:76,1,99.9999999999999,2|8,1:2|0:2,0:0:0:0:
458,101,19878,2,0,L|465:255,1,150,2|8,1:2|0:2,0:2:0:0:
431,345,20593,1,2,1:2:0:0:
431,345,20735,1,0,0:0:0:0:
333,367,21021,6,0,B|282:354|282:354|247:370|247:370|177:355,1,150,2|8,1:1|0:2,0:0:0:0:
114,288,21735,2,0,P|112:235|142:185,1,99.9999999999999,2|8,1:2|0:2,0:0:0:0:
173,164,22164,2,0,L|329:148,1,150,2|8,1:2|0:2,0:2:0:0:
405,91,22878,1,10,0:2:0:0:
405,91,23021,1,0,1:2:0:0:
327,29,23307,6,0,L|182:43,1,142.499996194839,6|0,1:1|1:2,0:2:0:0:
92,23,24021,1,8,0:2:0:0:
71,115,24307,1,2,0:2:0:0:
163,137,24593,2,0,L|261:126,1,94.9999974632263,2|0,0:1|1:2,0:2:0:0:
300,147,25021,1,2,0:2:0:0:
343,231,25307,1,0,1:2:0:0:
286,307,25593,6,0,P|224:330|143:313,1,142.499996194839,6|0,1:1|1:2,0:2:0:0:
61,283,26307,1,8,0:2:0:0:
54,188,26593,1,2,0:2:0:0:
113,113,26878,2,0,B|155:106|155:106|163:110|163:110|210:102,1,94.9999974632263,14|8,0:1|0:2,0:0:0:0:
252,111,27307,1,2,1:2:0:0:
324,50,27593,1,8,0:2:0:0:
426,78,27878,6,2,P|451:147|427:217,1,150,6|8,1:2|0:2,0:1:0:0:
316,359,28864,1,8,0:2:0:0:
138,334,29435,1,8,0:2:0:0:
70,167,30007,1,8,0:2:0:0:
70,167,30150,2,2,B|60:78|60:78|78:49|128:48,1,150,2|8,1:2|0:2,0:1:0:0:
194,214,31150,1,8,0:2:0:0:
194,214,31292,2,2,B|184:303|184:303|202:332|252:333,1,150,2|8,1:2|0:2,0:1:0:0:
358,200,32292,5,8,0:2:0:0:
358,200,32435,2,2,B|348:111|348:111|366:82|416:81,1,150,2|8,1:2|0:2,0:1:0:0:
494,234,33435,1,8,0:2:0:0:
380,373,34006,1,8,0:2:0:0:
212,307,34578,1,8,0:2:0:0:
212,307,34720,2,2,B|226:256|226:256|221:231|221:231|242:155,1,150,2|8,1:2|0:2,0:1:0:0:
105,42,35720,1,8,0:2:0:0:
105,42,35863,2,2,B|66:28|66:28|0:55|18:130,1,150,2|8,1:2|0:2,0:1:0:0:
42,210,36578,2,0,B|93:222|93:222|149:183,1,99.9999999999999,0|8,1:2|0:2,0:0:0:0:
172,165,37006,6,2,P|178:107|274:83,1,150,6|8,1:2|0:2,0:1:0:0:
425,135,38006,1,8,0:2:0:0:
414,314,38578,1,8,0:2:0:0:
241,364,39149,1,8,0:2:0:0:
241,364,39292,2,2,B|160:338|160:338|126:362|75:346,1,150,2|8,1:2|0:2,0:1:0:0:
13,198,40292,1,8,0:2:0:0:
13,198,40435,2,2,B|3:109|3:109|21:80|71:79,1,150,2|8,0:2|0:2,0:1:0:0:
233,42,41435,5,8,0:2:0:0:
233,42,41578,2,2,B|260:52|294:28|294:28|375:54,1,150,2|8,1:2|0:2,0:1:0:0:
498,184,42578,1,8,0:2:0:0:
349,286,43149,1,8,0:2:0:0:
225,155,43720,1,8,0:2:0:0:
225,155,43863,2,2,B|189:124|189:124|132:114|87:159,1,150,2|8,1:2|0:2,0:1:0:0:
28,322,44863,1,8,0:2:0:0:
28,322,45006,2,2,B|64:353|64:353|121:363|166:318,1,150,2|8,0:2|0:2,0:1:0:0:
235,260,45735,1,8,0:2:0:0:
210,168,46021,1,4,0:3:0:0:
280,89,46307,6,0,P|373:70|466:93,1,179.999994506836,6|8,1:2|0:2,0:2:0:0:
447,273,47450,2,0,P|354:292|261:269,1,179.999994506836,6|8,1:2|0:2,0:2:0:0:
134,149,48593,2,0,B|81:131|81:131|3:166|29:241,1,179.999994506836,6|0,1:2|0:2,0:2:0:0:
25,228,50307,6,0,P|52:222|84:224,1,50,8|0,0:2|1:2,0:2:0:0:
146,299,50735,6,0,P|166:339|284:349,1,165.0000050354,6|8,1:1|0:2,0:1:0:0:
378,315,51450,1,2,1:2:0:0:
446,230,51735,1,8,0:2:0:0:
446,230,51878,2,0,B|437:191|437:191|443:163|443:163|432:100,1,110.000003356934,2|0,1:2|1:2,0:2:0:0:
419,69,52307,1,8,0:2:0:0:
317,27,52593,1,2,1:2:0:0:
254,118,52878,1,8,0:2:0:0:
254,118,53021,2,0,B|217:196|293:201|256:289,1,165.0000050354,2|8,1:1|0:2,0:0:0:0:
193,364,53735,5,2,1:2:0:0:
99,316,54021,1,8,0:2:0:0:
99,316,54164,2,0,P|86:266|104:189,1,110.000003356934,2|0,1:2|1:2,0:2:0:0:
132,168,54593,1,8,0:2:0:0:
232,125,54878,1,2,1:2:0:0:
335,175,55164,1,8,0:2:0:0:
335,175,55307,2,0,B|371:191|371:191|435:167|414:86,1,165.0000050354,6|8,1:1|0:2,0:2:0:0:
344,15,56021,5,2,1:2:0:0:
258,82,56307,1,8,0:2:0:0:
258,82,56450,2,0,B|231:97|202:94|202:94|184:73|146:68,1,110.000003356934,2|0,1:2|1:2,0:2:0:0:
102,70,56878,1,8,0:2:0:0:
24,147,57164,1,2,1:2:0:0:
24,256,57450,1,8,0:2:0:0:
101,333,57735,6,0,P|151:339|215:304,1,110.000003356934,2|8,0:2|0:2,0:0:0:0:
257,331,58164,2,0,P|306:307|360:313,1,110.000003356934,2|0,0:2|1:2,0:0:0:0:
407,341,58593,1,10,0:2:0:0:
407,341,58735,2,0,B|452:356|452:356|503:314|482:235,1,165.0000050354,2|8,1:1|0:2,0:0:0:0:
406,171,59450,2,0,L|292:186,1,110.000003356934,2|8,1:1|0:2,0:0:0:0:
257,223,59878,6,0,B|191:214|191:214|170:229|170:229|86:218,1,165.0000050354,6|8,1:1|0:2,0:2:0:0:
16,145,60593,1,2,1:2:0:0:
70,51,60878,1,8,0:2:0:0:
70,51,61021,2,0,P|110:37|184:46,1,110.000003356934,2|0,1:2|1:2,0:2:0:0:
225,69,61450,1,8,0:2:0:0:
325,23,61735,1,2,1:2:0:0:
429,70,62021,1,8,0:2:0:0:
429,70,62164,2,0,P|450:107|446:232,1,165.0000050354,2|8,1:1|0:2,0:0:0:0:
392,320,62878,5,2,1:2:0:0:
306,259,63164,1,8,0:2:0:0:
306,259,63307,2,0,B|292:215|292:215|296:194|296:194|279:136,1,110.000003356934,2|0,1:2|1:2,0:2:0:0:
265,101,63735,1,10,0:2:0:0:
193,17,64021,1,2,1:2:0:0:
83,33,64307,1,10,0:2:0:0:
14,118,64593,6,0,P|5:166|25:241,1,110.000003356934,6|8,1:1|0:2,0:2:0:0:
85,311,65164,2,0,P|138:319|192:308,1,110.000003356934,2|8,1:2|0:2,0:2:0:0:
246,318,65593,2,0,B|294:310|294:310|318:369|392:361,1,165.0000050354,2|8,1:2|0:2,0:2:0:0:
492,324,66307,1,0,1:2:0:0:
512,217,66593,1,10,0:2:0:0:
449,126,66878,6,0,P|404:117|338:130,1,110.000003356934,6|8,1:1|0:2,0:0:0:0:
268,211,67450,2,0,P|214:222|160:213,1,110.000003356934,2|8,1:1|0:2,0:0:0:0:
63,161,68021,1,10,0:1:0:0:
82,53,68307,1,10,0:1:0:0:
190,37,68593,1,10,0:1:0:0:
238,134,68878,5,8,0:2:0:0:
238,134,69021,2,0,B|292:143|292:143|327:111|381:114,1,150,6|8,1:1|0:2,0:2:0:0:
461,172,69735,2,0,P|474:221|457:280,1,99.9999999999999,2|8,1:2|0:2,0:0:0:0:
442,315,70164,2,0,B|390:306|390:306|362:322|362:322|297:313,1,150,2|8,1:2|0:2,0:2:0:0:
217,371,70878,1,2,1:2:0:0:
217,371,71021,1,0,0:0:0:0:
134,315,71307,6,0,P|121:239|162:177,1,150,2|8,1:1|0:2,0:0:0:0:
257,168,72021,2,0,L|378:190,1,99.9999999999999,2|8,1:2|0:2,0:0:0:0:
398,211,72450,2,0,P|436:148|422:76,1,150,2|8,1:2|0:2,0:2:0:0:
353,11,73164,1,2,1:2:0:0:
353,11,73307,1,0,1:2:0:0:
278,72,73593,6,0,B|260:88|241:95|241:95|132:81,1,142.499996194839,6|0,1:1|1:2,0:2:0:0:
49,67,74307,1,8,0:2:0:0:
36,161,74593,1,2,0:2:0:0:
130,176,74878,2,0,L|238:191,1,94.9999974632263,2|0,0:1|1:2,0:2:0:0:
271,195,75307,1,2,0:2:0:0:
352,145,75593,1,0,0:2:0:0:
432,194,75878,6,0,P|448:228|424:332,1,142.499996194839,6|0,1:1|1:2,0:2:0:0:
341,367,76593,1,8,0:2:0:0:
257,321,76878,1,2,0:2:0:0:
166,350,77164,2,0,B|122:361|122:361|68:339,1,94.9999974632263,14|10,0:1|0:2,0:0:0:0:
31,324,77593,1,8,0:3:0:0:
5,232,77878,1,8,0:2:0:0:
68,154,78164,6,0,P|145:139|217:172,1,150,6|8,1:2|0:2,0:1:0:0:
286,236,78878,1,2,1:2:0:0:
286,236,79021,1,0,1:2:0:0:
376,193,79307,2,0,P|399:140|390:80,1,99.9999999999999,2|0,1:2|1:2,0:0:0:0:
375,53,79735,1,8,0:2:0:0:
283,12,80021,1,2,1:2:0:0:
205,74,80307,1,8,0:2:0:0:
109,36,80593,6,0,B|86:27|86:27|41:38|43:79,1,99.9999999999999,2|8,2:0|0:2,0:0:0:0:
8,114,81021,2,0,L|37:213,1,99.9999999999999,2|0,0:2|1:2,0:0:0:0:
24,261,81450,1,8,0:2:0:0:
24,261,81593,2,0,B|110:235|84:299|185:277,1,150,2|8,1:1|0:2,0:0:0:0:
260,243,82307,2,0,L|277:140,1,99.9999999999999,0|8,1:2|0:2,0:0:0:0:
308,106,82735,6,0,P|392:90|456:133,1,150,6|8,1:1|0:2,0:2:0:0:
491,214,83450,1,2,1:2:0:0:
491,214,83593,1,0,1:2:0:0:
433,296,83878,2,0,P|397:314|320:295,1,99.9999999999999,2|0,1:2|1:2,0:0:0:0:
291,291,84307,1,8,0:2:0:0:
223,217,84593,1,2,1:2:0:0:
275,131,84878,1,8,0:2:0:0:
215,50,85164,6,0,P|169:30|121:38,1,99.9999999999999,2|8,2:2|0:2,0:2:0:0:
85,74,85593,2,0,L|61:184,1,99.9999999999999,2|0,0:2|1:2,0:0:0:0:
37,215,86021,1,8,0:2:0:0:
37,215,86164,2,0,B|52:261|41:322|41:322|51:346|85:359,1,150,2|8,1:1|0:2,0:0:0:0:
116,368,86735,1,2,1:1:0:0:
185,296,87021,1,8,0:2:0:0:
265,354,87307,6,0,B|304:373|304:373|358:374|420:347,1,150,6|8,1:1|0:2,0:2:0:0:
477,280,88021,2,0,P|488:229|473:171,1,99.9999999999999,2|8,1:2|0:2,0:0:0:0:
446,144,88450,2,0,L|338:133,1,99.9999999999999,2|0,1:2|1:2,0:0:0:0:
297,126,88878,1,8,0:2:0:0:
249,214,89164,1,2,1:2:0:0:
149,227,89450,1,8,0:2:0:0:
74,160,89735,6,0,P|70:110|87:64,1,99.9999999999999,2|8,0:2|0:2,0:0:0:0:
125,31,90164,2,0,L|242:23,1,99.9999999999999,2|0,0:2|1:2,0:0:0:0:
261,66,90593,1,8,0:2:0:0:
261,66,90735,2,0,L|417:55,1,150,2|8,1:1|0:2,0:0:0:0:
495,109,91450,2,0,P|507:161|498:218,1,99.9999999999999,0|8,1:2|0:2,0:0:0:0:
470,246,91878,6,0,B|381:222|415:286|321:264,1,150,6|8,1:1|0:2,0:2:0:0:
235,225,92593,1,2,1:2:0:0:
303,152,92878,1,8,0:2:0:0:
303,152,93021,2,0,P|316:97|286:41,1,99.9999999999999,2|0,1:2|1:2,0:0:0:0:
269,19,93450,1,8,0:2:0:0:
181,67,93735,1,2,1:2:0:0:
93,17,94021,1,8,0:2:0:0:
23,88,94307,6,0,P|10:143|40:199,1,99.9999999999999,2|12,2:2|0:2,0:2:0:0:
59,218,94735,2,0,L|178:202,1,99.9999999999999,2|0,0:2|1:2,0:0:0:0:
203,226,95164,1,8,0:2:0:0:
203,226,95307,2,0,B|284:232|249:180|341:175,1,150,6|8,1:1|2:2,0:0:0:0:
388,173,95878,1,8,0:2:0:0:
464,238,96164,1,8,0:3:0:0:
422,331,96450,5,4,0:3:0:0:
421,331,96593,2,0,B|383:364|383:364|311:376|251:337,1,179.999994506836,6|8,1:2|0:2,0:2:0:0:
145,202,97735,2,0,B|135:151|135:151|161:83|224:51,1,179.999994506836,6|8,1:2|0:2,0:2:0:0:
395,26,98878,2,0,B|443:43|443:43|489:99|485:169,1,179.999994506836,6|2,1:2|0:0,0:2:0:0:
396,341,100021,5,12,0:2:0:0:
301,309,100307,1,8,0:2:0:0:
212,355,100593,2,0,B|162:364|162:364|92:343,1,99.9999999999999,8|8,0:2|0:2,0:0:0:0:
67,321,101021,6,0,B|63:286|54:270|54:270|70:233|70:233|52:202|52:156,1,165.0000050354,6|8,1:1|0:2,0:1:0:0:
78,57,101735,1,2,1:2:0:0:
186,28,102021,1,8,0:2:0:0:
186,28,102164,2,0,B|249:16|237:53|313:38,1,110.000003356934,2|0,1:2|1:2,0:2:0:0:
345,21,102593,1,8,0:2:0:0:
451,49,102878,1,2,1:2:0:0:
481,159,103164,1,8,0:2:0:0:
481,159,103307,2,0,B|466:223|466:223|482:250|482:250|459:333,1,165.0000050354,2|8,1:1|0:2,0:0:0:0:
370,372,104021,5,2,1:2:0:0:
276,323,104307,1,8,0:2:0:0:
276,323,104450,2,0,B|259:264|287:277|276:213,1,110.000003356934,2|0,1:2|1:2,0:2:0:0:
265,160,104878,1,8,0:2:0:0:
193,76,105164,1,2,1:2:0:0:
93,118,105450,1,8,0:2:0:0:
93,118,105593,2,0,P|64:164|70:274,1,165.0000050354,6|8,1:1|0:2,0:2:0:0:
134,358,106307,5,2,1:2:0:0:
243,329,106593,1,8,0:2:0:0:
243,329,106735,2,0,B|309:319|286:353|363:344,1,110.000003356934,2|0,1:2|1:2,0:2:0:0:
398,370,107164,1,8,0:2:0:0:
495,319,107450,1,2,1:2:0:0:
492,208,107735,1,8,0:2:0:0:
400,147,108021,6,0,P|350:141|286:176,1,110.000003356934,2|8,0:2|0:2,0:0:0:0:
262,208,108450,2,0,P|213:232|159:226,1,110.000003356934,2|0,0:2|1:2,0:0:0:0:
110,212,108878,1,10,0:2:0:0:
110,212,109021,2,0,B|108:148|79:106|79:106|88:80|120:55,1,165.0000050354,2|8,1:1|0:2,0:0:0:0:
209,16,109735,2,0,L|323:31,1,110.000003356934,2|8,1:1|0:2,0:0:0:0:
365,58,110164,6,0,B|416:69|448:26|448:26|493:37|497:81,1,165.0000050354,6|8,1:1|0:2,0:2:0:0:
498,181,110878,1,2,1:2:0:0:
404,235,111164,1,8,0:2:0:0:
404,235,111307,2,0,P|360:244|296:225,1,110.000003356934,2|0,1:2|1:2,0:2:0:0:
253,193,111735,1,8,0:2:0:0:
286,88,112021,1,2,1:2:0:0:
194,37,112307,1,8,0:0:0:0:
194,37,112450,2,0,B|135:20|83:38|83:38|58:96,1,165.0000050354,2|8,1:1|0:2,0:0:0:0:
28,190,113164,5,2,1:2:0:0:
68,297,113450,1,8,0:2:0:0:
68,297,113593,2,0,B|91:311|113:310|113:310|137:295|177:297,1,110.000003356934,2|0,1:2|1:2,0:0:0:0:
227,305,114021,1,10,0:2:0:0:
316,369,114307,1,2,1:2:0:0:
425,353,114593,1,10,0:2:0:0:
483,259,114878,6,0,P|493:190|463:139,1,110.000003356934,6|8,1:1|0:2,0:2:0:0:
374,114,115450,2,0,L|260:129,1,110.000003356934,2|8,1:2|0:2,0:2:0:0:
227,168,115878,2,0,B|213:215|213:215|152:258|102:231,1,165.0000050354,2|8,1:2|0:2,0:2:0:0:
7,180,116593,1,0,1:2:0:0:
17,70,116878,1,10,0:2:0:0:
117,24,117164,6,0,L|230:39,1,110.000003356934,6|8,1:1|0:2,0:0:0:0:
306,114,117735,2,0,L|419:129,1,110.000003356934,2|8,1:1|0:2,0:0:0:0:
495,204,118307,1,10,0:1:0:0:
470,312,118593,1,10,0:1:0:0:
363,344,118878,1,10,0:1:0:0:
281,267,119164,5,8,0:2:0:0:
281,267,119307,2,2,B|255:173|307:219|278:93,1,165.0000050354,6|8,1:1|0:2,0:1:0:0:
202,27,120021,1,2,1:2:0:0:
91,27,120307,1,8,0:2:0:0:
28,117,120593,2,0,P|20:185|32:239,1,110.000003356934,2|8,1:1|0:2,0:2:0:0:
66,333,121164,1,2,1:2:0:0:
66,333,121307,1,0,1:2:0:0:
171,363,121593,6,0,L|301:343,1,110.000003356934,2|0,1:1|1:2,0:0:0:0:
334,339,122021,1,8,0:2:0:0:
436,379,122307,1,2,1:2:0:0:
499,289,122593,1,8,0:2:0:0:
431,202,122878,2,0,L|301:182,1,110.000003356934,2|8,1:2|0:2,0:0:0:0:
266,181,123307,1,2,0:2:0:0:
184,255,123593,1,0,1:2:0:0:
89,199,123878,6,2,P|77:146|99:77,1,110.000003356934,2|0,1:2|1:2,0:1:0:0:
119,46,124307,1,10,0:2:0:0:
222,83,124593,1,2,1:1:0:0:
320,30,124878,1,10,0:2:0:0:
320,30,125021,1,0,1:2:0:0:
416,82,125307,2,2,P|428:135|416:188,2,110.000003356934,2|2|0,1:1|0:2|1:2,0:1:0:0:
320,30,126164,6,2,B|270:59|270:59|199:39,1,110.000003356934,2|0,1:1|1:2,0:1:0:0:
168,24,126593,1,8,0:2:0:0:
64,59,126878,2,0,P|41:106|44:176,1,110.000003356934,2|8,1:2|0:2,0:0:0:0:
54,216,127307,1,2,1:2:0:0:
109,311,127593,1,0,1:2:0:0:
216,288,127878,2,0,B|324:269|288:332|386:327,1,165.0000050354,2|8,1:1|0:2,0:0:0:0:
418,354,128450,6,0,B|456:351|472:325|472:325|446:269|466:212,1,165.0000050354,4|10,1:2|2:2,0:0:0:0:
511,128,129164,1,2,1:1:0:0:
452,34,129450,1,10,2:2:0:0:
348,68,129735,2,0,B|302:77|302:77|274:54|234:51,1,110.000003356934,2|8,0:2|0:2,0:0:0:0:
196,74,130164,1,2,0:2:0:0:
196,74,130307,2,0,P|178:117|182:181,1,110.000003356934,2|8,1:1|0:2,0:0:0:0:
225,212,130735,6,2,B|271:221|271:221|299:198|339:195,1,110.000003356934,2|0,1:1|1:2,0:1:0:0:
379,218,131164,2,0,P|397:261|393:325,1,110.000003356934,8|0,0:2|1:2,0:2:0:0:
360,367,131593,1,0,1:2:0:0:
254,336,131878,2,2,B|195:315|195:315|166:364|85:356,1,165.0000050354,2|8,1:2|0:2,2:1:0:0:
23,284,132593,2,0,P|18:233|43:166,1,110.000003356934,0|8,1:2|0:2,0:0:0:0:
70,135,133021,6,0,B|122:148|122:148|189:114,1,110.000003356934,4|2,1:2|1:1,0:2:0:0:
218,92,133450,1,8,0:1:0:0:
312,35,133735,1,10,0:1:0:0:
312,35,133878,2,0,L|424:50,1,110.000003356934,0|2,1:2|1:2,0:0:0:0:
456,91,134307,2,0,P|467:139|445:203,1,110.000003356934,10|8,0:1|0:2,0:0:0:0:
402,223,134735,2,0,B|348:206|348:206|306:251|233:225,1,165.0000050354,2|8,1:1|0:2,0:0:0:0:
164,157,135450,6,0,B|177:103|177:103|146:41,1,110.000003356934,14|0,2:1|2:2,0:0:0:0:
43,69,136021,2,0,B|30:123|30:123|61:185,1,110.000003356934,14|0,2:1|2:2,0:0:0:0:
114,264,136593,1,10,0:1:0:0:
222,249,136878,1,10,0:1:0:0:
288,336,137164,2,0,B|337:356|337:356|402:332,1,110.000003356934,10|10,0:1|0:1,0:0:0:0:
427,310,137593,6,2,B|429:281|439:260|439:260|429:236|429:236|444:204|441:174,1,134.999995880127,6|0,1:2|1:2,0:1:0:0:
426,91,138307,2,0,P|386:71|329:77,1,89.999997253418,8|0,0:2|3:2,0:0:0:0:
256,101,138878,1,2,0:2:0:0:
230,187,139164,1,0,1:2:0:0:
271,266,139450,1,8,0:2:0:0:
226,345,139735,5,0,3:2:0:0:
226,345,139878,2,2,P|152:359|85:324,1,134.999995880127,2|0,1:2|1:2,0:1:0:0:
27,280,140593,2,0,L|39:188,1,89.999997253418,8|0,0:2|3:2,0:0:0:0:
110,136,141164,1,2,0:2:0:0:
186,183,141450,1,0,1:2:0:0:
267,145,141735,1,8,0:2:0:0:
336,210,142021,5,8,0:2:0:0:
336,210,142164,2,2,B|373:234|373:234|425:246|471:202,1,134.999995880127,6|0,1:2|1:2,0:1:0:0:
507,137,142878,2,0,P|500:96|467:59,1,89.999997253418,8|0,0:2|3:2,0:0:0:0:
384,30,143450,1,2,0:2:0:0:
300,62,143735,1,0,1:2:0:0:
215,30,144021,1,8,0:2:0:0:
133,62,144307,5,0,3:2:0:0:
133,62,144450,2,2,P|104:109|112:198,1,134.999995880127,2|0,1:2|1:2,0:1:0:0:
188,225,145164,2,0,L|287:210,1,89.999997253418,8|0,0:2|3:2,0:0:0:0:
366,218,145735,1,2,0:2:0:0:
387,305,146021,1,2,2:2:0:0:
310,351,146307,2,0,L|211:336,1,89.999997253418,8|8,0:2|0:2,0:0:0:0:
194,298,146735,6,2,B|175:283|150:284|150:284|112:337|52:306,1,142.499996194839,6|0,1:2|1:2,0:1:0:0:
14,232,147450,2,0,P|14:174|39:129,1,94.9999974632263,8|0,0:2|3:2,0:0:0:0:
121,116,148021,1,2,0:2:0:0:
162,201,148307,1,0,1:2:0:0:
253,226,148593,1,8,0:2:0:0:
347,201,148878,5,8,0:2:0:0:
347,201,149021,2,2,B|393:178|393:178|408:118|370:81,1,142.499996194839,6|0,1:2|1:2,0:1:0:0:
299,38,149735,2,0,L|193:28,1,94.9999974632263,8|0,0:2|3:2,0:0:0:0:
109,23,150307,1,2,0:2:0:0:
37,85,150593,1,8,0:2:0:0:
29,179,150878,1,8,0:2:0:0:
89,251,151164,1,4,0:3:0:0:
182,259,151450,6,0,L|289:252,2,99.9999999999999,6|0|8,1:2|1:2|0:2,0:2:0:0:
88,286,152307,1,8,0:2:0:0:
88,286,152450,2,0,B|58:303|58:303|3:266|29:201,1,150,0|0,1:2|1:2,0:2:0:0:
89,122,153164,1,12,0:2:0:0:
89,122,153307,2,0,B|120:111|120:111|147:137|181:131,1,99.9999999999999,0|0,1:2|1:2,0:2:0:0:
231,99,153735,6,0,P|294:44|443:101,1,239.999992675781,2|8,1:2|1:2,0:0:0:0:
437,204,154593,2,0,P|374:259|225:202,1,239.999992675781,14|12,1:2|0:2,0:0:0:0:
133,156,155450,2,0,B|98:140|98:140|41:148|44:214,1,119.999996337891,8|8,0:2|0:2,0:0:0:0:
19,241,155878,6,0,B|-8:315|50:354|50:354|105:335,1,165.0000050354,6|8,1:1|0:2,0:2:0:0:
189,306,156593,1,2,1:2:0:0:
289,349,156878,1,8,0:2:0:0:
289,349,157021,2,0,P|344:359|407:323,1,110.000003356934,2|0,1:2|1:2,0:2:0:0:
439,309,157450,1,8,0:2:0:0:
472,203,157735,1,2,1:2:0:0:
393,134,158021,1,8,0:2:0:0:
393,134,158164,2,0,B|363:113|320:118|320:118|316:172|264:193,1,165.0000050354,2|8,1:1|0:2,0:0:0:0:
166,231,158878,5,2,1:2:0:0:
71,185,159164,1,8,0:2:0:0:
71,185,159307,2,0,P|58:135|78:69,1,110.000003356934,2|0,1:2|1:2,0:2:0:0:
109,38,159735,1,8,0:2:0:0:
215,12,160021,1,2,1:2:0:0:
322,52,160307,1,8,0:2:0:0:
322,52,160450,2,0,B|342:75|343:109|343:109|329:138|329:138|323:172|362:209,1,165.0000050354,6|8,1:1|0:2,0:2:0:0:
448,258,161164,5,2,1:2:0:0:
396,357,161450,1,8,0:2:0:0:
396,357,161593,2,0,B|369:374|324:369|324:369|282:343,1,110.000003356934,2|0,1:2|1:2,0:2:0:0:
249,317,162021,1,8,0:2:0:0:
153,370,162307,1,2,1:2:0:0:
47,339,162593,1,8,0:2:0:0:
10,235,162878,6,0,P|15:178|58:121,1,110.000003356934,2|8,0:2|0:2,0:0:0:0:
85,99,163307,2,0,L|197:126,1,110.000003356934,2|0,0:2|1:2,0:0:0:0:
218,179,163735,1,10,0:2:0:0:
218,179,163878,2,0,L|381:218,1,165.0000050354,2|8,1:1|0:2,0:0:0:0:
473,160,164593,2,0,P|494:114|472:52,1,110.000003356934,2|8,1:1|0:2,0:0:0:0:
430,32,165021,6,0,B|407:17|407:17|362:24|362:24|335:72|274:58,1,165.0000050354,6|8,1:1|0:2,0:2:0:0:
180,20,165735,1,2,1:2:0:0:
85,71,166021,1,8,0:2:0:0:
85,71,166164,2,0,P|63:141|76:194,1,110.000003356934,2|0,1:2|1:2,0:2:0:0:
93,225,166593,1,8,0:2:0:0:
200,245,166878,1,2,1:2:0:0:
306,208,167164,1,8,0:2:0:0:
306,208,167307,2,0,B|346:186|346:186|424:212|390:291,1,165.0000050354,2|8,1:1|0:2,0:0:0:0:
336,370,168021,5,2,1:2:0:0:
229,341,168307,1,8,0:2:0:0:
229,341,168450,2,0,B|174:319|178:364|105:343,1,110.000003356934,2|0,1:2|1:2,0:2:0:0:
69,330,168878,1,10,0:2:0:0:
5,239,169164,1,2,1:2:0:0:
32,132,169450,1,10,0:2:0:0:
119,65,169735,6,0,P|175:60|236:91,1,110.000003356934,6|8,1:1|2:2,0:2:0:0:
281,174,170307,2,0,B|286:220|286:220|282:237|282:237|288:294,1,110.000003356934,2|8,1:2|0:2,0:2:0:0:
306,334,170735,2,0,P|357:359|457:322,1,165.0000050354,2|8,1:2|0:2,0:2:0:0:
503,226,171450,1,0,1:2:0:0:
499,115,171735,1,10,0:2:0:0:
415,43,172021,6,0,P|370:34|308:56,1,110.000003356934,6|8,1:1|0:2,0:0:0:0:
257,151,172593,2,0,P|206:170|152:162,1,110.000003356934,2|8,1:1|0:2,0:0:0:0:
49,124,173164,1,10,0:1:0:0:
11,227,173450,1,10,0:1:0:0:
114,265,173735,1,10,0:1:0:0:
156,166,174021,5,8,0:2:0:0:
156,166,174164,2,0,B|168:111|146:69|146:69|155:38|203:36,1,165.0000050354,6|8,1:1|0:2,0:2:0:0:
304,63,174878,1,2,1:2:0:0:
413,38,175164,1,8,0:2:0:0:
413,38,175307,2,0,B|441:26|441:26|483:46|476:102,1,110.000003356934,2|0,1:2|1:2,0:2:0:0:
477,146,175735,1,8,0:2:0:0:
393,217,176021,1,2,1:2:0:0:
299,170,176307,1,8,0:2:0:0:
299,170,176450,2,0,P|256:148|135:173,1,165.0000050354,2|8,1:1|0:2,0:0:0:0:
83,257,177164,5,2,1:2:0:0:
147,352,177450,1,8,0:2:0:0:
147,352,177593,2,0,B|199:366|199:366|260:336,1,110.000003356934,2|0,1:2|1:2,0:2:0:0:
296,313,178021,1,8,0:2:0:0:
385,367,178307,1,2,1:2:0:0:
470,296,178593,1,8,0:2:0:0:
470,296,178735,2,0,P|481:217|454:130,1,165.0000050354,6|8,1:1|0:2,0:2:0:0:
374,63,179450,5,2,1:2:0:0:
302,146,179735,1,8,0:2:0:0:
302,146,179878,2,0,L|293:279,1,110.000003356934,2|0,1:2|1:2,0:2:0:0:
289,310,180307,1,8,0:2:0:0:
197,371,180593,1,2,1:2:0:0:
87,366,180878,1,8,0:2:0:0:
6,290,181164,6,0,L|15:157,1,110.000003356934,2|8,0:1|0:2,0:0:0:0:
43,133,181593,2,0,P|98:119|154:137,1,110.000003356934,2|0,0:1|1:2,0:0:0:0:
178,179,182021,1,10,0:2:0:0:
178,179,182164,2,0,B|204:244|256:245|256:245|282:229|323:233,1,165.0000050354,2|10,1:1|0:1,0:2:0:0:
414,265,182878,2,0,B|448:275|448:275|483:250|481:213,1,110.000003356934,10|8,0:1|0:2,0:0:0:0:
487,157,183307,6,0,B|443:121|471:64|471:64|448:35|399:41,1,165.0000050354,6|8,1:1|0:2,0:2:0:0:
308,58,184021,1,2,1:2:0:0:
311,168,184307,1,8,0:2:0:0:
311,168,184450,2,0,L|326:294,1,110.000003356934,2|0,1:2|1:2,0:2:0:0:
294,323,184878,1,8,0:2:0:0:
195,371,185164,1,2,1:2:0:0:
96,333,185450,1,8,0:2:0:0:
96,333,185593,2,0,P|67:258|93:165,1,165.0000050354,2|8,1:1|0:2,0:0:0:0:
143,84,186307,5,2,1:2:0:0:
247,42,186593,1,8,0:2:0:0:
247,42,186735,2,0,B|268:72|302:74|302:74|320:60|363:59,1,110.000003356934,2|0,1:2|1:2,0:2:0:0:
398,52,187164,1,10,0:2:0:0:
490,111,187450,1,2,1:2:0:0:
488,220,187735,1,10,0:2:0:0:
407,294,188021,6,0,P|355:302|295:271,1,110.000003356934,6|8,1:1|0:2,0:2:0:0:
225,201,188593,2,0,B|218:162|218:162|226:145|226:145|219:87,1,110.000003356934,2|8,1:2|0:2,0:2:0:0:
187,49,189021,2,0,P|114:31|36:86,1,165.0000050354,2|8,1:2|0:2,0:2:0:0:
5,180,189735,1,0,1:2:0:0:
26,288,190021,1,10,0:2:0:0:
102,352,190307,6,0,P|157:353|201:322,1,99.9999999999999,14|0,0:2|0:0,0:0:0:0:
229,236,190878,2,0,P|220:180|237:129,1,99.9999999999999,14|0,0:2|0:0,0:0:0:0:
296,49,191450,1,10,0:1:0:0:
407,61,191735,1,10,0:1:0:0:
452,163,192021,1,10,0:1:0:0:
389,260,192307,5,8,0:2:0:0:
389,260,192450,2,0,P|328:286|239:259,1,150,6|8,1:1|0:2,0:2:0:0:
169,206,193164,2,0,L|162:101,1,99.9999999999999,2|8,1:2|0:2,0:0:0:0:
140,61,193592,2,0,B|95:31|30:55|30:55|19:94,1,150,2|8,1:2|0:2,0:2:0:0:
8,192,194307,1,2,1:2:0:0:
8,192,194450,1,0,1:2:0:0:
71,268,194735,6,0,P|143:279|226:233,1,150,2|8,1:1|0:2,0:0:0:0:
290,186,195450,2,0,L|298:86,1,99.9999999999999,0|8,1:2|0:2,0:0:0:0:
337,55,195878,2,0,P|440:48|473:97,1,150,2|8,1:2|0:2,0:2:0:0:
497,176,196592,1,2,1:2:0:0:
497,176,196735,1,0,1:2:0:0:
488,275,197021,6,0,B|478:332|442:358|442:358|376:334,1,150,6|8,1:1|0:2,0:2:0:0:
311,281,197735,2,0,L|300:170,1,99.9999999999999,2|8,1:2|0:2,0:0:0:0:
283,134,198164,2,0,P|244:106|138:131,1,150,2|8,1:2|0:2,0:2:0:0:
72,186,198878,1,2,1:2:0:0:
72,186,199021,1,0,1:2:0:0:
126,269,199307,6,0,P|165:297|271:272,1,150,2|8,1:1|0:2,0:0:0:0:
348,233,200021,2,0,B|377:220|377:220|392:254|432:258,1,99.9999999999999,0|8,1:2|0:2,0:0:0:0:
475,236,200450,2,0,P|497:189|477:126,1,99.9999999999999,2|0,1:2|1:2,0:2:0:0:
426,64,201021,1,2,1:2:0:0:
334,104,201307,1,2,1:2:0:0:
244,58,201593,6,0,B|202:31|139:35|139:35|96:81,1,150,6|8,1:1|0:2,0:2:0:0:
49,143,202307,2,0,L|61:255,1,99.9999999999999,2|8,1:2|0:2,0:0:0:0:
51,291,202735,2,0,B|132:278|109:354|200:337,1,150,2|8,1:2|0:2,0:2:0:0:
285,313,203450,1,2,1:2:0:0:
285,313,203592,1,0,1:2:0:0:
373,359,203878,6,0,B|418:377|418:377|462:352|462:290,1,150,2|8,1:1|0:2,0:0:0:0:
415,202,204593,2,0,P|364:193|306:214,1,99.9999999999999,2|8,1:2|0:2,0:0:0:0:
275,232,205021,2,0,P|227:245|178:236,1,99.9999999999999,2|0,1:2|1:2,0:2:0:0:
82,205,205593,1,2,0:2:0:0:
73,105,205878,1,0,1:2:0:0:
158,36,206164,6,0,B|210:19|210:19|232:66|289:66,1,150,6|8,1:2|0:2,0:2:0:0:
383,42,206878,1,0,1:2:0:0:
474,82,207164,1,8,0:2:0:0:
474,82,207307,2,0,P|494:141|478:235,1,150,2|8,1:2|0:2,0:2:0:0:
416,302,208021,2,0,L|306:293,1,99.9999999999999,0|8,1:2|0:2,0:0:0:0:
274,266,208450,6,0,B|258:216|258:216|269:180|269:180|252:115,1,150,6|8,1:2|0:2,0:2:0:0:
192,43,209164,2,0,P|133:37|84:59,1,99.9999999999999,10|8,0:2|0:2,0:0:0:0:
24,121,209735,1,10,0:2:0:0:
7,219,210021,1,10,0:2:0:0:
47,310,210307,1,10,0:2:0:0:
139,360,210593,5,8,0:2:0:0:
139,360,210735,1,6,1:2:0:0:
256,192,210878,12,0,218878,0:2:0:0:
