osu file format v14

[General]
AudioFilename: audio.mp3
AudioLeadIn: 0
PreviewTime: 50718
Countdown: 0
SampleSet: Soft
StackLeniency: 0.7
Mode: 0
LetterboxInBreaks: 0
WidescreenStoryboard: 1

[Editor]
Bookmarks: 9593,18735,23307,27878,37021,46307,50735,59878,69021,73593,78164,81664,87307,96593,101021,110164,119307,128450,128593,137593,146878,155878,165021,174164,183307,192450,201593,206164,210735,218878
DistanceSpacing: 1.2
BeatDivisor: 4
GridSize: 32
TimelineZoom: 1.899999

[Metadata]
Title:Control
TitleUnicode:Control
Artist:jAcKp*TrASH feat. AiCA
ArtistUnicode:jAcKp☆TrASH feat. AiCA
Creator:Lasse
Version:Hard
Source:CHU×ペット
Tags:japanese rock visual novel opening chu x pet eroge gwave jackpotrash aurora SHOW mikemike TAKUYA hishiro chizuru amb1d3x
BeatmapID:3436103
BeatmapSetID:1676042

[Difficulty]
HPDrainRate:4
CircleSize:3.8
OverallDifficulty:6.8
ApproachRate:8
SliderMultiplier:1.34
SliderTickRate:1

[Events]
//Background and Video events
0,0,"rf534645.jpg",0,0
//Break Periods
//Storyboard Layer 0 (Background)
//Storyboard Layer 1 (Fail)
//Storyboard Layer 2 (Pass)
//Storyboard Layer 3 (Foreground)
//Storyboard Layer 4 (Overlay)
//Storyboard Sound Samples

[TimingPoints]
593,285.714285714286,4,2,1,60,1,0
8164,-100,4,2,2,65,0,0
9593,-100,4,2,1,70,0,0
14164,-100,4,2,2,70,0,0
14235,-100,4,2,1,70,0,0
23307,-111.111111111111,4,2,2,60,0,0
23450,-111.111111111111,4,2,1,60,0,0
25593,-111.111111111111,4,2,2,60,0,0
25735,-111.111111111111,4,2,1,60,0,0
26878,-105.263157894737,4,2,2,60,0,0
27021,-105.263157894737,4,2,1,60,0,0
27878,276.497695852535,4,2,1,65,1,0
27878,-100,4,2,1,65,0,0
28293,285.714285714286,4,2,1,65,1,0
29150,285.714285714286,4,2,1,65,1,0
32578,285.714285714286,4,2,1,65,1,0
45006,295.566502463054,4,2,1,65,1,0
45450,285.714285714286,4,2,1,65,1,0
45450,-116.279069767442,4,2,1,65,0,0
46307,285.714285714286,4,2,1,60,1,0
46307,-133.333333333333,4,2,1,60,0,0
47449,-153.846153846153,4,2,1,60,0,0
48592,-200,4,2,1,60,0,0
49163,-200,4,2,1,40,0,0
49234,-200,4,2,1,30,0,0
50234,-200,4,2,1,5,0,0
50306,-100,4,2,1,60,0,0
50735,-90.9090909090909,4,2,1,72,0,1
55306,-90.9090909090909,4,2,2,72,0,1
55449,-90.9090909090909,4,2,1,72,0,1
59807,-90.9090909090909,4,2,1,72,0,0
59878,-90.9090909090909,4,2,1,72,0,1
64592,-90.9090909090909,4,2,2,72,0,1
64734,-90.9090909090909,4,2,1,72,0,1
66877,-90.9090909090909,4,2,2,72,0,1
66949,-90.9090909090909,4,2,1,72,0,1
69021,-100,4,2,1,70,0,0
73592,-111.111111111111,4,2,2,60,0,0
73734,-111.111111111111,4,2,1,60,0,0
75877,-111.111111111111,4,2,2,60,0,0
76020,-111.111111111111,4,2,1,60,0,0
77163,-105.263157894737,4,2,2,60,0,0
77306,-105.263157894737,4,2,1,60,0,0
78163,-100,4,2,1,65,0,0
82734,-100,4,2,2,65,0,0
82877,-100,4,2,1,65,0,0
91877,-100,4,2,2,65,0,0
92020,-100,4,2,1,65,0,0
95306,-100,4,2,2,65,0,0
95377,-100,4,2,1,65,0,0
96592,-133.333333333333,4,2,1,60,0,0
97734,-153.846153846153,4,2,1,60,0,0
98877,-200,4,2,1,60,0,0
99020,-200,4,2,1,5,0,0
99877,-200,4,2,1,40,0,0
100020,-100,4,2,1,64,0,0
101021,-90.9090909090909,4,2,1,72,0,1
105592,-90.9090909090909,4,2,2,72,0,1
105734,-90.9090909090909,4,2,1,72,0,1
110092,-90.9090909090909,4,2,1,72,0,0
110164,-90.9090909090909,4,2,1,72,0,1
114877,-90.9090909090909,4,2,2,72,0,1
115020,-90.9090909090909,4,2,1,72,0,1
117163,-90.9090909090909,4,2,2,72,0,1
117234,-90.9090909090909,4,2,1,72,0,1
119307,-90.9090909090909,4,2,2,74,0,0
119449,-90.9090909090909,4,2,1,74,0,0
130734,-90.9090909090909,4,2,1,72,0,0
133020,-90.9090909090909,4,2,1,74,0,0
135449,-90.9090909090909,4,2,2,74,0,0
137592,-111.111111111111,4,2,1,62,0,0
146734,-105.263157894737,4,2,1,64,0,0
151449,-100,4,2,1,66,0,0
153734,-90.9090909090909,4,2,1,68,0,0
154592,-90.9090909090909,4,2,1,70,0,0
155306,-90.9090909090909,4,2,1,60,0,0
155449,-90.9090909090909,4,2,1,70,0,0
155878,-90.9090909090909,4,2,1,72,0,1
160449,-90.9090909090909,4,2,2,72,0,1
160592,-90.9090909090909,4,2,1,72,0,1
164949,-90.9090909090909,4,2,1,72,0,0
165021,-90.9090909090909,4,2,1,72,0,1
169734,-90.9090909090909,4,2,2,72,0,1
169877,-90.9090909090909,4,2,1,72,0,1
172020,-90.9090909090909,4,2,2,72,0,1
172092,-90.9090909090909,4,2,1,72,0,1
173163,-90.9090909090909,4,2,3,72,0,1
173234,-90.9090909090909,4,2,1,72,0,1
174092,-90.9090909090909,4,2,1,72,0,0
174164,-90.9090909090909,4,2,1,74,0,1
178734,-90.9090909090909,4,2,2,74,0,1
178877,-90.9090909090909,4,2,1,74,0,1
183235,-90.9090909090909,4,2,1,74,0,0
183307,-90.9090909090909,4,2,1,74,0,1
188020,-90.9090909090909,4,2,2,74,0,1
188163,-90.9090909090909,4,2,1,74,0,1
190306,-100,4,2,1,70,0,1
191449,-90.9090909090909,4,2,1,72,0,1
192020,-100,4,2,1,74,0,1
192449,-100,4,2,1,70,0,0
197020,-100,4,2,2,70,0,0
197163,-100,4,2,1,70,0,0
206163,-100,4,2,1,60,0,0
208449,-100,4,2,1,62,0,0
208877,-100,4,2,1,62,0,0
209734,-90.9090909090909,4,2,1,64,0,0
210020,-90.9090909090909,4,2,1,66,0,0
210306,-90.9090909090909,4,2,1,68,0,0
210734,-90.9090909090909,4,2,2,60,0,0
210806,-90.9090909090909,4,2,1,30,0,0
212020,-90.9090909090909,4,2,1,25,0,0
213163,-90.9090909090909,4,2,1,20,0,0
214306,-90.9090909090909,4,2,1,15,0,0
215449,-90.9090909090909,4,2,1,10,0,0
216593,-90.9090909090909,4,2,71,5,0,0

[Colours]
Combo1 : 240,140,140
Combo2 : 200,180,220
Combo3 : 240,200,155
Combo4 : 150,185,220

[HitObjects]
200,188,593,5,10,1:1:0:0:
200,188,735,1,8,1:2:0:0:
312,196,1450,5,10,1:1:0:0:
312,196,1593,1,8,1:2:0:0:
189,207,2878,5,10,1:1:0:0:
189,207,3021,1,8,1:2:0:0:
323,177,3735,5,10,1:1:0:0:
323,177,3878,1,8,1:2:0:0:
193,118,5164,5,10,1:1:0:0:
193,118,5307,1,8,1:2:0:0:
319,266,6021,5,10,1:1:0:0:
319,266,6164,1,8,1:2:0:0:
275,152,7450,5,10,1:1:0:0:
237,232,7593,1,8,1:2:0:0:
185,36,8164,6,0,P|152:25|101:22,1,67,14|0,1:1|0:2,0:2:0:0:
84,97,8450,2,0,P|37:109|11:205,1,134,10|0,1:1|0:2,0:2:0:0:
6,309,9593,6,0,P|70:295|155:294,1,134,6|0,1:1|1:2,0:1:0:0:
214,340,10021,2,0,P|219:303|227:274,1,67,8|0,0:2|0:2,0:2:0:0:
303,231,10307,1,2,1:2:0:0:
346,306,10450,2,0,P|341:339|333:371,1,67,0|8,1:2|0:2,0:0:0:0:
435,326,10735,6,0,P|494:318|512:252,1,134,2|0,1:2|1:2,0:2:0:0:
493,167,11164,2,0,P|501:131|510:90,1,67,8|0,0:2|0:2,0:2:0:0:
426,66,11450,2,0,P|420:32|409:-11,2,67,2|0|8,1:2|0:0|0:2,0:2:0:0:
385,163,11878,6,0,P|317:179|264:149,1,134,2|0,1:1|1:2,0:0:0:0:
203,85,12307,2,0,P|197:53|177:14,1,67,8|0,0:2|0:2,0:2:0:0:
114,77,12593,2,0,P|82:83|43:104,1,67,2|0,1:2|1:2,0:2:0:0:
3,171,12878,1,8,0:2:0:0:
64,232,13021,6,0,P|149:220|196:188,1,134,2|0,1:2|1:2,0:2:0:0:
270,239,13450,2,0,B|278:188|278:188|273:174|273:174|284:104,1,134,8|2,0:2|1:2,0:0:0:0:
336,37,13878,1,0,1:2:0:0:
422,24,14021,1,8,0:2:0:0:
488,77,14164,6,0,P|507:141|496:207,1,134,6|0,1:1|1:2,0:2:0:0:
453,283,14593,2,0,P|417:273|370:263,1,67,8|0,0:2|0:2,0:2:0:0:
309,304,14878,1,2,1:2:0:0:
228,336,15021,2,0,P|195:328|163:319,1,67,0|8,1:2|0:2,0:0:0:0:
74,365,15307,6,0,B|59:292|97:322|77:232,1,134,2|0,1:2|1:2,0:2:0:0:
6,183,15735,2,0,P|19:143|27:105,1,67,8|0,0:2|0:2,0:2:0:0:
96,67,16021,2,0,P|83:27|75:-11,2,67,2|0|8,1:2|1:2|0:2,0:2:0:0:
195,118,16450,6,0,B|281:95|246:148|339:126,1,134,2|0,1:1|1:2,0:0:0:0:
403,91,16878,2,0,B|444:78|444:78|495:105|480:174,1,134,8|0,0:2|1:2,0:2:0:0:
465,239,17307,1,0,1:2:0:0:
386,276,17450,1,8,0:2:0:0:
323,214,17593,6,0,B|326:191|317:175|317:175|326:147|326:147|314:115|312:70,1,134,2|0,1:2|1:2,0:2:0:0:
248,25,18021,2,0,P|216:15|162:11,1,67,8|0,0:2|2:2,0:2:0:0:
95,18,18307,1,2,1:2:0:0:
46,91,18450,1,8,0:2:0:0:
46,91,18593,1,8,0:2:0:0:
87,179,18735,6,0,P|148:189|235:161,1,134,6|0,1:1|1:2,0:2:0:0:
279,109,19164,2,0,P|281:83|294:40,1,67,8|0,0:2|0:2,0:2:0:0:
374,12,19450,1,2,1:2:0:0:
425,82,19593,2,0,P|423:108|410:151,1,67,0|8,1:2|0:2,0:2:0:0:
361,242,19878,6,0,B|359:302|411:319|411:319|461:305,1,134,2|0,1:2|1:2,0:2:0:0:
507,249,20307,2,0,P|503:215|489:182,1,67,8|0,0:2|0:2,0:2:0:0:
411,147,20593,2,0,B|360:134|360:134|340:144|340:144|256:127,1,134,2|8,1:2|0:2,0:2:0:0:
198,196,21021,6,0,B|200:256|148:273|148:273|98:259,1,134,2|0,1:1|1:2,0:0:0:0:
35,226,21450,2,0,P|30:190|34:143,1,67,8|0,0:2|0:2,0:2:0:0:
51,74,21735,1,2,1:2:0:0:
126,30,21878,2,0,L|215:23,1,67,0|8,1:2|0:2,0:2:0:0:
271,90,22164,6,0,L|431:102,1,134,2|0,1:2|1:2,0:2:0:0:
478,147,22593,2,0,P|482:177|474:236,1,67,8|0,0:2|1:2,0:2:0:0:
454,297,22878,1,10,0:2:0:0:
454,297,23021,1,0,1:2:0:0:
369,273,23164,1,8,0:2:0:0:
303,337,23307,6,0,B|276:363|276:363|231:374|179:343,1,120.59999631958,6|0,1:1|2:2,0:2:0:0:
126,314,23735,2,0,L|-6:333,2,120.59999631958,0|8|2,1:2|0:2|0:2,0:0:0:0:
238,204,24593,2,0,P|244:139|221:80,1,120.59999631958,2|0,0:1|1:2,0:2:0:0:
162,41,25021,2,0,L|78:51,1,60.2999981597901,2|8,0:2|0:2,0:2:0:0:
46,103,25307,2,0,P|46:147|54:169,1,60.2999981597901,0|8,1:2|0:2,0:2:0:0:
118,220,25593,6,0,L|255:201,1,120.59999631958,6|0,1:1|0:2,0:2:0:0:
299,252,26021,2,0,B|288:300|288:300|292:318|292:318|279:378,2,120.59999631958,0|8|2,1:2|0:2|0:2,0:2:0:0:
494,209,26878,6,0,P|495:175|488:143,1,63.6499983003617,14|0,0:1|1:2,0:0:0:0:
436,81,27164,1,8,0:2:0:0:
362,118,27307,2,0,P|328:117|285:102,1,63.6499983003617,2|8,1:2|0:2,0:0:0:0:
234,56,27593,2,0,P|203:47|171:47,1,63.6499983003617,8|8,0:2|0:2,0:0:0:0:
85,89,27878,6,2,L|61:230,1,134,6|0,1:2|1:2,0:1:0:0:
8,276,28293,1,8,0:2:0:0:
13,287,28864,1,8,0:2:0:0:
18,298,29435,1,8,0:2:0:0:
283,349,30007,5,8,0:2:0:0:
283,349,30150,2,2,B|369:331|343:375|433:361,1,134,2|0,1:2|1:2,0:1:0:0:
480,323,30578,1,8,0:2:0:0:
238,219,31150,5,8,0:2:0:0:
238,219,31292,2,2,B|152:201|178:245|88:231,1,134,2|0,1:2|1:2,0:1:0:0:
43,188,31721,1,8,0:2:0:0:
296,95,32292,5,8,0:2:0:0:
296,95,32435,2,2,B|382:77|356:121|446:107,1,134,2|0,1:2|1:2,0:1:0:0:
492,67,32863,1,8,0:2:0:0:
487,56,33435,1,8,0:2:0:0:
482,45,34006,1,8,0:2:0:0:
230,16,34578,5,8,0:2:0:0:
230,16,34720,2,2,B|220:59|220:59|232:93|232:93|216:153,1,134,2|0,1:2|1:2,0:1:0:0:
195,219,35149,1,8,0:2:0:0:
502,169,35720,5,8,0:2:0:0:
502,169,35863,2,2,B|492:212|492:212|504:246|504:246|488:306,1,134,2|0,1:2|1:2,0:1:0:0:
467,372,36292,1,8,0:2:0:0:
312,334,36578,2,0,L|238:339,2,67,0|0|8,1:2|1:2|0:2,0:0:0:0:
369,266,37006,6,2,P|376:200|346:129,1,134,6|0,1:2|1:2,0:1:0:0:
305,75,37435,1,8,0:2:0:0:
297,66,38006,1,8,0:2:0:0:
289,57,38578,1,8,0:2:0:0:
34,24,39149,5,8,0:2:0:0:
34,24,39292,2,2,L|16:176,1,134,2|0,1:2|1:2,0:1:0:0:
33,232,39720,1,8,0:2:0:0:
239,375,40292,5,8,0:2:0:0:
239,375,40435,2,2,L|257:223,1,134,2|0,0:2|1:2,0:1:0:0:
268,165,40863,1,8,0:2:0:0:
478,24,41435,5,8,0:2:0:0:
478,24,41578,2,2,L|496:176,1,134,2|0,1:2|1:2,0:1:0:0:
479,232,42006,1,8,0:2:0:0:
477,244,42578,1,8,0:2:0:0:
475,256,43149,1,8,0:2:0:0:
229,346,43720,5,8,0:2:0:0:
229,346,43863,2,2,B|176:338|176:338|151:357|151:357|86:351,1,134,2|0,1:2|1:2,0:1:0:0:
25,341,44292,1,8,0:2:0:0:
251,214,44863,5,8,0:2:0:0:
251,214,45006,2,2,B|304:206|304:206|329:225|329:225|394:219,1,134,2|0,0:2|1:2,0:1:0:0:
473,190,45449,5,8,0:2:0:0:
473,190,45592,2,0,P|471:150|462:127,1,57.6200008792114,8|8,0:2|0:2,0:0:0:0:
416,70,45878,2,0,L|437:2,2,57.6200008792114,8|4|4,0:3|0:3|0:3,0:0:0:0:
357,122,46307,6,0,P|306:133|230:77,1,150.750005750656,6|0,1:2|1:2,0:2:0:0:
169,28,46878,2,0,L|66:42,1,100.500003833771,8|0,0:2|1:2,0:0:0:0:
30,171,47450,6,0,B|38:229|38:229|50:239|50:239|48:250|48:250|57:304,1,130.649994019318,6|0,1:2|1:2,0:2:0:0:
99,358,48021,2,0,P|143:360|198:342,1,87.0999960128786,8|0,0:2|1:2,0:0:0:0:
278,281,48593,5,6,1:2:0:0:
256,192,48664,12,8,50307,0:2:0:0:
219,308,50735,6,0,B|140:287|160:340|75:315,1,147.400004498291,6|0,1:1|1:2,0:1:0:0:
12,243,51164,2,0,P|10:204|24:160,1,73.7000022491456,8|0,0:2|0:2,0:2:0:0:
73,90,51450,2,0,L|158:80,1,73.7000022491456,2|0,1:2|1:2,0:0:0:0:
219,19,51735,1,8,0:2:0:0:
306,79,51878,6,0,B|298:134|348:160|348:160|331:224,1,147.400004498291,2|0,1:2|1:2,0:2:0:0:
265,273,52307,2,0,P|231:257|195:255,1,73.7000022491456,8|0,0:2|0:2,0:2:0:0:
318,354,52593,2,0,P|362:376|451:346,1,147.400004498291,2|8,1:2|0:2,0:2:0:0:
512,274,53021,6,0,B|491:202|491:202|504:173|502:126,1,147.400004498291,2|0,1:1|1:2,0:0:0:0:
452,49,53450,2,0,P|410:31|362:31,1,73.7000022491456,8|0,0:2|0:0,0:2:0:0:
292,61,53735,1,2,1:2:0:0:
292,61,53878,1,0,1:2:0:0:
210,9,54021,1,8,0:2:0:0:
119,57,54164,6,0,P|90:100|97:206,1,147.400004498291,2|0,1:2|1:2,0:2:0:0:
140,275,54593,2,0,P|182:278|219:273,1,73.7000022491456,8|0,0:2|0:2,0:2:0:0:
297,228,54878,2,0,L|308:149,1,73.7000022491456,2|0,1:2|1:2,0:0:0:0:
388,102,55164,1,8,0:2:0:0:
460,175,55307,6,0,P|475:246|447:313,1,147.400004498291,6|0,1:1|1:2,0:2:0:0:
373,374,55735,2,0,L|276:355,1,73.7000022491456,8|0,0:2|0:2,0:2:0:0:
205,374,56021,2,0,L|108:355,1,73.7000022491456,2|0,1:2|1:2,0:0:0:0:
37,375,56307,1,8,0:2:0:0:
11,276,56450,6,0,B|24:220|24:220|22:202|22:202|40:132,1,147.400004498291,2|0,1:2|1:2,0:2:0:0:
101,58,56878,2,0,P|69:42|32:38,1,73.7000022491456,8|0,0:2|0:2,0:2:0:0:
138,148,57164,2,0,P|174:144|207:127,1,73.7000022491456,2|0,1:2|1:2,0:2:0:0:
278,62,57450,2,0,P|310:45|347:41,1,73.7000022491456,8|0,0:2|1:2,0:2:0:0:
450,101,57735,5,2,0:2:0:0:
450,101,57878,2,0,L|441:179,1,73.7000022491456,0|8,1:2|0:2,0:0:0:0:
376,252,58164,1,2,0:2:0:0:
376,252,58307,2,0,L|298:243,1,73.7000022491456,0|0,1:2|1:2,0:0:0:0:
244,155,58593,5,10,0:2:0:0:
244,155,58735,2,0,L|88:137,1,147.400004498291,2|0,1:1|1:2,0:0:0:0:
16,191,59164,2,0,P|4:223|8:275,1,73.7000022491456,8|0,0:2|0:2,0:2:0:0:
72,337,59450,1,2,1:1:0:0:
72,337,59593,1,0,1:2:0:0:
146,277,59735,1,8,0:2:0:0:
222,347,59878,6,0,B|252:365|252:365|375:353,1,147.400004498291,6|0,1:1|1:2,0:2:0:0:
446,304,60307,2,0,P|458:339|457:376,1,73.7000022491456,8|0,0:2|0:2,0:2:0:0:
362,256,60593,2,0,P|360:219|372:184,1,73.7000022491456,2|0,1:2|1:2,0:0:0:0:
447,124,60878,1,8,0:2:0:0:
383,42,61021,6,0,P|320:15|228:29,1,147.400004498291,2|0,1:2|1:2,0:2:0:0:
151,57,61450,2,0,P|115:53|80:42,1,73.7000022491456,8|0,0:2|0:2,0:2:0:0:
125,143,61735,2,0,P|59:152|20:234,1,147.400004498291,2|8,1:2|0:2,0:2:0:0:
94,292,62164,6,0,B|166:309|166:309|245:278,1,147.400004498291,2|0,1:1|1:2,0:0:0:0:
278,196,62593,2,0,P|268:155|272:107,1,73.7000022491456,8|0,0:2|0:2,0:2:0:0:
316,40,62878,2,0,L|396:31,1,73.7000022491456,2|0,1:2|1:2,0:0:0:0:
478,68,63164,1,8,0:2:0:0:
501,167,63307,6,0,B|490:236|490:236|491:247|491:247|478:321,1,147.400004498291,2|0,1:2|1:2,0:2:0:0:
409,378,63735,2,0,P|377:376|335:358,1,73.7000022491456,10|0,0:2|0:2,0:0:0:0:
295,274,64021,2,0,P|308:240|311:203,1,73.7000022491456,2|0,1:2|1:2,0:0:0:0:
274,112,64307,2,0,P|240:97|203:94,1,73.7000022491456,10|0,0:2|0:2,0:0:0:0:
118,151,64593,6,0,B|79:187|79:187|25:198|-7:139,1,147.400004498291,6|8,1:1|0:2,0:2:0:0:
96,314,65164,2,0,P|129:299|166:296,1,73.7000022491456,2|0,1:2|1:2,0:2:0:0:
166,296,65378,1,0,1:2:0:0:
166,296,65450,1,8,0:2:0:0:
252,358,65593,6,0,P|334:366|397:336,1,147.400004498291,2|0,1:2|1:2,0:2:0:0:
463,276,66021,2,0,B|468:221|468:221|463:204|463:204|468:129,1,147.400004498291,8|0,0:2|1:2,0:2:0:0:
427,42,66450,1,0,1:2:0:0:
338,79,66593,2,0,P|303:79|261:66,1,73.7000022491456,10|0,0:2|0:2,0:2:0:0:
184,28,66878,5,6,1:1:0:0:
184,28,67021,1,0,1:2:0:0:
187,123,67164,1,8,0:2:0:0:
5,177,67450,5,2,1:1:0:0:
5,177,67593,1,0,1:2:0:0:
8,272,67735,1,8,0:2:0:0:
180,353,68021,6,0,P|215:343|252:342,1,73.7000022491456,10|8,0:1|0:2,0:0:0:0:
346,361,68307,2,0,P|382:359|418:350,1,73.7000022491456,10|8,0:1|0:2,0:0:0:0:
481,277,68593,2,0,L|465:199,1,73.7000022491456,10|8,0:1|0:2,0:0:0:0:
500,115,68878,1,8,0:2:0:0:
420,40,69021,6,0,B|344:22|371:70|274:51,1,134,6|0,1:1|1:2,0:2:0:0:
214,110,69450,2,0,P|210:76|200:44,1,67,8|0,0:2|0:2,0:2:0:0:
119,10,69735,1,2,1:2:0:0:
38,40,69878,2,0,P|28:71|24:105,1,67,0|8,1:2|0:2,0:0:0:0:
97,188,70164,6,0,B|173:170|146:218|243:199,1,134,2|0,1:2|1:2,0:2:0:0:
313,183,70593,2,0,P|317:149|329:114,1,67,8|0,0:2|0:2,0:2:0:0:
398,67,70878,2,0,B|443:53|443:53|493:76|490:141,1,134,2|8,1:2|2:2,0:2:0:0:
496,232,71307,6,0,B|472:280|500:320|500:320|490:346|461:358,1,134,2|0,1:1|1:2,0:0:0:0:
390,376,71735,2,0,P|357:366|324:364,1,67,8|0,0:2|0:2,0:2:0:0:
255,310,72021,1,2,1:2:0:0:
183,360,72164,2,0,P|150:369|117:371,1,67,0|8,1:2|0:2,0:2:0:0:
17,310,72450,6,0,P|3:244|35:165,1,134,2|0,1:2|1:2,0:2:0:0:
74,112,72878,2,0,L|148:132,1,67,8|0,0:2|0:2,0:2:0:0:
223,101,73164,1,2,1:2:0:0:
223,101,73307,1,0,1:2:0:0:
238,186,73450,1,8,0:2:0:0:
333,167,73593,6,0,B|373:157|373:157|401:189|455:190,1,120.59999631958,6|0,1:1|0:2,0:2:0:0:
501,135,74021,2,0,L|512:7,2,120.59999631958,0|8|2,1:2|0:2|0:2,0:0:0:0:
454,284,74878,2,0,P|400:298|331:268,1,120.59999631958,2|0,0:1|1:2,0:2:0:0:
273,235,75307,2,0,L|271:167,1,60.2999981597901,2|8,0:2|0:2,0:2:0:0:
216,117,75593,2,0,L|214:49,1,60.2999981597901,0|8,0:2|0:2,0:2:0:0:
115,18,75878,6,0,B|78:23|78:23|44:64|76:104,1,120.59999631958,6|0,1:1|0:2,0:2:0:0:
90,176,76307,2,0,B|64:312,2,120.59999631958,0|8|2,1:2|0:2|0:2,0:2:0:0:
208,60,77164,6,0,P|239:47|271:45,1,63.6499983003617,14|0,0:1|1:2,0:0:0:0:
355,79,77450,1,10,0:2:0:0:
355,79,77521,1,8,0:2:0:0:
355,79,77593,2,0,L|363:154,1,63.6499983003617,8|8,0:3|0:2,0:0:0:0:
419,202,77878,2,0,L|427:277,1,63.6499983003617,8|8,0:2|0:2,0:0:0:0:
363,349,78164,6,0,B|336:367|304:362|304:362|274:336|221:343,1,134,6|0,1:2|1:2,0:1:0:0:
149,355,78593,2,0,B|116:364|116:364|80:350,1,67,8|0,0:2|0:2,0:0:0:0:
13,301,78878,1,2,1:2:0:0:
13,301,79021,2,0,L|31:211,1,67,0|8,1:2|0:2,0:0:0:0:
0,141,79307,6,0,B|52:129|52:129|72:111|72:111|126:97,1,134,2|0,1:2|1:2,0:0:0:0:
194,158,79735,2,0,L|176:248,1,67,8|0,0:2|0:2,0:0:0:0:
234,294,80021,2,0,P|277:290|324:294,1,67,2|0,1:2|1:2,0:0:0:0:
368,346,80307,1,8,0:2:0:0:
454,301,80450,6,0,P|467:261|462:162,1,134,2|0,1:1|1:2,0:1:0:0:
435,87,80878,2,0,L|501:76,1,67,8|2,0:2|0:2,0:0:0:0:
380,153,81164,2,0,L|313:142,1,67,0|0,1:2|1:2,0:0:0:0:
258,209,81450,1,8,0:2:0:0:
195,152,81593,5,2,1:1:0:0:
195,152,81664,1,0,1:2:0:0:
195,152,81735,2,0,L|189:67,1,67,0|0,1:2|1:2,0:2:0:0:
138,14,82021,2,0,P|102:11|52:18,1,67,8|0,0:2|0:2,0:2:0:0:
17,82,82307,2,0,L|11:167,1,67,0|0,1:2|1:2,0:0:0:0:
28,235,82593,1,8,0:2:0:0:
120,195,82735,6,0,B|202:177|169:214|262:202,1,134,6|0,1:1|1:2,0:2:0:0:
311,139,83164,2,0,P|315:97|330:55,1,67,8|0,0:2|0:2,0:0:0:0:
391,18,83450,1,2,1:2:0:0:
391,18,83593,2,0,P|420:16|471:31,1,67,0|8,1:2|0:2,0:0:0:0:
510,105,83878,6,0,P|515:163|493:248,1,134,2|0,1:2|1:2,0:0:0:0:
452,311,84307,2,0,L|459:377,1,67,8|0,0:2|0:2,0:0:0:0:
364,321,84593,2,0,P|318:304|226:315,1,134,2|8,1:2|0:2,0:0:0:0:
145,354,85021,5,2,1:1:0:0:
145,354,85093,1,0,1:2:0:0:
145,354,85164,2,0,B|111:363|111:363|62:342,1,67,0|0,1:2|1:2,0:2:0:0:
23,285,85450,2,0,L|35:208,1,67,8|0,0:2|0:2,0:2:0:0:
83,147,85735,2,0,B|114:136|114:136|146:143,1,67,0|0,1:2|1:2,0:0:0:0:
229,115,86021,1,8,0:2:0:0:
273,198,86164,6,0,L|261:275,1,67,2|0,1:1|1:2,0:0:0:0:
311,337,86450,2,0,P|357:351|392:343,1,67,0|8,1:2|0:2,0:0:0:0:
452,308,86735,2,0,L|464:231,1,67,2|0,1:1|1:2,0:0:0:0:
430,160,87021,1,8,0:2:0:0:
500,108,87164,1,8,0:2:0:0:
445,31,87307,6,0,B|371:12|393:61|310:39,1,134,6|0,1:1|1:2,0:2:0:0:
233,70,87735,2,0,P|195:55|168:52,1,67,8|0,0:2|0:2,0:0:0:0:
85,78,88021,2,0,P|69:109|60:171,1,67,2|0,1:2|1:2,0:0:0:0:
50,227,88307,1,8,0:2:0:0:
108,305,88450,6,0,P|172:321|253:283,1,134,2|0,1:2|1:2,0:0:0:0:
293,234,88878,2,0,L|303:164,1,67,8|0,0:2|0:2,0:0:0:0:
349,93,89164,2,0,P|381:83|418:90,1,67,2|0,1:2|1:2,0:0:0:0:
480,145,89450,1,8,0:2:0:0:
508,242,89593,6,0,B|514:324|514:324|492:359|446:350,1,134,2|0,1:1|1:2,0:2:0:0:
387,371,90021,2,0,P|343:358|301:351,1,67,8|2,0:2|0:2,0:0:0:0:
234,356,90307,2,0,P|190:369|148:376,1,67,0|0,1:2|1:2,0:0:0:0:
81,364,90593,1,8,0:2:0:0:
25,304,90735,5,2,1:1:0:0:
25,304,90807,1,0,1:2:0:0:
25,304,90878,2,0,L|40:214,1,67,0|0,1:2|1:2,0:2:0:0:
92,170,91164,2,0,P|60:158|27:155,1,67,8|0,0:2|0:2,0:2:0:0:
118,253,91450,2,0,P|151:249|182:238,1,67,0|0,1:2|1:2,0:0:0:0:
258,281,91735,1,8,0:2:0:0:
320,214,91878,6,0,B|311:167|311:167|319:139|319:139|305:73,1,134,6|0,1:1|1:2,0:2:0:0:
359,12,92307,2,0,P|387:6|430:9,1,67,8|0,0:2|0:2,0:0:0:0:
486,70,92593,2,0,B|495:117|495:117|487:145|487:145|498:200,1,134,2|8,1:2|0:2,0:0:0:0:
480,296,93021,5,2,1:2:0:0:
480,296,93093,1,0,1:2:0:0:
480,296,93164,2,0,P|439:303|387:284,1,67,0|0,1:2|1:2,0:0:0:0:
334,262,93450,2,0,L|330:181,1,67,8|0,0:2|0:2,0:0:0:0:
272,130,93735,2,0,L|268:49,1,67,2|0,1:2|1:2,0:0:0:0:
197,12,94021,1,8,0:2:0:0:
116,72,94164,6,0,P|101:126|130:222,1,134,2|0,1:1|1:2,0:0:0:0:
199,229,94593,2,0,P|238:222|276:223,1,67,12|0,0:2|0:2,0:2:0:0:
345,256,94878,2,0,P|355:298|355:325,1,67,2|0,1:2|1:2,0:0:0:0:
297,384,95164,1,8,0:2:0:0:
210,350,95307,6,0,L|140:344,1,67,6|0,1:1|1:2,0:0:0:0:
61,375,95593,2,0,L|68:302,1,67,8|8,2:2|2:2,0:0:0:0:
20,235,95878,1,8,0:2:0:0:
20,235,95950,1,8,0:2:0:0:
20,235,96021,2,0,L|27:162,1,67,8|8,0:3|0:3,0:0:0:0:
103,125,96307,2,0,L|110:52,1,67,4|4,0:3|0:3,0:0:0:0:
193,16,96593,6,0,B|294:11|244:46|340:43,1,150.750005750656,6|0,1:2|1:2,0:2:0:0:
411,19,97164,2,0,B|443:12|443:12|468:29|470:92,1,100.500003833771,8|0,0:2|1:2,0:0:0:0:
425,177,97735,6,0,B|374:165|374:165|356:171|356:171|289:158,1,130.649994019318,6|0,1:2|1:2,0:2:0:0:
219,180,98307,2,0,P|195:167|135:163,1,87.0999960128786,8|0,0:2|1:2,0:0:0:0:
57,221,98878,6,0,P|50:283|191:349,1,234.5,6|0,1:2|0:2,0:2:0:0:
260,311,100021,6,0,L|276:217,1,67,12|0,0:2|1:2,0:0:0:0:
222,172,100307,2,0,L|238:78,1,67,8|8,0:2|0:2,0:0:0:0:
284,35,100593,1,8,0:2:0:0:
284,35,100735,1,8,0:2:0:0:
353,87,100878,1,8,0:2:0:0:
433,34,101021,6,0,B|480:24|480:24|517:56|497:125,1,147.400004498291,6|0,1:1|1:2,0:1:0:0:
455,201,101450,2,0,P|420:200|378:187,1,73.7000022491456,8|0,0:2|0:2,0:0:0:0:
288,204,101735,2,0,P|252:193|216:192,1,73.7000022491456,2|0,1:2|1:2,0:0:0:0:
140,132,102021,1,8,0:2:0:0:
58,195,102164,6,0,B|16:248|35:303|35:303|83:338,1,147.400004498291,2|0,1:2|1:2,0:2:0:0:
142,373,102593,2,0,P|185:363|224:365,1,73.7000022491456,8|0,0:2|0:2,0:2:0:0:
302,324,102878,2,0,B|320:364|374:368|374:368|392:342|447:337,1,147.400004498291,2|8,1:2|0:2,0:2:0:0:
499,265,103307,6,0,P|512:187|474:127,1,147.400004498291,2|0,1:1|1:2,0:0:0:0:
388,94,103735,2,0,P|353:95|312:118,1,73.7000022491456,8|0,0:2|0:0,0:0:0:0:
255,184,104021,1,2,1:2:0:0:
255,184,104164,1,0,1:2:0:0:
166,147,104307,1,8,0:2:0:0:
86,212,104450,6,0,B|52:228|52:228|-12:201|4:131,1,147.400004498291,2|0,1:2|1:2,0:2:0:0:
38,51,104878,2,0,L|120:39,1,73.7000022491456,8|0,0:2|0:2,0:2:0:0:
203,64,105164,2,0,L|285:52,1,73.7000022491456,2|0,1:2|1:2,0:0:0:0:
358,4,105450,1,8,0:2:0:0:
451,44,105593,6,0,P|472:86|470:188,1,147.400004498291,6|0,1:1|1:2,0:2:0:0:
430,271,106021,2,0,P|465:280|501:287,1,73.7000022491456,8|0,0:2|0:2,0:2:0:0:
372,193,106307,2,0,P|336:183|300:176,1,73.7000022491456,2|0,1:2|1:2,0:0:0:0:
221,120,106593,1,8,0:2:0:0:
130,177,106735,6,0,B|104:259|104:259|107:292|148:315,1,147.400004498291,2|0,1:2|1:2,0:2:0:0:
211,369,107164,2,0,P|247:361|292:360,1,73.7000022491456,8|0,0:2|0:2,0:2:0:0:
378,375,107450,2,0,P|414:373|450:365,1,73.7000022491456,2|0,1:2|1:2,0:2:0:0:
501,283,107735,2,0,P|498:243|483:186,1,73.7000022491456,8|0,0:2|1:2,0:2:0:0:
402,153,108021,5,2,0:2:0:0:
402,153,108164,2,0,L|320:163,1,73.7000022491456,0|8,1:2|0:2,0:0:0:0:
267,237,108450,1,2,0:2:0:0:
267,237,108593,2,0,L|185:247,1,73.7000022491456,0|0,1:2|1:2,0:0:0:0:
93,220,108878,5,10,0:2:0:0:
93,220,109021,2,0,P|72:152|98:66,1,147.400004498291,2|0,1:1|1:2,0:0:0:0:
162,16,109450,2,0,P|198:15|249:34,1,73.7000022491456,8|0,0:2|0:2,0:2:0:0:
325,68,109735,1,2,1:1:0:0:
325,68,109878,1,0,1:2:0:0:
408,22,110021,1,8,0:2:0:0:
495,77,110164,6,0,L|486:239,1,147.400004498291,6|0,1:1|1:2,0:2:0:0:
456,316,110593,2,0,P|424:318|381:302,1,73.7000022491456,8|0,0:2|0:2,0:2:0:0:
296,340,110878,2,0,P|261:327|225:328,1,73.7000022491456,2|0,1:2|1:2,0:0:0:0:
137,368,111164,1,8,0:2:0:0:
48,318,111307,6,0,P|35:267|68:166,1,147.400004498291,2|0,1:2|1:2,0:2:0:0:
110,95,111735,2,0,L|94:22,1,73.7000022491456,8|0,0:2|0:2,0:2:0:0:
203,117,112021,2,0,P|274:140|344:110,1,147.400004498291,2|8,1:2|0:0,0:0:0:0:
422,53,112450,6,0,B|469:29|469:29|516:52|504:115,1,147.400004498291,2|0,1:1|1:2,0:0:0:0:
467,197,112878,2,0,P|426:187|387:186,1,73.7000022491456,8|0,0:2|0:2,0:0:0:0:
311,233,113164,2,0,P|274:230|238:221,1,73.7000022491456,2|0,1:2|1:2,0:0:0:0:
170,153,113450,1,8,0:2:0:0:
82,212,113593,6,0,B|51:255|48:311|48:311|51:329|80:358,1,147.400004498291,2|0,1:2|1:2,0:0:0:0:
159,378,114021,2,0,L|171:291,1,73.7000022491456,10|0,0:2|0:2,0:0:0:0:
251,254,114307,2,0,L|261:327,1,73.7000022491456,2|0,1:2|1:2,0:0:0:0:
347,370,114593,2,0,L|357:296,1,73.7000022491456,10|0,0:2|0:2,0:0:0:0:
448,247,114878,6,0,B|463:157|484:215|497:111,1,147.400004498291,6|8,1:1|0:2,0:2:0:0:
328,19,115450,2,0,L|239:28,1,73.7000022491456,2|0,1:2|1:2,0:2:0:0:
254,26,115664,1,0,1:2:0:0:
254,26,115735,1,8,0:2:0:0:
218,118,115878,6,0,B|228:213|255:165|267:253,1,147.400004498291,2|0,1:2|1:2,0:2:0:0:
229,342,116307,2,0,P|178:364|75:326,1,147.400004498291,8|0,0:2|1:2,0:2:0:0:
18,278,116735,1,0,1:2:0:0:
13,182,116878,2,0,L|36:94,1,73.7000022491456,10|0,0:2|0:2,0:2:0:0:
105,48,117164,5,6,1:1:0:0:
255,166,117450,1,8,0:2:0:0:
407,48,117735,5,2,1:1:0:0:
407,48,117878,1,0,1:2:0:0:
315,19,118021,1,8,0:2:0:0:
162,134,118307,6,0,L|80:122,1,73.7000022491456,10|8,0:1|0:2,0:0:0:0:
13,183,118593,2,0,L|1:265,1,73.7000022491456,10|8,0:1|0:2,0:0:0:0:
62,332,118878,2,0,L|144:344,1,73.7000022491456,10|8,0:1|0:2,0:0:0:0:
225,375,119164,1,8,0:2:0:0:
285,300,119307,6,2,B|295:251|295:251|266:211|284:154,1,147.400004498291,6|0,1:1|1:2,0:1:0:0:
333,76,119735,2,0,P|374:66|416:66,1,73.7000022491456,8|0,0:2|0:2,0:0:0:0:
479,127,120021,2,0,B|495:180|466:220|466:220|476:269,1,147.400004498291,2|8,1:2|0:2,0:0:0:0:
436,360,120450,5,0,1:2:0:0:
436,360,120521,1,0,1:2:0:0:
436,360,120593,2,0,P|405:363|358:343,1,73.7000022491456,2|0,1:1|1:2,0:2:0:0:
273,374,120878,2,0,P|242:377|195:357,1,73.7000022491456,8|0,0:2|0:2,0:2:0:0:
120,311,121164,1,2,1:2:0:0:
120,311,121307,2,0,P|89:314|42:294,1,73.7000022491456,0|0,1:2|0:2,0:2:0:0:
6,206,121593,6,0,B|20:149|20:149|29:146|29:146|51:66,1,147.400004498291,2|0,1:1|1:2,0:0:0:0:
132,20,122021,2,0,P|169:22|208:39,1,73.7000022491456,8|0,0:2|0:2,0:0:0:0:
256,121,122307,1,2,1:2:0:0:
256,121,122450,1,0,1:2:0:0:
192,192,122593,2,0,B|175:228|175:228|174:274,1,73.7000022491456,8|0,0:2|0:2,0:2:0:0:
236,345,122878,6,0,L|320:336,1,73.7000022491456,2|0,1:2|1:2,0:0:0:0:
398,373,123164,1,8,0:2:0:0:
468,308,123307,2,2,B|467:272|467:272|450:238,1,73.7000022491456,2|0,0:2|1:2,0:1:0:0:
488,149,123593,2,2,B|487:113|487:113|470:79,1,73.7000022491456,0|8,1:2|0:2,0:1:0:0:
382,28,123878,6,2,B|368:62|334:67|334:67|292:33|233:37,1,147.400004498291,2|0,1:2|1:2,0:1:0:0:
173,82,124307,2,0,P|138:67|88:67,1,73.7000022491456,10|0,0:2|0:2,0:0:0:0:
25,122,124593,2,0,L|2:212,1,73.7000022491456,2|0,1:1|1:2,0:0:0:0:
38,283,124878,1,10,0:2:0:0:
135,247,125021,6,0,L|212:238,1,73.7000022491456,0|0,1:2|1:2,0:0:0:0:
287,182,125307,2,2,L|297:107,1,73.7000022491456,2|8,1:1|0:2,0:1:0:0:
371,47,125593,2,2,L|448:56,1,73.7000022491456,2|0,0:2|1:2,0:1:0:0:
488,140,125878,2,2,L|478:215,1,73.7000022491456,0|8,1:2|0:2,0:1:0:0:
511,311,126164,6,2,B|422:282|452:344|361:308,1,147.400004498291,2|0,1:1|1:2,0:1:0:0:
289,366,126593,2,0,L|279:283,1,73.7000022491456,8|0,0:2|0:2,0:0:0:0:
197,244,126878,1,2,1:2:0:0:
197,244,127021,1,0,1:2:0:0:
116,296,127164,1,8,0:2:0:0:
33,234,127307,6,2,L|43:151,1,73.7000022491456,2|0,1:2|0:2,0:1:0:0:
135,135,127593,2,2,L|145:52,1,73.7000022491456,0|8,1:2|0:2,0:1:0:0:
235,26,127878,1,2,1:1:0:0:
235,26,127950,1,0,1:2:0:0:
235,26,128021,2,0,B|252:57|297:62|297:62|331:34|379:39,1,147.400004498291,0|8,1:2|0:2,0:0:0:0:
458,78,128450,6,0,P|479:122|460:226,1,147.400004498291,4|0,1:2|1:2,0:0:0:0:
406,292,128878,1,10,2:2:0:0:
337,240,129021,1,0,2:2:0:0:
337,240,129093,1,0,2:2:0:0:
337,240,129164,2,0,B|259:212|274:260|182:230,1,147.400004498291,2|10,1:1|2:2,0:0:0:0:
116,162,129593,6,2,B|108:68,1,73.7000022491456,2|0,1:1|0:2,0:1:0:0:
14,98,129878,2,2,B|7:171,1,73.7000022491456,2|8,1:2|0:2,0:1:0:0:
0,267,130164,1,2,0:2:0:0:
77,340,130307,1,2,1:1:0:0:
77,340,130378,1,0,0:2:0:0:
77,340,130450,2,0,P|113:343|146:328,1,73.7000022491456,0|8,1:2|0:2,0:0:0:0:
226,368,130735,6,2,B|235:313|235:313|223:286|223:286|232:224,1,147.400004498291,2|0,1:1|1:2,0:1:0:0:
162,157,131164,2,0,B|127:172|127:172|69:138|91:67,1,147.400004498291,8|0,0:2|1:2,0:2:0:0:
149,4,131593,1,0,1:2:0:0:
149,4,131735,1,8,0:2:0:0:
240,55,131878,6,2,B|275:87|328:80|328:80|349:54|393:46,1,147.400004498291,2|0,1:2|1:2,2:1:0:0:
466,67,132307,2,0,P|479:101|479:165,1,73.7000022491456,8|0,0:2|0:2,0:2:0:0:
505,231,132593,2,0,P|501:267|488:301,1,73.7000022491456,0|0,1:2|1:2,0:0:0:0:
420,369,132878,1,8,0:2:0:0:
336,308,133021,6,0,B|322:259|322:259|346:224|333:161,1,147.400004498291,4|2,1:2|1:1,0:2:0:0:
283,83,133450,2,0,P|250:63|205:59,1,73.7000022491456,8|0,0:1|1:2,0:0:0:0:
131,100,133735,1,10,0:1:0:0:
131,100,133878,2,0,P|94:105|63:125,1,73.7000022491456,0|8,1:2|0:1,0:0:0:0:
13,215,134164,5,2,1:2:0:0:
13,215,134307,2,0,B|12:280|73:298|73:298|91:284|119:277,1,147.400004498291,10|8,0:1|0:2,0:0:0:0:
183,335,134735,2,0,B|276:320|246:378|334:363,1,147.400004498291,2|0,1:1|1:2,0:0:0:0:
417,348,135164,2,0,L|426:271,1,73.7000022491456,8|0,0:2|1:2,0:2:0:0:
499,201,135450,6,0,L|508:124,1,73.7000022491456,14|0,2:1|1:2,0:0:0:0:
504,120,135664,1,0,2:2:0:0:
502,112,135735,2,0,P|471:99|415:98,1,73.7000022491456,0|0,2:2|1:2,0:0:0:0:
340,63,136021,6,0,P|303:60|269:46,1,73.7000022491456,14|0,2:1|1:2,0:0:0:0:
267,38,136235,1,0,2:2:0:0:
263,30,136307,2,0,P|229:16|193:14,1,73.7000022491456,0|0,2:2|1:2,0:0:0:0:
99,60,136593,6,0,L|83:146,1,73.7000022491456,10|8,0:1|0:2,0:0:0:0:
93,228,136878,2,0,L|77:314,1,73.7000022491456,10|8,0:1|0:2,0:0:0:0:
142,373,137164,1,10,0:1:0:0:
142,373,137307,1,8,0:2:0:0:
212,308,137450,1,10,0:1:0:0:
299,354,137593,6,2,B|360:371|360:371|420:345,1,120.59999631958,6|0,1:2|0:2,0:1:0:0:
478,312,138021,1,0,1:2:0:0:
446,182,138307,1,8,0:2:0:0:
316,211,138593,1,0,3:2:0:0:
316,211,138735,1,0,1:2:0:0:
316,211,138878,2,0,L|326:77,2,120.59999631958,2|0|8,0:2|1:2|0:2,0:0:0:0:
215,318,139735,5,0,3:2:0:0:
215,318,139878,2,2,P|159:332|98:304,1,120.59999631958,2|0,1:2|0:2,0:1:0:0:
43,259,140307,1,0,1:2:0:0:
5,131,140593,1,8,0:2:0:0:
99,38,140878,1,0,3:2:0:0:
99,38,141021,1,0,1:2:0:0:
99,38,141164,2,0,L|237:29,2,120.59999631958,2|0|8,0:2|1:2|0:2,0:0:0:0:
8,153,142021,5,8,0:2:0:0:
8,153,142164,2,2,P|0:213|15:277,1,120.59999631958,6|0,1:2|0:2,0:1:0:0:
54,339,142593,1,0,1:2:0:0:
177,291,142878,1,8,0:2:0:0:
302,358,143164,1,0,3:2:0:0:
302,358,143307,1,0,1:2:0:0:
302,358,143450,2,0,B|357:369|357:369|426:342,2,120.59999631958,2|0|8,0:2|1:2|0:2,0:0:0:0:
170,298,144307,5,0,3:2:0:0:
170,298,144450,2,2,B|185:236|154:241|171:166,1,120.59999631958,2|0,1:2|0:2,0:1:0:0:
196,108,144878,1,0,1:2:0:0:
301,27,145164,1,8,0:2:0:0:
433,79,145450,1,0,3:2:0:0:
433,79,145593,1,0,1:2:0:0:
433,79,145735,2,0,L|426:152,1,60.2999981597901,2|8,0:2|0:2,0:2:0:0:
467,207,146021,2,0,L|460:280,1,60.2999981597901,2|0,2:2|1:2,0:2:0:0:
395,311,146307,2,0,L|388:384,2,60.2999981597901,8|8|8,0:2|0:2|0:2,0:0:0:0:
341,237,146735,6,2,B|273:214|281:263|214:240,1,127.299996600723,6|0,1:2|0:2,0:1:0:0:
144,220,147164,1,0,1:2:0:0:
53,113,147450,1,8,0:2:0:0:
174,39,147735,1,0,3:2:0:0:
174,39,147878,1,0,1:2:0:0:
174,39,148021,2,0,L|330:29,2,127.299996600723,2|0|8,0:2|1:2|0:2,0:0:0:0:
49,131,148878,5,8,0:2:0:0:
49,131,149021,2,2,P|30:192|53:261,1,127.299996600723,6|0,1:2|0:2,0:1:0:0:
89,317,149450,1,0,1:2:0:0:
226,290,149735,1,8,0:2:0:0:
252,158,150021,1,0,3:2:0:0:
252,158,150164,1,0,1:2:0:0:
252,158,150307,2,0,L|259:74,1,63.6499983003617,2|8,0:2|0:2,0:0:0:0:
321,49,150593,2,0,L|405:56,1,63.6499983003617,8|8,0:2|0:2,0:0:0:0:
422,122,150878,2,0,L|415:206,1,63.6499983003617,8|8,0:2|0:2,0:0:0:0:
459,260,151164,1,4,0:3:0:0:
459,260,151307,1,4,0:3:0:0:
398,327,151450,6,0,P|319:332|257:302,2,134,6|0|8,1:2|1:2|0:2,0:2:0:0:
510,195,152307,1,8,0:2:0:0:
510,195,152450,2,0,B|503:144|503:144|510:123|510:123|500:48,1,134,0|0,1:2|0:2,0:2:0:0:
439,17,152878,1,0,1:2:0:0:
297,78,153164,1,12,0:2:0:0:
297,78,153307,2,0,L|312:232,1,134,0|0,1:2|1:2,0:2:0:0:
268,285,153735,6,0,L|217:291,3,36.8500011245728,2|0|0|0,1:2|1:2|1:2|1:2,0:0:0:0:
204,315,154021,2,0,L|153:321,3,36.8500011245728,0|0|0|0,1:3|1:2|1:2|1:2,0:0:0:0:
136,340,154307,2,0,L|85:346,3,36.8500011245728,8|0|0|0,1:2|1:2|1:2|1:2,0:0:0:0:
65,328,154593,6,0,L|61:285,3,36.8500011245728,14|0|0|0,1:2|1:2|1:2|1:2,0:0:0:0:
35,265,154878,2,0,L|31:222,3,36.8500011245728,0|0|0|0,1:3|1:2|1:2|1:2,0:0:0:0:
9,198,155164,6,0,P|8:165|23:117,1,73.7000022491456,12|0,0:2|0:2,0:2:0:0:
86,68,155450,1,8,0:2:0:0:
86,68,155593,1,8,0:2:0:0:
153,123,155735,1,8,0:2:0:0:
232,69,155878,6,0,B|321:50|295:100|393:82,1,147.400004498291,6|0,1:1|1:2,0:2:0:0:
422,169,156307,2,0,P|456:159|510:163,1,73.7000022491456,8|0,0:2|0:2,0:0:0:0:
510,254,156593,2,0,P|476:264|422:260,1,73.7000022491456,2|0,1:2|1:2,0:0:0:0:
359,318,156878,1,8,0:2:0:0:
282,249,157021,6,0,B|275:198|275:198|289:170|289:170|281:101,1,147.400004498291,2|0,1:2|1:2,0:2:0:0:
215,35,157450,2,0,P|172:31|133:39,1,73.7000022491456,8|0,0:2|0:2,0:2:0:0:
77,107,157735,2,0,B|70:158|70:158|84:186|84:186|76:250,1,147.400004498291,2|8,1:2|0:2,0:2:0:0:
7,331,158164,6,0,B|102:314|58:358|154:342,1,147.400004498291,2|0,1:1|1:2,0:0:0:0:
243,369,158593,2,0,P|248:327|260:297,1,73.7000022491456,8|0,0:2|0:2,0:0:0:0:
345,252,158878,1,2,1:2:0:0:
345,252,159021,1,0,1:2:0:0:
413,319,159164,1,8,0:2:0:0:
497,257,159307,6,0,P|505:192|479:106,1,147.400004498291,2|0,1:2|1:2,0:2:0:0:
420,40,159735,2,0,L|339:33,1,73.7000022491456,8|0,0:2|0:2,0:2:0:0:
262,79,160021,2,0,L|181:72,1,73.7000022491456,2|0,1:2|1:2,0:0:0:0:
99,35,160307,1,8,0:2:0:0:
24,106,160450,6,0,P|16:171|42:257,1,147.400004498291,6|0,1:1|1:2,0:2:0:0:
119,298,160878,2,0,L|209:282,1,73.7000022491456,8|0,0:2|0:2,0:0:0:0:
277,241,161164,2,0,L|292:159,1,73.7000022491456,2|0,1:2|1:2,0:0:0:0:
373,120,161450,1,8,0:2:0:0:
446,193,161593,6,0,B|472:231|474:294|474:294|435:336,1,147.400004498291,2|0,1:2|1:2,0:2:0:0:
354,352,162021,2,0,P|318:344|273:343,1,73.7000022491456,8|0,0:2|0:2,0:2:0:0:
188,370,162307,2,0,P|151:368|115:360,1,73.7000022491456,2|0,1:2|1:2,0:2:0:0:
33,308,162593,2,0,P|33:263|52:213,1,73.7000022491456,8|0,0:2|1:2,0:2:0:0:
131,181,162878,5,2,0:2:0:0:
131,181,163021,2,0,L|213:172,1,73.7000022491456,0|8,1:2|0:2,0:0:0:0:
294,219,163307,1,2,0:2:0:0:
294,219,163450,2,0,L|376:210,1,73.7000022491456,0|0,1:2|1:2,0:0:0:0:
461,165,163735,5,10,0:2:0:0:
461,165,163878,2,0,B|498:119|487:56|487:56|456:40,1,147.400004498291,2|0,1:1|1:2,0:0:0:0:
363,24,164307,2,0,P|331:39|272:36,1,73.7000022491456,8|0,0:2|0:2,0:2:0:0:
202,22,164593,1,2,1:1:0:0:
202,22,164735,1,0,1:2:0:0:
175,113,164878,1,8,0:2:0:0:
82,65,165021,6,0,B|47:57|47:57|-17:99|8:166,1,147.400004498291,6|0,1:1|1:2,0:2:0:0:
65,225,165450,2,0,P|97:227|140:211,1,73.7000022491456,8|0,0:2|0:2,0:0:0:0:
231,224,165735,2,0,P|265:211|301:212,1,73.7000022491456,2|0,1:2|1:2,0:0:0:0:
389,254,166021,1,8,0:2:0:0:
342,345,166164,6,0,P|277:368|187:347,1,147.400004498291,2|0,1:2|1:2,0:2:0:0:
107,379,166593,2,0,B|100:354|100:354|104:339|104:339|97:305,1,73.7000022491456,8|0,0:2|0:2,0:2:0:0:
23,246,166878,2,0,B|10:179|10:179|39:96,1,147.400004498291,2|8,1:2|0:2,0:2:0:0:
119,40,167307,6,0,B|210:21|173:82|272:70,1,147.400004498291,2|0,1:1|1:2,0:0:0:0:
343,115,167735,2,0,P|384:105|423:104,1,73.7000022491456,8|0,0:2|0:0,0:0:0:0:
497,152,168021,2,0,P|507:192|509:231,1,73.7000022491456,2|0,1:2|1:2,0:0:0:0:
500,320,168307,1,8,0:2:0:0:
412,266,168450,6,0,B|388:249|349:253|349:253|331:266|331:266|300:275|272:259,1,147.400004498291,2|0,1:2|1:2,0:2:0:0:
224,177,168878,2,0,P|224:143|202:93,1,73.7000022491456,10|0,0:2|0:2,0:0:0:0:
131,51,169164,2,0,P|97:51|47:73,1,73.7000022491456,2|0,1:2|1:2,0:0:0:0:
4,144,169450,2,0,P|4:178|26:228,1,73.7000022491456,10|0,0:2|0:2,0:0:0:0:
90,291,169735,6,0,B|174:267|152:322|253:297,1,147.400004498291,6|8,1:1|2:2,0:2:0:0:
408,380,170307,2,0,L|415:299,1,73.7000022491456,2|0,1:2|1:2,0:2:0:0:
414,306,170521,1,0,1:2:0:0:
414,306,170593,1,8,0:2:0:0:
494,244,170735,6,0,B|481:193|481:193|490:165|490:165|476:85,1,147.400004498291,2|0,1:2|1:2,0:2:0:0:
394,52,171164,2,0,B|348:40|348:40|305:85|247:59,1,147.400004498291,8|0,0:2|1:2,0:2:0:0:
164,34,171593,1,0,1:2:0:0:
80,79,171735,2,0,P|62:128|61:165,1,73.7000022491456,10|0,0:2|0:2,0:2:0:0:
75,244,172021,5,6,1:1:0:0:
256,192,172307,1,8,0:2:0:0:
437,244,172593,5,2,1:1:0:0:
437,244,172735,1,0,1:2:0:0:
355,193,172878,1,8,0:2:0:0:
230,338,173164,6,0,L|150:351,1,73.7000022491456,10|8,0:1|0:2,0:0:0:0:
62,368,173450,2,0,L|49:279,1,73.7000022491456,10|8,0:1|0:2,0:0:0:0:
10,208,173735,2,0,L|-3:119,1,73.7000022491456,10|8,0:1|0:2,0:0:0:0:
27,42,174021,1,8,0:2:0:0:
126,70,174164,6,0,B|187:62|187:62|207:36|207:36|284:26,1,147.400004498291,6|0,1:1|1:2,0:2:0:0:
344,75,174593,2,0,L|441:69,1,73.7000022491456,8|0,0:2|0:2,0:0:0:0:
491,131,174878,2,0,P|501:161|490:225,1,73.7000022491456,2|0,1:2|1:2,0:0:0:0:
452,287,175164,1,8,0:2:0:0:
371,222,175307,6,0,B|347:209|318:214|318:214|288:235|288:235|271:240|231:226,1,147.400004498291,2|0,1:2|1:2,0:2:0:0:
173,150,175735,2,0,P|178:106|164:72,1,73.7000022491456,8|0,0:2|0:2,0:2:0:0:
74,58,176021,2,0,P|30:130|36:189,1,147.400004498291,2|8,1:2|0:2,0:2:0:0:
89,276,176450,6,0,P|139:263|247:278,1,147.400004498291,2|0,1:1|1:2,0:0:0:0:
295,346,176878,2,0,P|338:363|375:365,1,73.7000022491456,8|0,0:2|0:2,0:0:0:0:
463,351,177164,1,2,1:2:0:0:
463,351,177307,1,0,1:2:0:0:
412,269,177450,1,8,0:2:0:0:
485,194,177593,6,0,B|504:155|504:155|504:91|455:57,1,147.400004498291,2|0,1:2|1:2,0:2:0:0:
375,23,178021,2,0,L|293:11,1,73.7000022491456,8|0,0:2|0:2,0:0:0:0:
230,76,178307,2,0,P|215:113|219:159,1,73.7000022491456,2|0,1:2|1:2,0:0:0:0:
259,232,178593,1,8,0:2:0:0:
198,319,178735,6,0,P|119:334|44:302,1,147.400004498291,6|0,1:1|1:2,0:2:0:0:
1,233,179164,2,0,L|16:155,1,73.7000022491456,8|0,0:2|0:2,0:0:0:0:
104,124,179450,2,0,L|119:46,1,73.7000022491456,2|0,1:2|1:2,0:0:0:0:
208,17,179735,1,8,0:2:0:0:
285,82,179878,6,0,B|320:104|354:99|354:99|384:73|422:81,1,147.400004498291,2|0,1:2|1:2,0:2:0:0:
496,144,180307,2,0,P|504:179|503:235,1,73.7000022491456,8|0,0:2|0:2,0:2:0:0:
465,304,180593,2,0,P|430:312|374:311,1,73.7000022491456,2|0,1:2|1:2,0:2:0:0:
321,248,180878,2,0,L|309:156,1,73.7000022491456,8|0,0:2|1:2,0:2:0:0:
268,84,181164,5,2,0:1:0:0:
268,84,181307,2,0,P|232:75|195:74,1,73.7000022491456,0|8,1:2|0:2,0:0:0:0:
134,150,181593,1,2,0:1:0:0:
134,150,181735,2,0,P|98:141|61:140,1,73.7000022491456,0|0,1:2|1:2,0:0:0:0:
0,228,182021,5,10,0:2:0:0:
0,228,182164,2,0,B|7:327|7:327|33:338|63:313,1,147.400004498291,2|10,1:1|0:2,0:2:0:0:
142,356,182593,2,0,P|177:345|218:347,1,73.7000022491456,10|8,0:1|0:2,0:0:0:0:
310,374,182878,1,10,0:1:0:0:
310,374,183021,1,8,0:2:0:0:
368,298,183164,1,8,0:2:0:0:
275,257,183307,6,0,P|253:189|279:103,1,147.400004498291,6|0,1:1|1:2,0:2:0:0:
338,48,183735,2,0,L|421:43,1,73.7000022491456,8|0,0:2|0:2,0:0:0:0:
489,99,184021,2,0,P|499:127|505:186,1,73.7000022491456,2|0,1:2|1:2,0:0:0:0:
491,265,184307,1,8,0:2:0:0:
402,311,184450,6,0,B|347:301|347:301|320:321|320:321|262:314,1,147.400004498291,2|0,1:2|1:2,0:2:0:0:
219,228,184878,2,0,L|213:142,1,73.7000022491456,8|0,0:2|0:2,0:2:0:0:
177,65,185164,2,0,B|151:30|151:30|85:19|52:54,1,147.400004498291,2|8,1:2|0:2,0:2:0:0:
4,143,185593,6,0,L|14:293,1,147.400004498291,2|0,1:1|1:2,0:0:0:0:
79,361,186021,2,0,P|114:361|151:349,1,73.7000022491456,8|0,0:2|0:2,0:0:0:0:
246,358,186307,2,0,P|281:347|317:346,1,73.7000022491456,2|0,1:2|0:0,0:2:0:0:
411,371,186593,1,8,0:2:0:0:
489,304,186735,6,0,B|506:247|454:244|479:157,1,147.400004498291,2|0,1:2|1:2,0:2:0:0:
436,73,187164,2,0,L|509:64,1,73.7000022491456,10|0,0:2|0:2,0:0:0:0:
381,153,187450,2,0,L|304:144,1,73.7000022491456,2|0,1:2|1:2,0:0:0:0:
239,212,187735,2,0,L|162:203,1,73.7000022491456,10|0,0:2|0:2,0:0:0:0:
70,156,188021,6,0,P|59:103|106:11,1,147.400004498291,6|8,1:1|0:2,0:2:0:0:
284,55,188593,2,0,L|373:46,1,73.7000022491456,2|0,1:2|1:2,0:2:0:0:
357,47,188807,1,0,1:2:0:0:
357,47,188878,1,8,0:2:0:0:
456,3,189021,6,0,P|490:66|481:138,1,147.400004498291,2|0,1:2|1:2,0:2:0:0:
394,181,189450,2,0,B|311:151|326:207|230:172,1,147.400004498291,8|0,0:2|1:2,0:2:0:0:
165,132,189878,1,0,0:2:0:0:
78,172,190021,2,0,P|64:204|59:261,1,73.7000022491456,10|0,0:2|0:2,0:2:0:0:
101,339,190307,5,14,0:2:0:0:
101,339,190450,2,0,P|146:359|226:338,1,134,0|0,1:2|1:2,0:2:0:0:
298,290,190878,5,14,0:2:0:0:
298,290,191021,2,0,P|343:310|423:289,1,134,0|0,1:2|1:2,0:2:0:0:
485,216,191450,6,0,L|467:138,1,73.7000022491456,10|8,0:1|0:2,0:0:0:0:
373,133,191735,2,0,L|355:55,1,73.7000022491456,10|8,0:1|0:2,0:0:0:0:
280,29,192021,1,10,0:1:0:0:
280,29,192164,1,8,0:2:0:0:
207,76,192307,1,8,0:2:0:0:
116,38,192450,6,0,B|79:28|79:28|20:51|38:123,1,134,6|0,1:1|1:2,0:2:0:0:
90,170,192878,2,0,L|171:161,1,67,8|0,0:2|0:2,0:2:0:0:
228,212,193164,1,2,1:2:0:0:
309,180,193307,2,0,L|318:98,1,67,0|8,1:2|0:2,0:0:0:0:
389,52,193593,6,0,P|444:47|493:126,1,134,2|0,1:2|1:2,0:2:0:0:
508,188,194021,2,0,L|499:270,1,67,8|0,0:2|0:2,0:2:0:0:
437,315,194307,2,0,L|428:397,2,67,2|0|8,1:2|1:2|0:2,0:0:0:0:
379,232,194735,6,0,B|305:210|321:259|246:237,1,134,2|0,1:1|1:2,0:0:0:0:
193,169,195164,2,0,P|195:142|185:97,1,67,8|2,0:2|0:2,0:0:0:0:
127,39,195450,2,0,P|100:37|55:47,1,67,0|0,1:2|1:2,0:0:0:0:
6,112,195735,1,8,0:2:0:0:
34,200,195878,6,0,L|51:339,1,134,2|0,1:2|1:2,0:2:0:0:
128,372,196307,2,0,L|210:345,1,67,8|0,0:2|0:2,0:0:0:0:
256,291,196593,1,2,1:2:0:0:
321,351,196735,2,0,L|384:371,1,67,0|8,1:2|0:2,0:0:0:0:
474,337,197021,6,0,P|490:273|465:207,1,134,6|0,1:1|1:2,0:2:0:0:
390,168,197450,2,0,L|316:182,1,67,8|0,0:2|0:2,0:2:0:0:
256,234,197735,1,2,1:2:0:0:
187,180,197878,2,0,L|122:168,1,67,0|8,1:2|0:2,0:0:0:0:
37,209,198164,6,0,B|16:201|0:187|0:187|-7:134|31:94,1,134,2|0,1:2|1:2,0:2:0:0:
88,42,198593,2,0,P|127:33|179:35,1,67,8|0,0:2|0:2,0:0:0:0:
238,67,198878,1,2,1:2:0:0:
238,67,199021,2,0,P|277:76|329:74,1,67,0|8,1:2|0:2,0:2:0:0:
392,38,199307,6,0,P|454:19|498:76,1,134,2|0,1:1|1:2,0:0:0:0:
508,152,199735,2,0,L|492:235,1,67,8|2,0:2|0:2,0:0:0:0:
466,300,200021,2,0,L|480:384,2,67,0|0|8,1:2|1:2|0:2,0:0:0:0:
378,245,200450,6,0,B|369:199|369:199|380:174|380:174|365:100,1,134,2|0,1:2|1:2,0:2:0:0:
311,49,200878,1,8,0:2:0:0:
250,112,201021,2,0,B|217:120|217:120|186:105,1,67,2|8,1:2|0:2,0:0:0:0:
142,31,201307,2,0,B|111:16|111:16|78:24,1,67,2|8,1:2|0:2,0:0:0:0:
13,99,201593,6,0,L|0:245,1,134,6|0,1:1|1:2,0:2:0:0:
51,303,202021,2,0,P|88:312|126:308,1,67,8|0,0:2|0:2,0:2:0:0:
191,365,202307,1,2,1:2:0:0:
191,365,202450,2,0,P|228:374|266:370,1,67,0|8,1:2|0:2,0:2:0:0:
324,306,202735,6,0,L|337:160,1,134,2|0,1:2|1:2,0:2:0:0:
393,105,203164,2,0,P|426:103|473:120,1,67,8|0,0:2|0:2,0:0:0:0:
507,184,203450,2,0,L|501:250,2,67,2|0|8,1:2|1:2|0:2,0:0:0:0:
484,92,203878,6,0,B|414:61|421:114|338:81,1,134,2|0,1:1|1:2,0:0:0:0:
270,115,204307,2,0,P|262:78|244:44,1,67,8|0,0:2|0:2,0:2:0:0:
164,29,204593,1,2,1:2:0:0:
116,101,204735,2,0,P|124:138|142:172,1,67,0|8,1:2|0:2,0:0:0:0:
222,213,205021,6,0,B|284:205|284:205|296:208|296:208|358:199,1,134,2|0,1:2|1:2,0:2:0:0:
420,141,205450,1,8,0:2:0:0:
490,191,205593,2,0,P|500:222|493:278,1,67,2|0,0:2|1:2,0:2:0:0:
460,333,205878,2,0,P|431:342|376:334,1,67,0|8,1:2|0:2,0:2:0:0:
298,366,206164,6,0,P|256:331|160:335,1,134,6|0,1:2|1:2,0:2:0:0:
107,355,206593,1,8,0:2:0:0:
2,242,206878,2,0,L|14:163,1,67,0|0,1:2|1:2,0:0:0:0:
70,124,207164,1,8,0:2:0:0:
70,124,207307,2,0,B|93:149|133:143|133:143|155:119|201:120,1,134,2|0,1:2|1:2,0:2:0:0:
267,136,207735,1,8,0:2:0:0:
351,264,208021,2,0,L|341:340,2,67,0|0|8,1:2|1:2|0:2,0:0:0:0:
435,201,208450,6,0,B|470:168|470:168|480:125|459:83,1,134,6|0,1:2|1:2,0:2:0:0:
399,35,208878,2,0,L|309:23,1,67,8|0,0:2|1:2,0:0:0:0:
275,78,209164,2,0,L|185:66,1,67,10|0,0:2|1:2,0:0:0:0:
143,26,209450,2,0,L|53:14,1,67,8|0,0:2|1:2,0:0:0:0:
9,81,209735,6,0,L|16:170,1,73.7000022491456,10|8,0:2|0:2,0:0:0:0:
98,220,210021,2,0,L|103:146,1,73.7000022491456,10|8,0:2|0:2,0:0:0:0:
184,107,210307,1,10,0:2:0:0:
184,107,210450,1,8,0:2:0:0:
256,157,210593,1,8,0:2:0:0:
344,106,210735,5,6,1:2:0:0:
256,192,210807,12,0,218878,0:2:0:0:
