osu file format v14

[General]
AudioFilename: audio.mp3
AudioLeadIn: 0
PreviewTime: 50718
Countdown: 0
SampleSet: Soft
StackLeniency: 0.7
Mode: 0
LetterboxInBreaks: 0
WidescreenStoryboard: 1

[Editor]
Bookmarks: 9593,18735,23307,27878,37021,46307,50735,59878,69021,73593,78164,87307,96593,101021,110164,119307,128450,128593,137593,146878,155878,165021,174164,183307,192450,201593,206164,210735,218878
DistanceSpacing: 0.6
BeatDivisor: 4
GridSize: 32
TimelineZoom: 2.199999

[Metadata]
Title:Control
TitleUnicode:Control
Artist:jAcKp*TrASH feat. AiCA
ArtistUnicode:jAcKp☆TrASH feat. AiCA
Creator:Lasse
Version:Affection
Source:CHU×ペット
Tags:japanese rock visual novel opening chu x pet eroge gwave jackpotrash aurora SHOW mikemike TAKUYA hishiro chizuru amb1d3x
BeatmapID:3424120
BeatmapSetID:1676042

[Difficulty]
HPDrainRate:6
CircleSize:4
OverallDifficulty:9
ApproachRate:9.5
SliderMultiplier:1.8
SliderTickRate:1

[Events]
//Background and Video events
0,0,"rf534645.jpg",0,0
//Break Periods
//Storyboard Layer 0 (Background)
//Storyboard Layer 1 (Fail)
//Storyboard Layer 2 (Pass)
//Storyboard Layer 3 (Foreground)
//Storyboard Layer 4 (Overlay)
//Storyboard Sound Samples

[TimingPoints]
593,285.714285714286,4,2,1,60,1,0
8164,-100,4,2,2,65,0,0
9593,-100,4,2,1,70,0,0
14164,-100,4,2,2,70,0,0
14235,-100,4,2,1,70,0,0
23307,-111.111111111111,4,2,2,60,0,0
23450,-111.111111111111,4,2,1,60,0,0
25593,-111.111111111111,4,2,2,60,0,0
25735,-111.111111111111,4,2,1,60,0,0
26878,-111.111111111111,4,2,2,60,0,0
27021,-111.111111111111,4,2,1,60,0,0
27878,276.497695852535,4,2,1,65,1,0
27878,-100,4,2,1,65,0,0
28293,285.714285714286,4,2,1,65,1,0
29150,285.714285714286,4,2,1,65,1,0
32578,285.714285714286,4,2,1,65,1,0
45006,295.566502463054,4,2,1,65,1,0
45450,285.714285714286,4,2,1,65,1,0
46307,285.714285714286,4,2,1,60,1,0
46307,-133.333333333333,4,2,1,60,0,0
47449,-153.846153846153,4,2,1,60,0,0
48592,-200,4,2,1,60,0,0
49164,-200,4,2,1,40,0,0
49235,-200,4,2,1,30,0,0
50235,-200,4,2,1,5,0,0
50307,-100,4,2,1,60,0,0
50735,-90.9090909090909,4,2,1,72,0,1
55307,-90.9090909090909,4,2,2,72,0,1
55450,-90.9090909090909,4,2,1,72,0,1
59807,-90.9090909090909,4,2,1,72,0,0
59878,-90.9090909090909,4,2,1,72,0,1
64593,-90.9090909090909,4,2,2,72,0,1
64735,-90.9090909090909,4,2,1,72,0,1
66878,-90.9090909090909,4,2,2,72,0,1
66950,-90.9090909090909,4,2,1,72,0,1
69021,-100,4,2,1,70,0,0
73592,-111.111111111111,4,2,2,60,0,0
73735,-111.111111111111,4,2,1,60,0,0
75878,-111.111111111111,4,2,2,60,0,0
76021,-111.111111111111,4,2,1,60,0,0
77164,-111.111111111111,4,2,2,60,0,0
77307,-111.111111111111,4,2,1,60,0,0
78164,-100,4,2,1,65,0,0
82735,-100,4,2,2,65,0,0
82878,-100,4,2,1,65,0,0
91878,-100,4,2,2,65,0,0
92021,-100,4,2,1,65,0,0
95307,-100,4,2,2,65,0,0
95378,-100,4,2,1,65,0,0
96592,-133.333333333333,4,2,1,60,0,0
97735,-153.846153846153,4,2,1,60,0,0
98878,-200,4,2,1,60,0,0
99021,-200,4,2,1,5,0,0
99878,-200,4,2,1,40,0,0
100021,-100,4,2,1,64,0,0
101021,-90.9090909090909,4,2,1,72,0,1
105593,-90.9090909090909,4,2,2,72,0,1
105735,-90.9090909090909,4,2,1,72,0,1
110092,-90.9090909090909,4,2,1,72,0,0
110164,-90.9090909090909,4,2,1,72,0,1
114878,-90.9090909090909,4,2,2,72,0,1
115021,-90.9090909090909,4,2,1,72,0,1
117164,-90.9090909090909,4,2,2,72,0,1
117235,-90.9090909090909,4,2,1,72,0,1
119307,-83.3333333333333,4,2,2,74,0,0
119450,-83.3333333333333,4,2,1,74,0,0
130735,-90.9090909090909,4,2,1,72,0,0
133021,-83.3333333333333,4,2,1,74,0,0
135450,-83.3333333333333,4,2,2,74,0,0
137592,-111.111111111111,4,2,1,62,0,0
146735,-105.263157894737,4,2,1,64,0,0
151449,-100,4,2,1,66,0,0
153735,-83.3333333333333,4,2,1,68,0,0
154593,-83.3333333333333,4,2,1,70,0,0
155307,-83.3333333333333,4,2,1,60,0,0
155450,-83.3333333333333,4,2,1,70,0,0
155878,-90.9090909090909,4,2,1,72,0,1
160450,-90.9090909090909,4,2,2,72,0,1
160593,-90.9090909090909,4,2,1,72,0,1
164949,-90.9090909090909,4,2,1,72,0,0
165021,-90.9090909090909,4,2,1,72,0,1
169735,-90.9090909090909,4,2,2,72,0,1
169878,-90.9090909090909,4,2,1,72,0,1
172021,-90.9090909090909,4,2,2,72,0,1
172093,-90.9090909090909,4,2,1,72,0,1
173164,-90.9090909090909,4,2,3,72,0,1
173235,-90.9090909090909,4,2,1,72,0,1
174092,-90.9090909090909,4,2,1,72,0,0
174164,-83.3333333333333,4,2,1,74,0,1
178735,-83.3333333333333,4,2,2,74,0,1
178878,-83.3333333333333,4,2,1,74,0,1
183235,-83.3333333333333,4,2,1,74,0,0
183307,-83.3333333333333,4,2,1,74,0,1
188021,-83.3333333333333,4,2,2,74,0,1
188164,-83.3333333333333,4,2,1,74,0,1
190307,-100,4,2,1,70,0,1
191450,-100,4,2,1,72,0,1
192021,-100,4,2,1,74,0,1
192449,-90.9090909090909,4,2,1,70,0,0
197021,-90.9090909090909,4,2,2,70,0,0
197164,-90.9090909090909,4,2,1,70,0,0
206164,-100,4,2,1,60,0,0
208450,-100,4,2,1,62,0,0
209735,-100,4,2,1,64,0,0
210021,-100,4,2,1,66,0,0
210307,-100,4,2,1,68,0,0
210735,-490.196078431372,4,2,2,60,0,0
210878,-490.196078431372,4,2,1,30,0,0
212021,-490.196078431372,4,2,1,25,0,0
213164,-490.196078431372,4,2,1,20,0,0
214307,-490.196078431372,4,2,1,15,0,0
215450,-490.196078431372,4,2,1,10,0,0
216593,-490.196078431372,4,2,71,5,0,0

[Colours]
Combo1 : 240,140,140
Combo2 : 200,180,220
Combo3 : 240,200,155
Combo4 : 150,185,220

[HitObjects]
40,168,593,5,10,1:1:0:0:
40,168,735,1,8,1:2:0:0:
472,216,1450,5,10,1:1:0:0:
472,216,1593,1,8,1:2:0:0:
138,125,2878,5,10,1:1:0:0:
138,125,3021,1,8,1:2:0:0:
374,259,3735,5,10,1:1:0:0:
374,259,3878,1,8,1:2:0:0:
185,212,5164,5,10,1:1:0:0:
327,172,5307,1,8,1:2:0:0:
169,133,6021,5,10,1:1:0:0:
343,251,6164,1,8,1:2:0:0:
148,240,7450,5,10,1:1:0:0:
364,144,7593,1,8,1:2:0:0:
176,101,8164,6,0,P|138:93|81:88,1,90,14|0,1:1|0:2,0:2:0:0:
330,262,8450,2,0,P|420:255|488:193,1,180,10|0,1:1|0:2,0:2:0:0:
153,67,9593,6,0,P|82:69|4:0,1,180,6|0,1:1|1:2,0:1:0:0:
223,135,10021,2,0,P|247:171|263:235,1,90,8|0,0:2|0:2,0:2:0:0:
132,162,10307,1,2,1:2:0:0:
247,37,10450,1,0,1:2:0:0:
372,152,10593,1,8,0:2:0:0:
234,307,10735,6,0,B|170:291|170:291|133:301|133:301|41:279,1,180,2|0,1:2|1:2,0:2:0:0:
356,287,11164,2,0,L|364:391,1,90,8|0,0:2|0:2,0:2:0:0:
490,290,11450,2,0,L|474:82,1,180,2|8,1:2|0:2,0:2:0:0:
385,15,11878,5,2,1:1:0:0:
385,15,11950,1,0,1:2:0:0:
385,15,12021,1,0,1:2:0:0:
300,194,12164,1,0,1:2:0:0:
134,83,12307,2,0,P|186:80|233:68,1,90,8|0,0:2|0:2,0:2:0:0:
244,333,12593,2,0,P|192:336|145:348,1,90,2|0,1:2|1:2,0:2:0:0:
55,374,12878,1,8,0:2:0:0:
221,222,13021,6,0,B|340:199|292:263|397:245,1,180,2|0,1:2|1:2,0:2:0:0:
493,214,13450,1,8,0:2:0:0:
157,67,13735,5,2,1:2:0:0:
257,9,13878,1,0,1:2:0:0:
252,121,14021,1,8,0:2:0:0:
72,18,14164,6,0,P|7:94|22:170,1,180,6|0,1:1|1:2,0:2:0:0:
201,296,14593,2,0,P|197:340|186:384,1,90,8|0,0:2|0:2,0:2:0:0:
75,285,14878,1,2,1:2:0:0:
281,204,15021,1,0,1:2:0:0:
113,108,15164,1,8,0:2:0:0:
311,22,15307,6,0,B|373:17|373:17|413:43|413:43|493:39,1,180,2|0,1:2|1:2,0:2:0:0:
411,283,15735,2,0,L|521:300,1,90,8|0,0:2|0:2,0:2:0:0:
284,149,16021,2,0,L|373:143,1,90,2|0,1:2|1:2,0:2:0:0:
278,366,16307,5,8,0:2:0:0:
184,297,16450,1,2,1:1:0:0:
184,297,16521,1,0,1:2:0:0:
184,297,16593,1,0,1:2:0:0:
300,247,16735,1,0,1:2:0:0:
394,316,16878,2,0,P|411:257|380:126,1,180,8|0,0:2|1:2,0:2:0:0:
296,81,17307,1,0,1:2:0:0:
200,106,17450,1,8,0:2:0:0:
38,12,17593,6,0,P|7:95|18:184,1,180,2|0,1:2|1:2,0:2:0:0:
162,289,18021,2,0,P|209:280|278:272,1,90,8|0,0:2|2:2,0:2:0:0:
250,274,18235,1,0,2:2:0:0:
250,274,18307,1,2,1:2:0:0:
100,382,18450,1,8,0:2:0:0:
200,165,18593,1,8,0:2:0:0:
340,339,18735,6,0,P|429:353|485:286,1,180,6|0,1:1|1:2,0:2:0:0:
418,75,19164,2,0,L|524:94,1,90,8|0,0:2|0:2,0:2:0:0:
394,266,19450,1,2,1:2:0:0:
303,232,19593,2,0,L|292:131,1,90,0|8,1:2|0:2,0:2:0:0:
101,7,19878,6,0,L|81:185,1,180,2|0,1:2|1:2,0:2:0:0:
324,45,20307,2,0,P|286:45|224:58,1,90,8|0,0:2|0:2,0:2:0:0:
429,239,20593,2,0,P|393:180|278:143,1,180,2|8,1:2|0:2,0:2:0:0:
119,321,21021,5,2,1:1:0:0:
119,321,21093,1,0,1:2:0:0:
119,321,21164,1,0,1:2:0:0:
229,366,21307,1,0,1:2:0:0:
30,254,21450,2,0,P|14:296|8:341,1,90,8|0,0:2|0:2,0:2:0:0:
198,193,21735,1,2,1:2:0:0:
116,99,21878,2,0,P|67:81|14:79,1,90,0|8,1:2|0:2,0:2:0:0:
223,206,22164,6,0,B|328:215|284:159|392:162,1,180,2|0,1:2|1:2,0:2:0:0:
500,327,22593,2,0,P|507:282|503:237,1,90,8|0,0:2|1:2,0:2:0:0:
503,237,22807,1,0,1:2:0:0:
503,237,22878,1,10,0:2:0:0:
385,81,23021,1,0,1:2:0:0:
223,206,23164,1,8,0:2:0:0:
386,242,23307,6,0,P|395:164|384:76,1,161.999995056153,6|0,1:1|2:2,0:2:0:0:
312,17,23735,1,0,1:2:0:0:
223,206,24021,1,8,0:2:0:0:
24,121,24307,1,2,0:2:0:0:
24,121,24450,1,0,1:2:0:0:
123,185,24593,6,0,P|223:177|309:160,1,161.999995056153,2|0,0:1|1:2,0:2:0:0:
391,28,25021,2,0,P|370:62|355:100,1,80.9999975280763,2|8,0:2|0:2,0:2:0:0:
426,259,25307,2,0,P|403:226|377:196,1,80.9999975280763,0|8,1:2|0:2,0:2:0:0:
123,185,25593,6,0,P|202:171|283:166,1,161.999995056153,6|0,1:1|0:2,0:2:0:0:
246,354,26021,2,0,P|166:367|85:372,1,161.999995056153,0|8,1:2|0:2,0:2:0:0:
0,332,26450,1,0,1:2:0:0:
130,266,26593,2,0,P|128:225|123:185,1,80.9999975280763,2|0,0:2|1:2,0:2:0:0:
82,47,26878,5,14,0:1:0:0:
0,140,27021,1,0,1:2:0:0:
210,87,27164,1,8,0:2:0:0:
131,192,27307,1,2,1:2:0:0:
131,192,27378,1,0,1:2:0:0:
131,192,27450,1,8,0:2:0:0:
167,1,27593,1,8,0:2:0:0:
360,32,27735,1,8,0:2:0:0:
410,115,27878,6,2,L|373:291,1,180,6|0,1:2|1:2,0:1:0:0:
272,304,28292,1,8,0:2:0:0:
427,384,28864,5,8,0:2:0:0:
512,204,29435,5,8,0:2:0:0:
241,54,30007,5,8,0:2:0:0:
381,0,30150,2,2,P|369:78|356:188,1,180,2|0,1:2|1:2,0:1:0:0:
347,291,30578,1,8,0:2:0:0:
127,330,31150,5,8,0:2:0:0:
267,384,31292,2,2,P|255:289|242:196,1,180,2|0,1:2|1:2,0:1:0:0:
218,97,31721,1,8,0:2:0:0:
0,78,32292,5,8,0:2:0:0:
140,24,32435,2,2,P|128:103|115:212,1,180,2|0,1:2|1:2,0:1:0:0:
110,311,32863,1,8,0:2:0:0:
0,217,33435,5,8,0:2:0:0:
163,60,34006,5,8,0:2:0:0:
374,221,34578,5,8,0:2:0:0:
251,280,34720,2,2,B|189:268|189:268|151:293|151:293|70:279,1,180,2|0,1:2|1:2,0:1:0:0:
18,205,35149,1,8,0:2:0:0:
83,14,35720,5,8,0:2:0:0:
219,85,35863,2,2,B|285:81|285:81|323:114|323:114|387:112,1,180,2|0,1:2|1:2,0:1:0:0:
466,44,36292,1,8,0:2:0:0:
369,290,36578,5,0,1:2:0:0:
457,326,36720,1,0,1:2:0:0:
495,203,36863,1,8,0:2:0:0:
341,380,37006,6,2,L|323:187,1,180,6|0,1:2|1:2,0:1:0:0:
216,163,37435,1,8,0:2:0:0:
113,310,38006,5,8,0:2:0:0:
0,93,38578,5,8,0:2:0:0:
271,54,39149,5,8,0:2:0:0:
131,0,39292,2,2,P|142:78|156:188,1,180,2|0,1:2|1:2,0:1:0:0:
165,291,39720,1,8,0:2:0:0:
385,330,40292,5,8,0:2:0:0:
245,384,40435,2,2,P|257:289|270:196,1,180,2|0,0:2|1:2,0:1:0:0:
294,97,40863,1,8,0:2:0:0:
512,78,41435,5,8,0:2:0:0:
370,24,41578,2,2,P|381:103|395:212,1,180,2|0,1:2|1:2,0:1:0:0:
401,309,42006,1,8,0:2:0:0:
501,253,42578,5,8,0:2:0:0:
312,166,43149,5,8,0:2:0:0:
512,29,43720,5,8,0:2:0:0:
414,124,43863,2,2,B|368:146|368:146|312:105|234:109,1,180,2|0,1:2|1:2,0:1:0:0:
142,123,44292,1,8,0:2:0:0:
0,247,44863,5,8,0:2:0:0:
95,323,45006,2,2,B|141:345|141:345|197:304|275:308,1,180,2|0,0:2|1:2,0:1:0:0:
477,259,45450,5,8,0:2:0:0:
356,380,45592,1,8,0:2:0:0:
308,216,45735,1,8,0:2:0:0:
277,109,45878,5,8,0:3:0:0:
184,181,46021,1,4,0:3:0:0:
168,64,46164,1,4,0:3:0:0:
404,4,46307,6,0,P|395:36|385:158,1,135.000005149842,6|0,1:2|0:2,0:2:0:0:
384,136,46735,1,0,1:2:0:0:
474,175,46878,1,8,0:2:0:0:
446,364,47164,1,0,1:2:0:0:
244,336,47449,6,0,P|239:268|227:206,1,116.999994644165,6|0,1:2|0:2,0:2:0:0:
230,220,47878,1,0,1:2:0:0:
133,250,48021,1,8,0:2:0:0:
139,50,48307,1,0,1:2:0:0:
333,29,48592,6,0,B|308:116|388:120|345:219,1,180,6|0,1:2|0:2,0:2:0:0:
256,192,49235,12,0,50235,0:2:0:0:
176,123,50307,6,0,L|166:23,1,90,8|0,0:2|1:2,0:2:0:0:
167,33,50735,6,0,P|86:30|26:145,1,198.000006042481,6|0,1:1|1:2,0:1:0:0:
248,234,51164,2,0,L|364:227,1,99.0000030212403,8|0,0:2|0:2,0:2:0:0:
235,123,51449,5,2,1:2:0:0:
146,300,51592,1,0,1:2:0:0:
352,373,51735,1,8,0:2:0:0:
444,199,51878,2,0,P|468:234|454:388,1,198.000006042481,2|0,1:2|1:2,0:2:0:0:
280,105,52307,2,0,P|295:52|327:-4,1,99.0000030212403,8|0,0:2|0:2,0:2:0:0:
275,279,52592,2,0,P|153:289|87:238,1,198.000006042481,2|8,1:2|0:2,0:2:0:0:
5,71,53021,5,2,1:1:0:0:
5,71,53092,1,0,1:2:0:0:
5,71,53164,1,0,1:1:0:0:
147,29,53307,1,0,1:2:0:0:
190,162,53449,2,0,B|202:238|202:238|184:283|184:283|196:354,1,198.000006042481,8|2,0:2|1:2,0:2:0:0:
322,377,53878,1,0,1:2:0:0:
447,347,54021,1,8,0:2:0:0:
505,136,54164,6,0,P|459:51|357:56,1,198.000006042481,2|0,1:2|1:2,0:2:0:0:
320,254,54592,2,0,P|380:267|426:262,1,99.0000030212403,8|0,0:2|0:2,0:2:0:0:
237,128,54878,1,2,1:2:0:0:
102,277,55021,1,0,1:2:0:0:
237,384,55164,1,8,0:2:0:0:
229,234,55307,6,0,L|202:2,1,198.000006042481,6|0,1:1|1:2,0:2:0:0:
0,158,55735,2,0,P|45:140|95:137,1,99.0000030212403,8|0,0:2|0:2,0:2:0:0:
153,377,56021,5,2,1:2:0:0:
18,292,56164,1,0,1:2:0:0:
153,210,56307,1,8,0:2:0:0:
288,295,56449,2,0,B|302:85,1,198.000006042481,2|0,1:2|1:2,0:2:0:0:
397,16,56878,6,0,P|446:12|494:23,1,99.0000030212403,8|0,0:2|0:2,0:2:0:0:
182,173,57164,2,0,P|137:166|78:138,1,99.0000030212403,2|0,1:2|1:2,0:2:0:0:
433,279,57449,2,0,P|444:315|448:376,1,99.0000030212403,8|0,0:2|1:2,0:2:0:0:
249,95,57735,5,2,0:2:0:0:
289,295,57878,1,0,1:2:0:0:
423,144,58021,1,8,0:2:0:0:
104,252,58164,5,2,0:2:0:0:
311,185,58307,1,0,1:2:0:0:
160,30,58449,1,0,1:2:0:0:
394,14,58592,5,10,0:2:0:0:
163,151,58735,1,2,1:1:0:0:
163,151,58807,1,0,1:2:0:0:
163,151,58878,2,0,L|43:137,1,99.0000030212403,0|0,1:2|1:2,0:2:0:0:
354,368,59164,2,0,P|406:362|452:326,1,99.0000030212403,8|0,0:2|0:2,0:2:0:0:
138,261,59449,5,2,1:1:0:0:
325,201,59592,1,0,1:2:0:0:
512,142,59735,1,8,0:2:0:0:
260,12,59878,6,0,P|358:11|407:112,1,198.000006042481,6|0,1:1|1:2,0:2:0:0:
236,374,60307,2,0,L|224:270,1,99.0000030212403,8|0,0:2|0:2,0:2:0:0:
163,100,60592,5,2,1:2:0:0:
102,280,60735,1,0,1:2:0:0:
333,352,60878,1,8,0:2:0:0:
417,282,61021,2,0,B|407:215|407:215|420:173|420:173|405:74,1,198.000006042481,2|0,1:2|1:2,0:2:0:0:
178,198,61449,6,0,P|232:189|293:191,1,99.0000030212403,8|0,0:2|0:2,0:2:0:0:
113,20,61735,2,0,P|61:29|8:174,1,198.000006042481,2|8,1:2|0:2,0:2:0:0:
234,79,62164,1,2,1:1:0:0:
234,79,62235,1,0,1:2:0:0:
234,79,62307,1,0,1:2:0:0:
149,342,62449,1,0,1:2:0:0:
71,247,62592,2,0,L|89:134,1,99.0000030212403,8|0,0:2|0:2,0:2:0:0:
385,8,62878,5,2,1:2:0:0:
335,202,63021,1,0,1:2:0:0:
234,79,63164,1,8,0:2:0:0:
486,136,63307,2,0,P|501:240|451:354,1,198.000006042481,2|0,1:2|1:2,0:2:0:0:
347,225,63735,5,10,0:2:0:0:
330,325,63878,1,0,0:2:0:0:
246,372,64021,5,2,1:2:0:0:
223,199,64164,1,0,1:2:0:0:
133,169,64307,5,10,0:2:0:0:
77,375,64449,1,0,0:2:0:0:
0,270,64592,6,0,P|0:171|44:84,1,198.000006042481,6|8,1:1|0:2,0:2:0:0:
201,114,65021,1,0,0:2:0:0:
311,19,65164,2,0,P|242:6|201:5,1,99.0000030212403,2|0,1:2|1:2,0:2:0:0:
213,4,65378,1,0,1:2:0:0:
213,4,65449,1,8,0:2:0:0:
319,241,65592,2,0,B|393:235|393:235|425:254|425:254|528:247,1,198.000006042481,2|0,1:2|1:2,0:2:0:0:
228,123,66021,6,0,P|166:200|183:308,1,198.000006042481,8|0,0:2|1:2,0:2:0:0:
398,382,66449,1,0,1:2:0:0:
437,284,66592,2,0,P|433:230|421:168,1,99.0000030212403,10|0,0:2|0:2,0:2:0:0:
303,5,66878,5,6,1:1:0:0:
303,5,67021,1,0,1:2:0:0:
512,44,67164,1,8,0:2:0:0:
167,123,67449,5,2,1:1:0:0:
167,123,67592,1,0,1:2:0:0:
385,85,67735,1,8,0:2:0:0:
45,234,68021,5,10,0:1:0:0:
317,265,68164,1,8,0:2:0:0:
167,123,68307,1,10,0:1:0:0:
192,384,68449,1,8,0:2:0:0:
377,130,68592,5,10,0:1:0:0:
154,269,68735,1,8,0:2:0:0:
399,371,68878,1,8,0:2:0:0:
502,323,69021,6,0,B|492:257|492:257|505:218|505:218|491:135,1,180,6|0,1:1|1:2,0:2:0:0:
276,268,69449,2,0,L|380:280,1,90,8|0,0:2|0:2,0:2:0:0:
377,179,69735,1,2,1:2:0:0:
280,170,69878,1,0,1:2:0:0:
259,363,70021,1,8,0:2:0:0:
53,313,70164,6,0,P|33:225|77:144,1,180,2|0,1:2|1:2,0:2:0:0:
261,33,70592,2,0,P|218:19|153:18,1,90,8|0,0:2|0:2,0:2:0:0:
201,246,70878,2,0,P|282:278|360:240,1,180,2|8,1:2|2:2,0:2:0:0:
470,85,71307,5,2,1:1:0:0:
470,85,71378,1,0,1:2:0:0:
470,85,71449,1,0,1:2:0:0:
309,153,71592,1,0,1:2:0:0:
464,284,71735,2,0,P|480:326|482:375,1,90,8|0,0:2|0:2,0:2:0:0:
360,239,72021,1,2,1:2:0:0:
232,347,72164,2,0,L|339:340,1,90,0|8,1:2|0:2,0:2:0:0:
171,174,72449,6,0,B|67:154|106:222|-1:200,1,180,2|0,1:2|1:2,0:2:0:0:
127,376,72878,2,0,P|129:331|145:289,1,90,8|0,0:2|0:2,0:2:0:0:
145,289,73092,1,0,0:2:0:0:
145,289,73164,1,2,1:2:0:0:
350,224,73307,1,0,1:2:0:0:
258,28,73449,1,8,0:2:0:0:
333,137,73592,6,0,L|304:309,1,161.999995056153,6|0,1:1|0:2,0:2:0:0:
291,381,74021,1,0,1:2:0:0:
505,323,74307,1,8,0:2:0:0:
466,109,74592,1,2,0:2:0:0:
466,109,74735,1,0,1:2:0:0:
401,183,74878,6,0,P|360:181|318:170,1,80.9999975280763,2|0,0:1|1:2,0:2:0:0:
206,25,75164,1,0,1:2:0:0:
206,25,75307,2,0,P|225:60|236:103,1,80.9999975280763,2|8,0:2|0:2,0:2:0:0:
167,273,75592,2,0,P|188:238|219:207,1,80.9999975280763,0|8,0:2|0:2,0:2:0:0:
0,153,75878,6,0,L|187:142,1,161.999995056153,6|0,1:1|0:2,0:2:0:0:
256,291,76307,2,0,L|94:300,1,161.999995056153,0|8,1:2|0:2,0:2:0:0:
273,384,76735,1,0,1:2:0:0:
354,329,76878,2,0,P|358:282|346:239,1,80.9999975280763,2|0,0:2|1:2,0:2:0:0:
241,99,77164,5,14,0:1:0:0:
181,251,77307,1,0,1:2:0:0:
5,184,77449,1,10,0:2:0:0:
16,152,77521,1,8,0:2:0:0:
30,120,77592,1,8,0:3:0:0:
43,90,77664,1,8,0:3:0:0:
56,58,77735,1,8,0:2:0:0:
73,316,77878,1,8,0:2:0:0:
311,267,78021,1,8,0:2:0:0:
105,237,78164,6,0,P|171:252|263:188,1,180,6|0,1:2|1:2,0:1:0:0:
313,108,78592,1,8,0:2:0:0:
284,10,78735,1,0,0:2:0:0:
212,84,78878,5,2,1:2:0:0:
382,48,79021,1,0,1:2:0:0:
410,208,79164,1,8,0:2:0:0:
339,279,79307,5,2,1:2:0:0:
339,279,79378,1,0,1:2:0:0:
339,279,79449,1,0,1:2:0:0:
463,302,79592,1,0,1:2:0:0:
252,380,79735,5,8,0:2:0:0:
384,360,79878,1,0,0:2:0:0:
172,236,80021,5,2,1:2:0:0:
339,279,80164,1,0,1:2:0:0:
376,155,80307,1,8,0:2:0:0:
190,77,80449,6,0,P|261:14|352:34,1,180,2|0,1:1|1:2,0:1:0:0:
419,74,80878,1,8,0:2:0:0:
286,115,81021,5,2,0:2:0:0:
401,184,81164,1,0,1:2:0:0:
297,271,81307,1,0,1:2:0:0:
182,202,81449,1,8,0:2:0:0:
95,267,81592,5,2,1:1:0:0:
95,267,81664,1,0,1:2:0:0:
95,267,81735,2,0,L|82:363,1,90,0|0,1:2|1:2,0:2:0:0:
110,115,82021,2,0,L|14:102,1,90,8|0,0:2|0:2,0:2:0:0:
182,202,82307,1,0,1:2:0:0:
236,37,82449,1,0,1:2:0:0:
142,14,82592,1,8,0:2:0:0:
317,159,82735,6,0,L|501:145,1,180,6|0,1:1|1:2,0:2:0:0:
488,55,83164,1,8,0:2:0:0:
398,61,83307,1,0,0:2:0:0:
380,239,83449,5,2,1:2:0:0:
481,296,83592,1,0,1:2:0:0:
391,371,83735,1,8,0:2:0:0:
295,315,83878,5,2,1:2:0:0:
295,315,83949,1,0,1:2:0:0:
295,315,84021,1,0,1:2:0:0:
338,159,84164,1,0,1:2:0:0:
225,99,84307,5,8,0:2:0:0:
265,226,84449,1,0,0:2:0:0:
156,290,84592,5,2,1:2:0:0:
188,186,84735,1,0,1:2:0:0:
85,128,84878,5,8,0:2:0:0:
109,220,85021,1,2,1:1:0:0:
109,220,85092,1,0,1:2:0:0:
109,220,85164,2,0,L|10:235,1,90,0|0,1:2|1:2,0:2:0:0:
225,99,85449,2,0,P|235:44|231:-7,1,90,8|0,0:2|0:2,0:2:0:0:
139,65,85735,5,0,1:2:0:0:
340,49,85878,1,0,1:2:0:0:
139,65,86021,1,8,0:2:0:0:
295,162,86164,5,2,1:1:0:0:
295,162,86235,1,0,1:2:0:0:
295,162,86307,1,0,1:2:0:0:
248,282,86449,1,0,1:2:0:0:
365,318,86592,1,8,0:2:0:0:
195,200,86735,5,2,1:1:0:0:
195,200,86807,1,0,1:2:0:0:
195,200,86878,1,0,1:2:0:0:
162,365,87021,1,8,0:2:0:0:
12,339,87164,1,8,0:2:0:0:
103,256,87307,6,0,B|94:197|94:197|108:152|108:152|98:68,1,180,6|0,1:1|1:2,0:2:0:0:
170,10,87735,1,8,0:2:0:0:
266,33,87878,1,0,0:2:0:0:
197,111,88021,5,2,1:2:0:0:
359,67,88164,1,0,1:2:0:0:
401,170,88307,1,8,0:2:0:0:
462,91,88449,5,2,1:2:0:0:
462,91,88521,1,0,1:2:0:0:
462,91,88592,1,0,1:2:0:0:
298,148,88735,1,0,1:2:0:0:
401,170,88878,5,8,0:2:0:0:
438,293,89021,1,0,0:2:0:0:
347,256,89164,5,2,1:2:0:0:
232,277,89307,1,0,1:2:0:0:
118,298,89449,1,8,0:2:0:0:
89,111,89592,6,0,P|38:118|-11:226,1,180,2|0,1:1|1:2,0:2:0:0:
9,317,90021,1,8,0:2:0:0:
139,262,90164,5,2,0:2:0:0:
118,384,90307,1,0,1:2:0:0:
252,339,90449,1,0,1:2:0:0:
127,239,90592,5,8,0:2:0:0:
243,184,90735,1,2,1:1:0:0:
243,184,90807,1,0,1:2:0:0:
243,184,90878,2,0,L|231:87,1,90,0|0,1:2|1:2,0:2:0:0:
347,262,91164,2,0,P|391:267|436:249,1,90,8|0,0:2|0:2,0:2:0:0:
505,183,91449,1,0,1:2:0:0:
508,83,91592,1,0,1:2:0:0:
432,19,91735,1,8,0:2:0:0:
257,81,91878,6,0,B|187:72|187:72|161:79|161:79|51:65,1,180,6|0,1:1|1:2,0:2:0:0:
12,142,92307,1,8,0:2:0:0:
27,239,92449,1,0,0:2:0:0:
191,241,92592,5,2,1:2:0:0:
128,375,92735,1,0,1:2:0:0:
39,260,92878,1,8,0:2:0:0:
226,334,93021,5,2,1:2:0:0:
226,334,93092,1,0,1:2:0:0:
226,334,93164,1,0,1:2:0:0:
122,292,93307,1,0,1:2:0:0:
289,255,93449,5,8,0:2:0:0:
319,384,93592,1,0,0:2:0:0:
191,241,93735,5,2,1:2:0:0:
338,171,93878,1,0,1:2:0:0:
211,71,94021,1,8,0:2:0:0:
351,14,94164,5,2,1:1:0:0:
351,14,94235,1,0,1:2:0:0:
351,14,94307,2,0,L|450:29,1,90,0|0,1:2|1:2,0:2:0:0:
190,157,94592,2,0,P|145:158|101:168,1,90,12|0,0:2|0:2,0:2:0:0:
0,216,94878,5,2,1:2:0:0:
37,106,95021,1,0,1:2:0:0:
80,272,95164,1,8,0:2:0:0:
198,165,95307,5,6,1:1:0:0:
198,165,95378,1,0,1:2:0:0:
198,165,95449,1,0,1:2:0:0:
166,338,95592,1,8,2:2:0:0:
55,376,95735,1,8,2:2:0:0:
270,240,95878,5,8,0:2:0:0:
270,240,95949,1,8,0:2:0:0:
270,240,96021,1,8,0:3:0:0:
400,384,96164,5,8,0:3:0:0:
499,213,96307,5,4,0:3:0:0:
343,296,96449,5,4,0:3:0:0:
429,311,96592,6,0,B|418:266|418:266|421:236|421:236|407:176,1,135.000005149842,6|0,1:2|0:2,0:2:0:0:
407,179,97021,1,0,1:2:0:0:
322,145,97164,1,8,0:2:0:0:
366,10,97449,1,0,1:2:0:0:
217,227,97735,6,0,B|210:182|210:182|197:163|197:163|188:113,1,116.999994644165,6|0,1:2|0:2,0:2:0:0:
189,115,98164,1,0,1:2:0:0:
270,64,98307,1,8,0:2:0:0:
108,5,98592,1,0,1:2:0:0:
1,233,98878,6,0,B|176:176|136:300|306:258,1,315,6|0,1:2|0:2,0:2:0:0:
479,179,100021,5,12,0:2:0:0:
360,345,100164,1,0,1:2:0:0:
262,172,100307,1,8,0:2:0:0:
266,129,100378,1,8,0:2:0:0:
272,90,100449,1,8,0:2:0:0:
278,47,100521,1,8,0:2:0:0:
284,8,100592,1,8,0:2:0:0:
372,200,100735,1,8,0:2:0:0:
232,359,100878,1,8,0:2:0:0:
85,320,101021,6,0,B|67:210|116:254|99:118,1,198.000006042481,6|0,1:1|1:2,0:1:0:0:
76,1,101449,1,8,0:2:0:0:
76,1,101592,1,0,0:2:0:0:
0,80,101735,5,2,1:2:0:0:
173,47,101878,1,0,1:2:0:0:
208,241,102021,1,8,0:2:0:0:
293,304,102164,6,0,B|389:331|389:331|495:263,1,198.000006042481,2|0,1:2|1:2,0:2:0:0:
415,30,102592,2,0,L|520:14,1,99.0000030212403,8|0,0:2|0:2,0:2:0:0:
281,143,102878,2,0,B|177:149|225:79|91:91,1,198.000006042481,2|8,1:2|0:2,0:2:0:0:
0,229,103307,5,2,1:1:0:0:
0,229,103378,1,0,1:2:0:0:
0,229,103449,1,0,1:1:0:0:
94,199,103592,1,0,1:2:0:0:
123,294,103735,1,8,0:2:0:0:
29,323,103878,1,0,0:0:0:0:
235,384,104021,6,0,L|243:285,1,99.0000030212403,2|0,1:2|1:2,0:0:0:0:
380,377,104307,1,8,0:2:0:0:
512,178,104449,2,0,P|458:254|365:242,1,198.000006042481,2|0,1:2|1:2,0:2:0:0:
364,24,104878,2,0,P|403:10|467:19,1,99.0000030212403,8|0,0:2|0:2,0:2:0:0:
192,215,105164,1,2,1:2:0:0:
416,143,105307,1,0,1:2:0:0:
214,35,105449,1,8,0:2:0:0:
296,297,105592,6,0,B|256:233|310:169|310:169|286:112,1,198.000006042481,6|0,1:1|1:2,0:2:0:0:
112,361,106021,2,0,P|161:363|208:349,1,99.0000030212403,8|0,0:2|0:2,0:2:0:0:
80,79,106307,5,2,1:2:0:0:
13,289,106449,1,0,1:2:0:0:
209,349,106592,1,8,0:2:0:0:
296,297,106735,2,0,P|414:280|514:299,1,198.000006042481,2|0,1:2|1:2,0:2:0:0:
252,79,107164,6,0,P|215:38|164:-2,1,99.0000030212403,8|0,0:2|0:2,0:2:0:0:
369,188,107449,2,0,P|410:151|450:100,1,99.0000030212403,2|0,1:2|1:2,0:2:0:0:
260,305,107735,2,0,P|297:346|348:386,1,99.0000030212403,8|0,0:2|1:2,0:2:0:0:
152,191,108021,5,2,0:2:0:0:
1,312,108164,1,0,1:2:0:0:
181,380,108307,1,8,0:2:0:0:
21,201,108449,5,2,0:2:0:0:
249,136,108592,1,0,1:2:0:0:
33,50,108735,1,0,1:2:0:0:
289,13,108878,5,10,0:2:0:0:
144,231,109021,1,2,1:1:0:0:
144,231,109092,1,0,1:2:0:0:
144,231,109164,2,0,L|25:210,1,99.0000030212403,0|0,1:2|1:2,0:2:0:0:
322,375,109449,2,0,P|383:368|439:341,1,99.0000030212403,8|0,0:2|0:2,0:2:0:0:
512,160,109735,5,2,1:1:0:0:
316,124,109878,1,0,1:2:0:0:
121,89,110021,1,8,0:2:0:0:
423,80,110164,6,0,P|348:19|252:28,1,198.000006042481,6|0,1:1|1:2,0:2:0:0:
293,285,110592,2,0,P|337:284|395:264,1,99.0000030212403,8|0,0:2|0:2,0:2:0:0:
478,183,110878,5,2,1:2:0:0:
441,384,111021,1,0,1:2:0:0:
202,335,111164,1,8,0:2:0:0:
96,383,111307,2,0,B|82:264|121:314|109:186,1,198.000006042481,2|0,1:2|1:2,0:2:0:0:
91,22,111735,6,0,P|35:22|-19:28,1,99.0000030212403,8|0,0:2|0:2,0:2:0:0:
216,173,112021,2,0,P|216:117|210:63,1,99.0000030212403,2|0,1:2|1:0,0:0:0:0:
65,298,112307,2,0,P|121:298|175:292,1,99.0000030212403,8|2,0:0|1:1,0:0:0:0:
163,293,112521,1,0,1:2:0:0:
163,293,112592,1,0,1:2:0:0:
334,186,112735,1,0,1:2:0:0:
261,372,112878,1,8,0:2:0:0:
216,173,113021,1,0,0:2:0:0:
447,167,113164,6,0,P|456:118|451:69,1,99.0000030212403,2|0,1:2|1:2,0:0:0:0:
285,0,113449,1,8,0:2:0:0:
139,152,113592,1,2,1:2:0:0:
139,152,113664,1,0,1:0:0:0:
139,152,113735,2,0,L|246:148,1,99.0000030212403,0|0,1:0|1:2,0:0:0:0:
20,74,114021,5,10,0:2:0:0:
35,221,114164,1,0,0:2:0:0:
113,256,114307,5,2,1:2:0:0:
144,54,114449,1,0,1:2:0:0:
237,29,114592,5,10,0:2:0:0:
272,284,114735,1,0,0:2:0:0:
410,241,114878,6,0,B|420:173|420:173|402:138|402:138|414:42,1,198.000006042481,6|8,1:1|0:2,0:2:0:0:
291,193,115307,1,0,0:2:0:0:
377,355,115449,2,0,P|426:356|474:343,1,99.0000030212403,2|0,1:2|1:2,0:2:0:0:
474,343,115664,1,0,1:2:0:0:
474,343,115735,1,8,0:2:0:0:
273,182,115878,2,0,B|162:149|201:239|78:198,1,198.000006042481,2|0,1:2|1:2,0:2:0:0:
32,33,116307,6,0,P|10:77|9:126,1,99.0000030212403,8|0,0:2|0:0,0:2:0:0:
308,92,116592,2,0,P|307:42|285:-1,1,99.0000030212403,0|0,1:2|1:2,0:0:0:0:
69,220,116878,2,0,P|69:269|91:313,1,99.0000030212403,10|0,0:2|0:2,0:2:0:0:
366,376,117164,5,6,1:1:0:0:
443,164,117449,1,8,0:2:0:0:
146,8,117735,5,2,1:1:0:0:
146,8,117878,1,0,1:2:0:0:
69,220,118021,1,8,0:2:0:0:
311,96,118307,5,10,0:1:0:0:
160,135,118449,1,8,0:2:0:0:
199,286,118592,1,10,0:1:0:0:
350,247,118735,1,8,0:2:0:0:
217,41,118878,5,10,0:1:0:0:
105,231,119021,1,8,0:2:0:0:
295,343,119164,1,8,0:2:0:0:
461,241,119307,6,2,B|460:198|439:173|439:173|458:126|458:126|428:94|430:35,1,215.999993408203,6|0,1:1|1:2,0:1:0:0:
188,164,119735,1,8,0:2:0:0:
350,247,119878,1,0,0:2:0:0:
295,78,120021,1,2,1:2:0:0:
221,288,120164,1,0,1:2:0:0:
8,210,120307,1,8,0:2:0:0:
38,330,120449,5,0,1:2:0:0:
38,330,120521,1,0,1:2:0:0:
38,330,120592,2,0,B|88:351|88:351|130:316,1,107.999996704102,2|0,1:1|1:2,0:2:0:0:
411,185,120878,2,0,B|361:206|361:206|318:171,1,107.999996704102,8|0,0:2|0:2,0:2:0:0:
32,47,121164,1,2,1:2:0:0:
32,47,121307,2,0,B|82:68|82:68|124:33,1,107.999996704102,0|0,1:2|0:2,0:2:0:0:
327,180,121592,5,2,1:1:0:0:
327,180,121664,1,0,1:2:0:0:
327,180,121735,1,0,1:2:0:0:
219,270,121878,1,0,1:2:0:0:
96,201,122021,1,8,0:2:0:0:
204,111,122164,1,0,0:2:0:0:
351,317,122307,1,2,1:2:0:0:
424,73,122449,1,0,1:2:0:0:
327,180,122592,2,0,P|387:172|455:168,1,107.999996704102,8|0,0:2|0:2,0:2:0:0:
310,96,122878,5,2,1:2:0:0:
433,253,123021,1,0,1:2:0:0:
275,376,123164,1,8,0:2:0:0:
189,316,123307,6,2,L|202:198,1,107.999996704102,2|0,0:2|1:2,0:1:0:0:
20,105,123592,2,2,P|-2:168|7:223,1,107.999996704102,0|8,1:2|0:2,0:1:0:0:
314,55,123878,2,2,B|239:27|239:27|184:75|106:42,1,215.999993408203,2|0,1:2|1:2,0:1:0:0:
350,183,124307,5,10,0:2:0:0:
512,151,124449,1,0,0:2:0:0:
409,58,124592,5,2,1:1:0:0:
452,275,124735,1,0,1:2:0:0:
249,125,124878,5,10,0:2:0:0:
220,353,125021,1,0,1:2:0:0:
220,353,125092,1,0,1:2:0:0:
220,353,125164,1,0,1:2:0:0:
33,282,125307,6,2,B|0:306|0:306|17:387,1,107.999996704102,2|8,1:1|0:2,0:1:0:0:
317,234,125592,2,2,B|350:258|350:258|333:339,1,107.999996704102,2|0,0:2|1:2,0:1:0:0:
132,138,125878,2,2,B|87:132|87:132|77:139|77:139|27:132,1,107.999996704102,0|8,1:2|0:2,0:1:0:0:
312,1,126164,6,2,P|376:85|480:76,1,215.999993408203,2|0,1:1|1:2,0:1:0:0:
290,229,126592,1,8,0:2:0:0:
478,285,126735,1,0,0:2:0:0:
290,229,126878,1,2,1:2:0:0:
358,375,127021,1,0,1:2:0:0:
414,150,127164,1,8,0:2:0:0:
181,126,127307,6,2,B|172:73|172:73|193:23,1,107.999996704102,2|0,1:2|0:2,0:1:0:0:
414,150,127592,2,2,B|435:100|435:100|426:47,1,107.999996704102,0|8,1:2|0:2,0:1:0:0:
297,237,127878,5,2,1:1:0:0:
297,237,127949,1,0,1:2:0:0:
297,237,128021,1,0,1:2:0:0:
382,284,128164,1,0,1:2:0:0:
307,346,128307,1,8,0:2:0:0:
222,299,128449,1,4,1:2:0:0:
106,350,128592,5,2,2:1:0:0:
109,329,128664,1,0,2:2:0:0:
112,308,128735,1,0,1:2:0:0:
115,287,128807,1,0,2:2:0:0:
117,265,128878,1,10,2:2:0:0:
120,244,128949,1,0,2:2:0:0:
123,223,129021,1,0,2:2:0:0:
126,202,129092,1,0,2:2:0:0:
106,174,129164,5,2,1:1:0:0:
101,204,129235,1,0,2:2:0:0:
97,236,129307,1,0,1:2:0:0:
92,268,129378,1,0,2:2:0:0:
89,299,129449,1,10,2:2:0:0:
85,331,129521,1,0,2:2:0:0:
80,363,129592,6,2,B|60:373|60:373|69:277,1,107.999996704102,2|0,1:1|0:2,0:1:0:0:
101,45,129878,2,2,B|55:27|55:27|-16:45,1,107.999996704102,2|8,1:2|0:2,0:1:0:0:
224,237,130164,1,2,0:2:0:0:
402,172,130307,1,2,1:1:0:0:
393,146,130378,1,0,0:2:0:0:
392,119,130449,1,0,1:2:0:0:
403,94,130521,1,0,0:2:0:0:
413,69,130592,1,8,0:2:0:0:
413,42,130664,1,0,0:2:0:0:
408,16,130735,6,2,B|346:-3|346:-3|275:33|306:108,1,198.000006042481,2|0,1:1|1:2,0:1:0:0:
216,271,131164,2,0,B|337:242|300:325|422:302,1,198.000006042481,8|0,0:2|1:2,0:2:0:0:
492,257,131592,1,0,1:2:0:0:
508,160,131735,1,8,0:2:0:0:
348,32,131878,6,2,B|228:3|275:88|162:66,1,198.000006042481,2|0,1:2|1:2,2:1:0:0:
10,145,132307,2,0,B|-2:98|-2:98|23:46,1,99.0000030212403,8|0,0:2|0:2,0:2:0:0:
177,228,132592,5,0,1:2:0:0:
71,279,132735,1,0,1:2:0:0:
162,354,132878,1,8,0:2:0:0:
268,302,133021,2,0,B|289:252|289:252|273:198,1,107.999996704102,4|0,1:2|0:2,0:2:0:0:
149,61,133307,5,2,1:1:0:0:
350,113,133449,1,8,0:1:0:0:
149,61,133592,1,0,1:2:0:0:
324,0,133735,5,10,0:1:0:0:
153,178,133878,1,0,1:2:0:0:
324,0,134021,1,8,0:1:0:0:
492,192,134164,5,2,1:2:0:0:
287,276,134307,1,10,0:1:0:0:
433,376,134449,1,0,1:2:0:0:
350,113,134592,1,8,0:2:0:0:
130,205,134735,5,2,1:1:0:0:
130,205,134807,1,0,1:2:0:0:
130,205,134878,2,0,B|87:199|87:199|68:207|68:207|-2:195,1,107.999996704102,0|0,1:2|1:2,0:2:0:0:
189,372,135164,2,0,B|146:366|146:366|127:374|127:374|57:362,1,107.999996704102,8|0,0:2|1:2,0:2:0:0:
320,256,135449,5,14,2:1:0:0:
325,276,135521,1,0,2:2:0:0:
332,295,135592,1,0,1:2:0:0:
343,312,135664,1,0,2:2:0:0:
357,325,135735,1,0,2:2:0:0:
375,335,135807,1,0,2:2:0:0:
395,340,135878,1,0,1:2:0:0:
415,341,135949,1,0,2:2:0:0:
435,336,136021,5,14,2:1:0:0:
438,302,136092,1,0,2:2:0:0:
441,268,136164,1,0,1:2:0:0:
444,235,136235,1,0,2:2:0:0:
447,201,136307,1,0,2:2:0:0:
450,167,136378,1,0,2:2:0:0:
453,134,136449,1,0,1:2:0:0:
456,100,136521,1,0,2:2:0:0:
459,67,136592,5,10,0:1:0:0:
199,188,136735,1,8,0:2:0:0:
306,0,136878,1,10,0:1:0:0:
327,283,137021,1,8,0:2:0:0:
36,177,137164,1,10,0:1:0:0:
346,114,137307,1,8,0:2:0:0:
186,384,137449,1,10,0:1:0:0:
148,280,137592,6,2,L|172:94,1,161.999995056153,6|0,1:2|0:2,0:1:0:0:
183,24,138021,1,0,1:2:0:0:
252,205,138307,1,8,0:2:0:0:
433,136,138592,1,0,3:2:0:0:
433,136,138735,1,0,1:2:0:0:
506,181,138878,5,2,0:2:0:0:
437,0,139164,1,0,1:2:0:0:
256,69,139449,1,8,0:2:0:0:
123,171,139735,5,0,3:2:0:0:
144,10,139878,2,2,L|120:196,1,161.999995056153,2|0,1:2|0:2,0:1:0:0:
112,268,140307,1,0,1:2:0:0:
305,289,140592,1,8,0:2:0:0:
498,310,140878,1,0,3:2:0:0:
498,310,141021,1,0,1:2:0:0:
437,384,141164,5,2,0:2:0:0:
414,200,141449,1,0,1:2:0:0:
391,16,141735,1,8,0:2:0:0:
112,82,142021,5,8,0:2:0:0:
269,85,142164,2,2,B|207:77|207:77|180:93|180:93|80:77,1,161.999995056153,6|0,1:2|0:2,0:1:0:0:
10,62,142592,1,0,1:2:0:0:
31,254,142878,1,8,0:2:0:0:
223,233,143164,1,0,3:2:0:0:
223,233,143307,1,0,1:2:0:0:
309,172,143449,5,2,0:2:0:0:
288,364,143735,1,0,1:2:0:0:
96,343,144021,1,8,0:2:0:0:
206,79,144307,5,0,3:2:0:0:
223,233,144449,2,2,B|197:183|225:140|225:140|205:78,1,161.999995056153,2|0,1:2|0:2,0:1:0:0:
160,0,144878,1,0,1:2:0:0:
110,188,145164,1,8,0:2:0:0:
257,322,145449,1,0,3:2:0:0:
257,322,145592,1,0,1:2:0:0:
179,370,145735,6,0,L|87:354,1,80.9999975280763,2|8,0:2|0:2,0:2:0:0:
333,370,146021,2,0,L|425:354,1,80.9999975280763,2|0,2:2|1:2,0:2:0:0:
190,214,146307,5,8,0:2:0:0:
257,322,146449,1,8,0:2:0:0:
322,214,146592,1,8,0:2:0:0:
460,258,146735,6,2,B|431:177|481:192|459:77,1,170.999995433807,6|0,1:2|0:2,0:1:0:0:
414,4,147164,1,0,1:2:0:0:
256,121,147449,1,8,0:2:0:0:
98,4,147735,1,0,3:2:0:0:
98,4,147878,1,0,1:2:0:0:
70,91,148021,5,2,0:2:0:0:
256,23,148307,1,0,1:2:0:0:
442,91,148592,1,8,0:2:0:0:
256,224,148878,5,8,0:2:0:0:
419,233,149021,2,2,B|356:219|356:219|325:238|325:238|245:222,1,170.999995433807,6|0,1:2|0:2,0:1:0:0:
158,205,149449,1,0,1:2:0:0:
338,126,149735,1,8,0:2:0:0:
329,322,150021,1,0,3:2:0:0:
329,322,150164,1,0,1:2:0:0:
241,368,150307,5,2,0:2:0:0:
283,234,150449,1,8,0:2:0:0:
329,322,150592,1,8,0:2:0:0:
195,280,150735,1,8,0:2:0:0:
237,146,150878,1,8,0:2:0:0:
371,188,151021,1,8,0:2:0:0:
287,238,151164,5,4,0:3:0:0:
287,238,151307,1,4,0:3:0:0:
471,121,151449,6,0,P|491:205|475:300,2,180,6|0|8,1:2|1:2|0:2,0:2:0:0:
41,121,152307,1,8,0:2:0:0:
41,121,152449,2,0,P|21:205|37:300,1,180,0|0,1:2|0:2,0:2:0:0:
81,384,152878,1,0,1:2:0:0:
339,217,153164,1,12,0:2:0:0:
339,217,153307,2,0,B|256:250|256:250|172:217,1,180,0|0,1:2|1:2,0:2:0:0:
41,121,153735,5,2,1:2:0:0:
74,143,153807,1,0,1:2:0:0:
114,142,153878,1,0,1:2:0:0:
152,128,153949,1,0,1:2:0:0:
170,91,154021,1,0,1:3:0:0:
170,50,154092,1,0,1:2:0:0:
147,16,154164,1,0,1:2:0:0:
108,3,154235,1,0,1:2:0:0:
68,9,154307,1,8,1:2:0:0:
43,41,154378,1,0,1:2:0:0:
43,81,154449,1,0,1:2:0:0:
67,112,154521,1,0,1:2:0:0:
105,126,154592,5,14,1:2:0:0:
146,93,154664,1,0,1:2:0:0:
199,91,154735,1,0,1:2:0:0:
245,119,154807,1,0,1:2:0:0:
262,169,154878,1,0,1:3:0:0:
252,222,154949,1,0,1:2:0:0:
208,253,155021,1,0,1:2:0:0:
153,255,155092,1,0,1:2:0:0:
106,230,155164,2,0,P|93:177|108:122,1,107.999996704102,12|0,0:2|0:2,0:2:0:0:
360,0,155449,5,8,0:2:0:0:
274,298,155592,1,8,0:2:0:0:
499,360,155735,1,8,0:2:0:0:
464,265,155878,6,0,B|436:197|490:141|490:141|466:67,1,198.000006042481,6|0,1:1|1:2,0:2:0:0:
364,4,156307,1,8,0:2:0:0:
364,4,156449,1,0,0:2:0:0:
181,97,156592,5,2,1:2:0:0:
313,224,156735,1,0,1:2:0:0:
170,346,156878,1,8,0:2:0:0:
67,221,157021,6,0,B|85:152|85:152|66:113|66:113|85:32,1,198.000006042481,2|0,1:2|1:2,0:2:0:0:
308,199,157449,2,0,P|262:202|209:209,1,99.0000030212403,8|0,0:2|0:2,0:2:0:0:
503,303,157735,2,0,B|485:234|485:234|504:195|504:195|484:114,1,198.000006042481,2|8,1:2|0:2,0:2:0:0:
271,0,158164,5,2,1:1:0:0:
271,0,158235,1,0,1:2:0:0:
271,0,158307,1,0,1:2:0:0:
309,178,158449,1,0,1:2:0:0:
200,103,158592,1,8,0:2:0:0:
380,72,158735,1,0,0:2:0:0:
185,113,158878,6,0,P|138:103|78:96,1,99.0000030212403,2|0,1:2|1:2,0:2:0:0:
0,234,159164,1,8,0:2:0:0:
186,299,159307,2,0,P|122:370|31:350,1,198.000006042481,2|0,1:2|1:2,0:2:0:0:
254,212,159735,2,0,P|301:202|361:195,1,99.0000030212403,8|0,0:2|0:2,0:2:0:0:
512,247,160021,1,2,1:2:0:0:
448,89,160164,1,0,1:2:0:0:
393,344,160307,1,8,0:2:0:0:
297,298,160449,6,0,B|281:189|332:237|307:85,1,198.000006042481,6|0,1:1|1:2,0:2:0:0:
277,0,160878,1,8,0:2:0:0:
277,0,161021,1,0,0:2:0:0:
380,24,161164,5,2,1:2:0:0:
196,75,161307,1,0,1:2:0:0:
408,141,161449,1,8,0:2:0:0:
196,75,161592,2,0,P|96:102|80:211,1,198.000006042481,2|0,1:2|1:2,0:2:0:0:
160,317,162021,6,0,L|52:333,1,99.0000030212403,8|0,0:2|0:2,0:2:0:0:
381,288,162307,2,0,L|397:396,1,99.0000030212403,2|0,1:2|1:2,0:2:0:0:
352,67,162592,2,0,L|449:52,1,99.0000030212403,8|0,0:2|1:2,0:2:0:0:
133,108,162878,5,2,0:2:0:0:
296,203,163021,1,0,1:2:0:0:
263,14,163164,1,8,0:2:0:0:
79,216,163307,5,2,0:2:0:0:
294,315,163449,1,0,1:2:0:0:
223,87,163592,1,0,1:2:0:0:
114,368,163735,5,10,0:2:0:0:
304,210,163878,1,2,1:1:0:0:
304,210,163949,1,0,1:2:0:0:
304,210,164021,2,0,P|254:191|186:196,1,99.0000030212403,0|0,1:2|1:2,0:2:0:0:
438,382,164307,2,0,P|457:332|452:264,1,99.0000030212403,8|0,0:2|0:2,0:2:0:0:
413,52,164592,5,2,1:1:0:0:
205,67,164735,1,0,1:2:0:0:
0,83,164878,1,8,0:2:0:0:
224,216,165021,6,0,P|175:310|76:288,1,198.000006042481,6|0,1:1|1:2,0:2:0:0:
0,253,165449,1,8,0:2:0:0:
0,253,165592,1,0,0:2:0:0:
89,186,165735,5,2,1:2:0:0:
9,374,165878,1,0,1:2:0:0:
89,186,166021,1,8,0:2:0:0:
261,351,166164,6,0,P|377:370|470:319,1,198.000006042481,2|0,1:2|1:2,0:2:0:0:
172,282,166592,2,0,P|152:325|149:376,1,99.0000030212403,8|0,0:2|0:2,0:2:0:0:
446,242,166878,2,0,P|465:126|414:33,1,198.000006042481,2|8,1:2|0:2,0:2:0:0:
210,0,167307,5,2,1:1:0:0:
210,0,167378,1,0,1:2:0:0:
210,0,167449,1,0,1:2:0:0:
156,196,167592,1,0,1:2:0:0:
2,155,167735,1,8,0:2:0:0:
433,55,168021,5,2,1:2:0:0:
245,102,168164,1,0,1:2:0:0:
313,320,168307,1,8,0:2:0:0:
343,218,168449,2,0,B|357:146|357:146|339:112|339:112|355:27,1,198.000006042481,2|0,1:2|1:2,0:2:0:0:
125,96,168878,5,10,0:2:0:0:
245,78,169021,1,0,0:2:0:0:
152,190,169164,5,2,1:2:0:0:
0,150,169307,1,0,1:2:0:0:
113,276,169449,5,10,0:2:0:0:
298,233,169592,1,0,0:2:0:0:
376,360,169735,6,0,P|468:363|509:266,1,198.000006042481,6|8,1:1|2:2,0:2:0:0:
310,207,170164,1,0,0:2:0:0:
392,30,170307,2,0,P|436:18|509:29,1,99.0000030212403,2|0,1:2|1:2,0:2:0:0:
488,22,170521,1,0,1:2:0:0:
488,22,170592,1,8,0:2:0:0:
244,97,170735,2,0,B|143:87|190:14|74:11,1,198.000006042481,2|0,1:2|1:2,0:2:0:0:
133,228,171164,6,0,P|43:231|2:328,1,198.000006042481,8|0,0:2|1:2,0:2:0:0:
206,380,171592,1,0,1:2:0:0:
327,307,171735,2,0,P|323:253|311:191,1,99.0000030212403,10|0,0:2|0:2,0:2:0:0:
159,5,172021,5,6,1:1:0:0:
52,212,172307,1,8,0:2:0:0:
454,118,172592,5,2,1:1:0:0:
454,118,172735,1,0,1:2:0:0:
342,347,172878,1,8,0:2:0:0:
131,106,173164,5,10,0:1:0:0:
391,247,173307,1,8,0:2:0:0:
295,26,173449,1,10,0:1:0:0:
223,314,173592,1,8,0:2:0:0:
454,118,173735,5,10,0:1:0:0:
177,18,173878,1,8,0:2:0:0:
78,294,174021,1,8,0:2:0:0:
152,356,174164,6,0,L|397:341,1,215.999993408203,6|0,1:1|1:2,0:2:0:0:
472,373,174592,1,8,0:2:0:0:
503,268,174735,1,0,0:2:0:0:
303,232,174878,5,2,1:2:0:0:
434,171,175021,1,0,1:2:0:0:
367,342,175164,1,8,0:2:0:0:
197,212,175307,2,0,B|232:114|144:115|191:-4,1,215.999993408203,2|0,1:2|1:2,0:2:0:0:
109,269,175735,2,0,P|57:290|2:290,1,107.999996704102,8|0,0:2|0:2,0:2:0:0:
304,188,176021,2,0,P|366:273|497:247,1,215.999993408203,2|8,1:2|0:2,0:2:0:0:
512,68,176449,5,2,1:1:0:0:
512,68,176521,1,0,1:2:0:0:
512,68,176592,1,0,1:2:0:0:
397,36,176735,1,0,1:2:0:0:
281,60,176878,1,8,0:2:0:0:
166,28,177021,1,0,0:2:0:0:
20,115,177164,6,0,P|0:164|2:230,1,107.999996704102,2|0,1:2|1:2,0:2:0:0:
90,315,177449,1,8,0:2:0:0:
313,165,177592,2,0,B|182:130|226:219|105:184,1,215.999993408203,2|0,1:2|1:2,0:2:0:0:
24,119,178021,1,8,0:2:0:0:
24,119,178164,1,0,0:2:0:0:
0,218,178307,5,2,1:2:0:0:
127,82,178449,1,0,1:2:0:0:
183,353,178592,1,8,0:2:0:0:
333,316,178735,2,0,B|347:240|347:240|328:193|328:193|344:104,1,215.999993408203,6|0,1:1|1:2,0:2:0:0:
373,5,179164,1,8,0:2:0:0:
373,5,179307,1,0,0:2:0:0:
447,78,179449,5,2,1:2:0:0:
267,35,179592,1,0,1:2:0:0:
208,279,179735,1,8,0:2:0:0:
304,349,179878,2,0,P|412:367|518:293,1,215.999993408203,2|0,1:2|1:2,0:2:0:0:
370,42,180307,6,0,L|477:32,1,107.999996704102,8|0,0:2|0:2,0:2:0:0:
230,267,180592,2,0,L|337:257,1,107.999996704102,2|0,1:2|1:2,0:2:0:0:
2,115,180878,2,0,L|109:105,1,107.999996704102,8|0,0:2|1:2,0:2:0:0:
256,45,181164,5,2,0:1:0:0:
63,16,181307,1,0,1:2:0:0:
34,209,181449,1,8,0:2:0:0:
285,185,181592,5,2,0:1:0:0:
256,378,181735,1,0,1:2:0:0:
63,349,181878,1,0,1:2:0:0:
109,105,182021,5,10,0:2:0:0:
203,220,182164,2,0,B|322:208,1,107.999996704102,2|0,1:1|0:2,0:2:0:0:
512,297,182449,5,10,0:2:0:0:
387,99,182592,1,10,0:1:0:0:
348,328,182735,1,8,0:2:0:0:
512,130,182878,5,10,0:1:0:0:
339,349,183021,1,8,0:2:0:0:
251,81,183164,1,8,0:2:0:0:
109,303,183307,6,0,B|73:191|161:219|127:90,1,215.999993408203,6|0,1:1|1:2,0:2:0:0:
89,0,183735,1,8,0:2:0:0:
89,0,183878,1,0,0:2:0:0:
15,80,184021,5,2,1:2:0:0:
210,17,184164,1,0,1:2:0:0:
15,80,184307,1,8,0:2:0:0:
189,251,184449,2,0,P|291:266|356:186,1,215.999993408203,2|0,1:2|1:2,0:2:0:0:
402,10,184878,6,0,P|454:13|524:30,1,107.999996704102,8|0,0:2|0:2,0:2:0:0:
231,154,185164,2,0,P|179:157|109:174,1,107.999996704102,2|0,1:2|1:2,0:2:0:0:
353,354,185449,2,0,P|405:351|475:334,1,107.999996704102,8|2,0:2|1:1,0:2:0:0:
459,339,185664,1,0,1:2:0:0:
459,339,185735,1,0,1:2:0:0:
349,207,185878,1,0,1:2:0:0:
257,382,186021,1,8,0:2:0:0:
349,207,186164,1,0,0:2:0:0:
79,291,186307,6,0,B|40:226|81:167|81:167|53:70,1,215.999993408203,2|8,1:2|0:2,0:2:0:0:
349,207,186735,2,0,B|388:144|347:83|347:83|375:-14,1,215.999993408203,2|0,1:2|1:2,0:2:0:0:
149,57,187164,5,10,0:2:0:0:
267,26,187307,1,0,0:2:0:0:
204,157,187449,5,2,1:2:0:0:
29,122,187592,1,0,1:2:0:0:
151,253,187735,5,10,0:2:0:0:
356,217,187878,1,0,0:2:0:0:
69,339,188021,6,0,P|174:364|265:292,1,215.999993408203,6|8,1:1|0:2,0:2:0:0:
331,134,188449,1,0,0:2:0:0:
205,40,188592,2,0,P|146:22|100:24,1,107.999996704102,2|0,1:2|1:2,0:2:0:0:
100,23,188807,1,0,1:2:0:0:
100,23,188878,1,8,0:2:0:0:
322,231,189021,2,0,B|400:217|400:217|426:292|505:287,1,215.999993408203,2|0,1:2|1:2,0:2:0:0:
346,84,189449,6,0,P|393:67|469:64,1,107.999996704102,8|0,0:2|0:2,0:2:0:0:
130,221,189735,2,0,P|83:204|7:201,1,107.999996704102,0|0,1:2|0:2,0:2:0:0:
320,380,190021,2,0,P|373:375|424:358,1,107.999996704102,10|0,0:2|0:2,0:2:0:0:
242,85,190307,5,14,0:2:0:0:
266,262,190449,2,0,B|254:190|254:190|258:177|258:177|237:51,1,180,0|0,1:2|1:2,0:2:0:0:
46,38,190878,5,14,0:2:0:0:
23,215,191021,2,0,B|35:143|35:143|31:130|31:130|52:4,1,180,0|0,1:2|1:2,0:2:0:0:
377,171,191449,5,10,0:1:0:0:
135,213,191592,1,8,0:2:0:0:
377,171,191735,1,10,0:1:0:0:
135,213,191878,1,8,0:2:0:0:
279,18,192021,5,10,0:1:0:0:
233,366,192164,1,8,0:2:0:0:
279,18,192307,1,8,0:2:0:0:
377,171,192449,6,0,P|463:170|505:77,1,198.000006042481,6|0,1:1|1:2,0:2:0:0:
253,161,192878,2,0,P|231:204|224:275,1,99.0000030212403,8|0,0:2|0:2,0:2:0:0:
271,351,193164,1,2,1:2:0:0:
377,376,193307,1,0,1:2:0:0:
453,298,193449,1,8,0:2:0:0:
359,151,193592,6,0,B|290:138|290:138|252:162|252:162|142:138,1,198.000006042481,2|0,1:2|1:2,0:2:0:0:
3,138,194021,2,0,P|8:90|36:41,1,99.0000030212403,8|0,0:2|0:2,0:2:0:0:
185,248,194307,1,2,1:2:0:0:
92,306,194449,2,0,P|44:301|-5:273,1,99.0000030212403,0|8,1:2|0:2,0:2:0:0:
230,55,194735,5,2,1:1:0:0:
230,55,194807,1,0,1:2:0:0:
230,55,194878,2,0,L|356:46,1,99.0000030212403,0|0,1:2|1:2,0:2:0:0:
376,289,195164,1,8,0:2:0:0:
512,154,195307,2,0,L|386:145,1,99.0000030212403,2|0,0:2|1:2,0:2:0:0:
277,296,195592,2,0,L|403:287,1,99.0000030212403,0|8,1:2|0:2,0:2:0:0:
181,196,195878,6,0,B|110:183|110:183|88:257|16:251,1,198.000006042481,2|0,1:2|1:2,0:2:0:0:
150,58,196307,1,8,0:2:0:0:
3,81,196449,1,0,0:2:0:0:
150,58,196592,1,2,1:2:0:0:
181,196,196735,1,0,1:2:0:0:
279,183,196878,1,8,0:2:0:0:
367,339,197021,6,0,P|464:341|517:261,1,198.000006042481,6|0,1:1|1:2,0:2:0:0:
272,284,197449,2,0,P|256:332|256:384,1,99.0000030212403,8|0,0:2|0:2,0:2:0:0:
415,247,197735,1,2,1:2:0:0:
262,162,197878,1,0,1:2:0:0:
359,33,198021,1,8,0:2:0:0:
236,181,198164,6,0,P|139:183|80:108,1,198.000006042481,2|0,1:2|1:2,0:2:0:0:
43,4,198592,1,8,0:2:0:0:
43,4,198735,1,0,0:2:0:0:
186,80,198878,1,2,1:2:0:0:
0,217,199021,2,0,P|54:206|111:202,1,99.0000030212403,0|8,1:2|0:2,0:2:0:0:
338,315,199307,5,2,1:1:0:0:
338,315,199378,1,0,1:2:0:0:
338,315,199449,1,0,1:2:0:0:
252,381,199592,1,0,1:2:0:0:
165,315,199735,1,8,0:2:0:0:
251,249,199878,2,0,P|255:198|236:136,1,99.0000030212403,2|0,0:2|1:2,0:2:0:0:
105,76,200164,2,0,L|-10:89,1,99.0000030212403,0|8,1:2|0:2,0:2:0:0:
262,14,200449,6,0,B|348:65|348:65|441:19,1,198.000006042481,2|0,1:2|1:2,0:2:0:0:
336,222,200878,1,8,0:2:0:0:
512,259,201021,1,2,1:2:0:0:
512,259,201092,1,0,1:2:0:0:
512,259,201164,1,8,0:2:0:0:
453,114,201307,1,2,1:2:0:0:
387,362,201449,1,8,0:2:0:0:
194,265,201592,6,0,B|77:228|121:310|-8:271,1,198.000006042481,6|0,1:1|1:2,0:2:0:0:
126,49,202021,2,0,L|17:36,1,99.0000030212403,8|0,0:2|0:2,0:2:0:0:
204,165,202307,1,2,1:2:0:0:
298,98,202449,2,0,L|311:-11,1,99.0000030212403,0|8,1:2|0:2,0:2:0:0:
430,242,202735,6,0,P|484:164|452:74,1,198.000006042481,2|0,1:2|1:2,0:2:0:0:
270,248,203164,1,8,0:2:0:0:
270,248,203307,1,0,0:2:0:0:
417,336,203449,1,2,1:2:0:0:
359,157,203592,1,0,1:2:0:0:
302,384,203735,1,8,0:2:0:0:
118,303,203878,5,2,1:1:0:0:
118,303,203949,1,0,1:1:0:0:
118,303,204021,2,0,L|-6:285,1,99.0000030212403,0|0,1:2|1:2,0:2:0:0:
186,61,204307,2,0,L|88:46,1,99.0000030212403,8|0,0:2|0:2,0:2:0:0:
300,232,204592,1,2,1:2:0:0:
465,212,204735,1,0,1:2:0:0:
437,14,204878,1,8,0:2:0:0:
344,155,205021,6,0,B|310:228|358:297|358:297|336:347,1,198.000006042481,2|0,1:2|1:2,0:2:0:0:
157,378,205449,1,8,0:2:0:0:
16,231,205592,2,0,P|2:267|1:338,1,99.0000030212403,2|0,0:2|1:2,0:2:0:0:
178,86,205878,2,0,P|131:69|82:68,1,99.0000030212403,0|8,1:2|0:2,0:2:0:0:
270,236,206164,6,0,L|475:220,1,180,6|0,1:2|1:2,0:2:0:0:
503,150,206592,1,8,0:2:0:0:
366,15,206878,1,0,1:2:0:0:
366,15,207021,1,0,1:2:0:0:
320,92,207164,1,8,0:2:0:0:
209,44,207307,6,0,B|143:32|143:32|113:54|113:54|32:40,1,180,2|0,1:2|1:2,0:2:0:0:
0,125,207735,1,8,0:2:0:0:
187,210,208021,1,0,1:2:0:0:
187,210,208164,1,0,1:2:0:0:
121,283,208307,1,8,0:2:0:0:
214,359,208449,6,0,P|306:374|382:330,1,180,6|0,1:2|1:2,0:2:0:0:
481,221,208878,1,8,0:2:0:0:
481,221,209021,1,0,1:2:0:0:
370,116,209164,1,10,0:2:0:0:
370,116,209307,1,0,1:2:0:0:
266,227,209449,1,8,0:2:0:0:
266,227,209592,1,0,1:2:0:0:
66,89,209735,5,10,0:2:0:0:
167,339,209878,1,8,0:2:0:0:
184,60,210021,5,10,0:2:0:0:
56,356,210164,1,8,0:2:0:0:
54,64,210307,5,10,0:2:0:0:
178,363,210449,1,8,0:2:0:0:
298,62,210592,1,8,0:2:0:0:
347,225,210735,6,0,B|363:277|399:321|424:286|466:332|472:374|472:374|482:381|482:381|446:300|472:232|522:169|409:143|409:143|405:137|405:137|392:195|336:236|239:230|152:161|151:63|220:9|220:9|194:55|203:103|234:129,1,1046.52000638745,6|0,1:2|0:2,0:2:0:0:
