osu file format v14

[General]
AudioFilename: audio.mp3
AudioLeadIn: 0
PreviewTime: 35594
Countdown: 0
SampleSet: Normal
StackLeniency: 0.7
Mode: 1
LetterboxInBreaks: 0
WidescreenStoryboard: 0

[Editor]
Bookmarks: 52,18765,37496,56223,74954,93101
DistanceSpacing: 2.3
BeatDivisor: 2
GridSize: 16
TimelineZoom: 1

[Metadata]
Title:imperial. []
TitleUnicode:imperial. []
Artist:j^p^n
ArtistUnicode:j^p^n
Creator:yenmaster
Version:oni. []
Source:
Tags:instrumental japan jpn lofi beats lo-fi [ prodigal ] electronic lo fi
BeatmapID:2455205
BeatmapSetID:1177190

[Difficulty]
HPDrainRate:6.9
CircleSize:9.2
OverallDifficulty:5.1
ApproachRate:10
SliderMultiplier:1.4
SliderTickRate:1

[Events]
//Background and Video events
0,0,"1.jpg",0,40
//Break Periods
2,51745,53886
//Storyboard Layer 0 (Background)
//Storyboard Layer 1 (Fail)
//Storyboard Layer 2 (Pass)
//Storyboard Layer 3 (Foreground)
//Storyboard Layer 4 (Overlay)
//Storyboard Sound Samples

[TimingPoints]
52,585.365853658537,4,1,0,25,1,0
13927,-100,4,1,0,20,0,0
16994,612.244897959184,4,1,0,15,1,8
16994,-95.6097558550387,4,1,0,15,0,0
18728,-95.6097558550387,4,1,0,60,0,0
18765,585.365853658537,4,1,0,60,1,0
18765,-81.9672131147541,4,1,0,60,0,0
22130,-81.9672131147541,4,1,0,30,0,0
22228,-81.9672131147541,4,1,0,60,0,0
26813,-81.9672131147541,4,1,0,30,0,0
26911,-81.9672131147541,4,1,0,60,0,0
31496,-81.9672131147541,4,1,0,30,0,0
31594,-81.9672131147541,4,1,0,60,0,0
35594,-94.7867298578199,4,1,0,60,0,0
36228,-90.0900900900901,4,1,0,60,0,0
36545,-86.4677907479464,4,1,0,60,0,0
37496,-81.9672131147541,4,1,0,60,0,0
40862,-81.9672131147541,4,1,0,30,0,0
40960,-81.9672131147541,4,1,0,60,0,0
43204,-83.3333333333333,4,1,0,60,0,0
43496,-84.0336134453781,4,1,0,60,0,0
43789,-84.7457627118644,4,1,0,56,0,0
44033,-85.1063829787234,4,1,0,53,0,0
44130,-85.4700854700855,4,1,0,50,0,0
44374,-81.9672131147541,4,1,0,60,0,0
45545,-81.9672131147541,4,1,0,30,0,0
45643,-81.9672131147541,4,1,0,60,0,0
50228,-81.9672131147541,4,1,0,30,0,0
50326,-81.9672131147541,4,1,0,60,0,0
51838,-100,4,1,0,15,0,0
54503,549.954170485793,4,1,0,22,1,8
54503,-105.009633909345,4,1,0,22,0,8
55052,585.365853658537,4,1,0,22,1,8
56125,-95.6097558550387,4,1,0,60,0,0
56223,585.365853658537,4,1,0,60,1,0
56223,-81.9672131147541,4,1,0,60,0,0
59588,-81.9672131147541,4,1,0,30,0,0
59686,-81.9672131147541,4,1,0,60,0,0
60320,-81.9672131147541,4,1,0,51,0,0
60905,-81.9672131147541,4,1,0,60,0,0
64271,-81.9672131147541,4,1,0,30,0,0
64369,-81.9672131147541,4,1,0,60,0,0
64617,-85.4700854700857,4,1,0,60,0,0
64857,-87.7192982456139,4,1,0,42,0,8
65149,-90.0900900900901,4,1,0,42,0,0
65478,-81.9672131147541,4,1,0,60,0,8
68954,-81.9672131147541,4,1,0,30,0,0
69052,-81.9672131147541,4,1,0,60,0,0
72982,-94.7867298578199,4,1,0,60,0,0
73616,-90.0900900900901,4,1,0,60,0,0
73933,-86.4677907479464,4,1,0,60,0,0
74745,-81.9672131147541,4,1,0,60,0,0
78320,-81.9672131147541,4,1,0,30,0,0
78418,-81.9672131147541,4,1,0,51,0,0
79637,-81.9672131147541,4,1,0,60,0,8
83003,-81.9672131147541,4,1,0,30,0,0
83101,-81.9672131147541,4,1,0,60,0,0
87686,-81.9672131147541,4,1,0,30,0,0
87784,-81.9672131147541,4,1,0,60,0,0
91281,-100,4,1,0,41,0,0
91783,-104.166666666667,4,1,0,41,0,8
92369,-107.52688172043,4,1,0,36,0,8
92954,-111.111111111111,4,1,0,31,0,8

[HitObjects]
256,512,52,5,8,0:0:0:0:
256,512,2393,1,8,0:0:0:0:
256,512,4734,1,8,0:0:0:0:
256,512,7076,1,8,0:0:0:0:
256,512,8832,1,0,0:0:0:0:
256,512,9417,5,8,0:0:0:0:
256,512,11759,1,8,0:0:0:0:
256,512,14100,1,0,0:0:0:0:
256,512,16994,5,0,0:0:0:0:
256,512,17606,1,0,0:0:0:0:
256,512,18218,1,0,0:0:0:0:
256,512,18765,5,12,0:0:0:0:
256,512,19350,1,0,0:0:0:0:
256,512,19935,1,8,0:0:0:0:
256,512,20228,1,8,0:0:0:0:
256,512,20521,1,8,0:0:0:0:
256,512,20667,1,8,0:0:0:0:
256,512,20813,1,0,0:0:0:0:
256,512,21106,1,0,0:0:0:0:
256,512,21691,1,0,0:0:0:0:
256,512,22179,1,0,0:0:0:0:
256,512,22277,1,8,0:0:0:0:
256,512,22716,1,8,0:0:0:0:
256,512,22862,1,0,0:0:0:0:
256,512,23008,1,8,0:0:0:0:
256,512,23155,1,8,0:0:0:0:
256,512,23301,1,8,0:0:0:0:
256,512,23447,5,0,0:0:0:0:
256,512,24033,1,0,0:0:0:0:
256,512,24618,1,8,0:0:0:0:
256,512,24911,1,0,0:0:0:0:
256,512,25204,1,8,0:0:0:0:
256,512,25350,1,8,0:0:0:0:
256,512,25496,1,0,0:0:0:0:
256,512,25789,1,0,0:0:0:0:
256,512,26374,1,0,0:0:0:0:
256,512,26862,1,0,0:0:0:0:
256,512,26960,1,8,0:0:0:0:
256,512,27399,1,8,0:0:0:0:
256,512,27545,1,0,0:0:0:0:
256,512,27691,1,8,0:0:0:0:
256,512,28130,5,0,0:0:0:0:
256,512,28716,1,0,0:0:0:0:
256,512,29301,1,8,0:0:0:0:
256,512,29594,1,8,0:0:0:0:
256,512,29886,1,8,0:0:0:0:
256,512,30033,1,8,0:0:0:0:
256,512,30179,1,0,0:0:0:0:
256,512,30472,1,0,0:0:0:0:
256,512,31057,1,0,0:0:0:0:
256,512,31545,1,0,0:0:0:0:
256,512,31643,1,8,0:0:0:0:
256,512,31972,1,0,0:0:0:0:
256,512,32033,1,0,0:0:0:0:
256,512,32228,1,8,0:0:0:0:
256,512,32521,1,8,0:0:0:0:
256,512,32667,1,8,0:0:0:0:
256,512,32813,5,0,0:0:0:0:
256,512,33399,1,0,0:0:0:0:
256,512,33984,1,8,0:0:0:0:
256,512,34277,1,8,0:0:0:0:
256,512,34569,1,8,0:0:0:0:
256,512,34716,1,8,0:0:0:0:
256,512,34862,1,0,0:0:0:0:
256,512,35155,1,0,0:0:0:0:
256,512,35740,1,0,0:0:0:0:
256,512,36325,1,0,0:0:0:0:
256,512,36911,1,8,0:0:0:0:
256,512,37496,5,12,0:0:0:0:
256,512,38082,1,0,0:0:0:0:
256,512,38667,1,8,0:0:0:0:
256,512,38960,1,8,0:0:0:0:
256,512,39252,1,8,0:0:0:0:
256,512,39399,1,8,0:0:0:0:
256,512,39545,1,0,0:0:0:0:
256,512,39838,1,0,0:0:0:0:
256,512,40423,1,0,0:0:0:0:
256,512,40911,1,0,0:0:0:0:
256,512,41008,1,8,0:0:0:0:
256,512,41447,1,8,0:0:0:0:
256,512,41594,1,0,0:0:0:0:
256,512,41740,1,0,0:0:0:0:
256,512,41886,1,8,0:0:0:0:
256,512,42033,1,8,0:0:0:0:
256,512,42179,5,0,0:0:0:0:
256,512,42765,1,0,0:0:0:0:
256,512,43350,1,8,0:0:0:0:
256,512,43643,1,0,0:0:0:0:
256,512,43935,1,8,0:0:0:0:
256,512,44082,1,8,0:0:0:0:
256,512,44228,1,0,0:0:0:0:
256,512,44521,1,0,0:0:0:0:
256,512,45106,1,0,0:0:0:0:
256,512,45594,1,0,0:0:0:0:
256,512,45691,1,8,0:0:0:0:
256,512,46130,1,8,0:0:0:0:
256,512,46277,1,0,0:0:0:0:
256,512,46423,1,8,0:0:0:0:
256,512,46862,5,0,0:0:0:0:
256,512,47447,1,0,0:0:0:0:
256,512,48033,1,8,0:0:0:0:
256,512,48325,1,8,0:0:0:0:
256,512,48618,1,8,0:0:0:0:
256,512,48765,1,8,0:0:0:0:
256,512,48911,1,0,0:0:0:0:
256,512,49204,1,0,0:0:0:0:
256,512,49789,1,0,0:0:0:0:
256,512,50277,1,0,0:0:0:0:
256,512,50374,1,8,0:0:0:0:
256,512,50704,1,0,0:0:0:0:
256,512,50765,1,0,0:0:0:0:
256,512,50960,1,8,0:0:0:0:
256,512,51252,1,8,0:0:0:0:
256,512,51399,1,8,0:0:0:0:
256,512,51545,5,0,0:0:0:0:
256,512,54503,5,0,0:0:0:0:
256,512,55052,1,0,0:0:0:0:
256,512,55344,1,0,0:0:0:0:
256,512,55637,1,8,0:0:0:0:
256,512,55930,1,0,0:0:0:0:
256,512,56223,1,12,0:0:0:0:
256,512,56808,1,0,0:0:0:0:
256,512,57393,1,8,0:0:0:0:
256,512,57686,1,8,0:0:0:0:
256,512,57979,1,8,0:0:0:0:
256,512,58125,1,8,0:0:0:0:
256,512,58271,1,0,0:0:0:0:
256,512,58564,1,0,0:0:0:0:
256,512,59149,1,0,0:0:0:0:
256,512,59637,1,0,0:0:0:0:
256,512,59735,1,8,0:0:0:0:
256,512,60174,1,0,0:0:0:0:
256,512,60320,1,0,0:0:0:0:
256,512,60466,1,8,0:0:0:0:
256,512,60613,1,8,0:0:0:0:
256,512,60759,1,8,0:0:0:0:
256,512,60905,5,0,0:0:0:0:
256,512,61491,1,0,0:0:0:0:
256,512,62076,1,8,0:0:0:0:
256,512,62369,1,0,0:0:0:0:
256,512,62662,1,8,0:0:0:0:
256,512,62808,1,8,0:0:0:0:
256,512,62954,1,0,0:0:0:0:
256,512,63247,1,0,0:0:0:0:
256,512,63832,1,0,0:0:0:0:
256,512,64320,1,0,0:0:0:0:
256,512,64418,1,8,0:0:0:0:
256,512,64710,1,0,0:0:0:0:
256,512,65003,1,8,0:0:0:0:
256,512,65296,1,8,0:0:0:0:
256,512,65588,5,0,0:0:0:0:
256,512,66174,1,0,0:0:0:0:
256,512,66759,1,8,0:0:0:0:
256,512,67052,1,8,0:0:0:0:
256,512,67344,1,8,0:0:0:0:
256,512,67491,1,8,0:0:0:0:
256,512,67637,1,0,0:0:0:0:
256,512,67930,1,0,0:0:0:0:
256,512,68515,1,0,0:0:0:0:
256,512,69003,1,0,0:0:0:0:
256,512,69101,1,8,0:0:0:0:
256,512,69430,1,0,0:0:0:0:
256,512,69491,1,0,0:0:0:0:
256,512,69686,1,8,0:0:0:0:
256,512,69979,1,8,0:0:0:0:
256,512,70125,1,8,0:0:0:0:
256,512,70271,5,0,0:0:0:0:
256,512,70857,1,0,0:0:0:0:
256,512,71442,1,8,0:0:0:0:
256,512,71735,1,8,0:0:0:0:
256,512,72027,1,8,0:0:0:0:
256,512,72174,1,8,0:0:0:0:
256,512,72320,1,0,0:0:0:0:
256,512,72613,1,0,0:0:0:0:
256,512,73198,1,0,0:0:0:0:
256,512,73783,1,0,0:0:0:0:
256,512,74369,1,8,0:0:0:0:
256,512,74954,5,12,0:0:0:0:
256,512,75540,1,0,0:0:0:0:
256,512,76125,1,8,0:0:0:0:
256,512,76418,1,8,0:0:0:0:
256,512,76710,1,8,0:0:0:0:
256,512,76857,1,8,0:0:0:0:
256,512,77003,1,0,0:0:0:0:
256,512,77296,1,0,0:0:0:0:
256,512,77881,1,0,0:0:0:0:
256,512,78369,1,0,0:0:0:0:
256,512,78466,1,8,0:0:0:0:
256,512,78905,1,0,0:0:0:0:
256,512,79052,1,0,0:0:0:0:
256,512,79198,1,8,0:0:0:0:
256,512,79344,1,8,0:0:0:0:
256,512,79491,1,8,0:0:0:0:
256,512,79637,5,0,0:0:0:0:
256,512,80223,1,0,0:0:0:0:
256,512,80808,1,8,0:0:0:0:
256,512,81101,1,0,0:0:0:0:
256,512,81393,1,8,0:0:0:0:
256,512,81540,1,8,0:0:0:0:
256,512,81686,1,0,0:0:0:0:
256,512,81979,1,0,0:0:0:0:
256,512,82564,1,0,0:0:0:0:
256,512,83052,1,0,0:0:0:0:
256,512,83149,1,8,0:0:0:0:
256,512,83588,1,8,0:0:0:0:
256,512,83735,1,0,0:0:0:0:
256,512,83881,1,8,0:0:0:0:
256,512,84320,5,0,0:0:0:0:
256,512,84905,1,0,0:0:0:0:
256,512,85491,1,8,0:0:0:0:
256,512,85783,1,8,0:0:0:0:
256,512,86076,1,8,0:0:0:0:
256,512,86223,1,8,0:0:0:0:
256,512,86369,1,0,0:0:0:0:
256,512,86662,1,0,0:0:0:0:
256,512,87247,1,0,0:0:0:0:
256,512,87735,1,0,0:0:0:0:
256,512,87832,1,8,0:0:0:0:
256,512,88162,1,0,0:0:0:0:
256,512,88223,1,0,0:0:0:0:
256,512,88418,1,8,0:0:0:0:
256,512,88710,1,8,0:0:0:0:
256,512,88857,1,8,0:0:0:0:
256,512,89003,5,0,0:0:0:0:
256,512,89588,1,0,0:0:0:0:
256,512,90174,1,8,0:0:0:0:
256,512,90466,1,0,0:0:0:0:
256,512,90759,1,8,0:0:0:0:
256,512,90905,1,8,0:0:0:0:
256,512,91052,1,0,0:0:0:0:
256,512,91930,5,8,0:0:0:0:
256,512,92515,1,0,0:0:0:0:
256,512,93101,1,0,0:0:0:0:
