osu file format v14

[General]
AudioFilename: audio.mp3
AudioLeadIn: 0
PreviewTime: 18710
Countdown: 0
SampleSet: Soft
StackLeniency: 0.4
Mode: 0
LetterboxInBreaks: 0
WidescreenStoryboard: 1

[Editor]
Bookmarks: 18741,37473,51522,56247,74978
DistanceSpacing: 1.1
BeatDivisor: 12
GridSize: 4
TimelineZoom: 2.299999

[Metadata]
Title:imperial. []
TitleUnicode:imperial. []
Artist:j^p^n
ArtistUnicode:j^p^n
Creator:Mortem
Version:hard.
Source:
Tags:jpn japan beats sad [prodigal] prodigal 3333 lofi lo-fi Cio Che E' Scritto Nel Vento Giorgio Gaslini Rivelazioni Di Un Maniaco Sessuale Al Capo Della Squadra Mobile Pjecoo
BeatmapID:1712133
BeatmapSetID:816410

[Difficulty]
HPDrainRate:5
CircleSize:5
OverallDifficulty:6
ApproachRate:7.5
SliderMultiplier:1.8
SliderTickRate:1

[Events]
//Background and Video events
0,0,"lvh-uoURZfc.jpg",0,0
//Break Periods
//Storyboard Layer 0 (Background)
//Storyboard Layer 1 (Fail)
//Storyboard Layer 2 (Pass)
//Storyboard Layer 3 (Foreground)
//Storyboard Layer 4 (Overlay)
//Storyboard Sound Samples

[TimingPoints]
52,585.365853658537,4,2,22,25,1,0
52,-133.333333333333,4,2,22,25,0,0
16994,612.244897959184,4,2,22,25,1,0
18765,585.365853658537,4,2,22,50,1,0
35449,-100,4,2,22,5,0,0
35669,-100,4,2,22,50,0,0
36035,-100,4,2,22,5,0,0
36254,-100,4,2,22,50,0,0
36620,-100,4,2,22,5,0,0
36839,-100,4,2,22,50,0,0
37205,-100,4,2,22,5,0,0
37425,-100,4,2,22,50,0,0
51547,-100,4,2,22,15,0,0
51620,-100,4,2,22,5,0,0
54503,549.954170485793,4,2,22,25,1,0
55052,585.365853658537,4,2,22,25,1,0
56223,585.365853658537,4,2,22,50,1,0
60174,-100,4,2,22,25,0,0
60906,-100,4,2,22,50,0,0
64710,-100,4,2,22,25,0,0
65588,-100,4,2,22,50,0,0
68296,-100,4,2,22,5,0,0
68442,-100,4,2,22,50,0,0
68881,-100,4,2,22,5,0,0
69028,-100,4,2,22,50,0,0
72906,-100,4,2,22,5,0,0
73125,-100,4,2,22,50,0,0
73491,-100,4,2,22,5,0,0
73710,-100,4,2,22,50,0,0
74076,-100,4,2,22,5,0,0
74296,-100,4,2,22,50,0,0
74662,-100,4,2,22,5,0,0
74883,-100,4,2,22,50,0,0
78906,-100,4,2,22,25,0,0
79637,-100,4,2,22,50,0,0
91491,-100,4,2,22,15,0,0

[Colours]
Combo1 : 145,140,181
Combo2 : 192,192,192
Combo3 : 128,128,128
Combo4 : 121,175,105
Combo5 : 64,169,187
Combo6 : 53,85,30
Combo7 : 174,171,184
Combo8 : 224,156,105
SliderBorder : 160,150,140
SliderTrackOverride : 110,100,100

[HitObjects]
190,152,52,6,4,P|147:176|57:167,2,135.000005149842,4|0|0,0:3|0:0|0:0,0:0:0:0:
285,56,1809,1,0,0:0:0:0:
285,56,2394,6,0,P|313:94|402:109,1,135.000005149842,4|0,0:3|0:0,0:0:0:0:
475,220,3565,2,0,P|409:226|364:275,1,135.000005149842
240,326,4735,102,0,P|198:316|109:340,2,135.000005149842,4|0|0,0:3|0:0|0:0,0:0:0:0:
323,219,6492,1,0,0:0:0:0:
323,219,7077,6,0,P|338:164|296:96,1,135.000005149842,4|0,0:3|0:0,0:0:0:0:
192,179,8248,2,0,P|177:234|219:302,1,135.000005149842
346,322,9418,102,0,B|356:319|376:276|365:233|336:206|311:194|290:177|277:136|282:101|299:71|361:48|423:70|432:145|398:177|361:171|353:138,1,405.000015449525,4|0,0:3|0:0,0:0:0:0:
202,138,11760,2,0,B|170:169|121:168|121:168|92:182|41:178|19:144|32:79|91:62|175:86|130:166|93:207|118:261,1,405.000015449525,4|0,0:3|0:0,0:0:0:0:
256,192,14100,12,0,16442,0:0:0:0:
132,192,16994,5,0,0:0:0:0:
256,136,17606,1,0,0:0:0:0:
380,192,18218,1,0,0:0:0:0:
380,192,18765,6,0,P|388:248|272:268,1,180,4|0,0:3|0:0,0:0:0:0:
143,177,19935,2,0,P|149:151|140:88,1,90,8|0,0:1|0:0,0:0:0:0:
24,158,20520,1,8,0:1:0:0:
24,158,20667,2,0,P|21:180|22:202,1,45,8|4,0:1|0:3,0:0:0:0:
168,266,21106,6,0,B|259:227|259:306|353:254,1,180,4|0,0:3|0:0,0:0:0:0:
484,150,22276,1,8,0:1:0:0:
326,23,22715,1,8,0:0:0:0:
287,78,22862,2,8,P|265:70|243:67,1,45
185,103,23155,2,8,P|181:125|173:146,1,45
109,124,23447,102,0,B|96:158|118:194|118:194|58:227|75:288,1,180,4|0,0:3|0:0,0:0:0:0:
281,335,24618,2,0,P|331:323|372:327,1,90,8|0,0:1|0:0,0:0:0:0:
475,242,25204,1,8,0:1:0:0:
475,242,25350,2,0,P|483:213|481:187,1,45,8|4,0:1|0:3,0:0:0:0:
360,109,25789,6,0,P|317:128|218:58,1,180,4|0,0:3|0:0,0:0:0:0:
62,149,26960,2,0,P|69:187|35:274,1,135,8|10,0:1|0:0,0:0:0:0:
79,325,27545,2,8,P|102:324|124:330,1,45
290,159,28130,102,0,P|343:99|396:159,1,180,4|0,0:3|0:0,0:0:0:0:
239,248,29301,2,0,P|219:282|223:337,1,90,8|0,0:1|0:0,0:0:0:0:
355,319,29886,1,8,0:1:0:0:
355,319,30033,2,0,P|379:331|406:334,1,45,8|4,0:1|0:3,0:0:0:0:
378,163,30472,6,0,B|334:191|293:164|293:164|244:133|205:162,1,180,4|0,0:3|0:0,0:0:0:0:
100,302,31642,1,8,0:1:0:0:
24,146,31935,2,2,L|21:118,2,15,2|2|10,0:0|0:0|0:0,0:0:0:0:
67,213,32228,2,0,P|113:199|161:213,1,90,8|8,0:0|0:0,0:0:0:0:
215,176,32667,1,8,0:0:0:0:
274,217,32813,102,0,P|349:252|410:187,1,180,4|0,0:3|0:0,0:0:0:0:
282,67,33984,2,0,P|244:78|193:69,1,90,8|0,0:1|0:0,0:0:0:0:
71,124,34569,1,8,0:1:0:0:
71,124,34716,2,0,P|62:153|63:173,1,45,8|4,0:1|0:3,0:0:0:0:
197,280,35154,6,0,B|216:288|235:311|235:311|271:284|323:303,1,135,4|0,0:3|0:0,0:0:0:0:
351,269,35740,2,2,P|343:225|393:147,1,135,0|2,0:0|0:0,0:3:0:0:
366,110,36325,2,2,P|322:118|244:68,1,135,8|2,0:1|0:3,0:3:0:0:
204,86,36911,2,2,P|170:125|87:137,1,135,0|2,0:0|0:3,0:3:0:0:
63,173,37496,6,0,P|76:222|-13:319,1,180,4|0,0:3|0:0,0:0:0:0:
181,334,38667,2,0,P|223:326|278:335,1,90,8|0,0:1|0:0,0:0:0:0:
381,255,39252,1,8,0:1:0:0:
381,255,39398,2,0,P|384:233|383:211,1,45,8|4,0:1|0:3,0:0:0:0:
256,120,39837,6,0,B|200:95|146:123|146:123|124:102|79:104,1,180,4|0,0:3|0:0,0:0:0:0:
144,273,41008,1,8,0:1:0:0:
336,337,41447,1,8,0:0:0:0:
376,283,41593,2,8,P|384:261|387:239,1,45
340,190,41886,2,8,P|320:198|297:201,1,45
219,155,42179,102,0,P|138:126|72:181,1,180,4|0,0:3|0:0,0:0:0:0:
340,190,43350,2,0,P|372:209|428:209,1,90,8|0,0:1|0:0,0:0:0:0:
420,62,43935,1,2,0:0:0:0:
420,62,44081,2,0,P|408:86|405:113,1,45,2|2,0:0|0:0,0:0:0:0:
313,262,44520,6,0,B|277:285|269:318|269:318|210:283|165:306,1,180,4|0,0:3|0:0,0:0:0:0:
130,128,45691,2,0,P|142:92|130:33,1,90,8|0,0:1|0:0,0:0:0:0:
89,32,46130,2,8,P|59:37|38:45,2,45,8|10|8,0:0|0:0|0:0,0:0:0:0:
256,191,46862,102,0,P|285:218|400:165,1,180,4|0,0:3|0:0,0:0:0:0:
204,136,48033,2,0,P|181:180|186:223,1,90,8|0,0:1|0:0,0:0:0:0:
262,329,48618,1,8,0:1:0:0:
262,329,48765,2,0,P|284:332|306:331,1,45,8|4,0:1|0:3,0:0:0:0:
394,212,49203,6,0,P|379:164|455:64,2,180,4|0|8,0:3|0:0|0:1,0:0:0:0:
264,325,50667,2,2,L|264:347,2,15,2|2|8,0:0|0:0|0:0,0:0:0:0:
210,271,50959,2,0,P|199:227|210:177,1,90,8|8,0:0|0:0,0:0:0:0:
173,124,51398,1,8,0:0:0:0:
106,163,51545,101,4,0:3:0:0:
256,192,51691,12,0,53886,0:0:0:0:
128,212,54503,5,0,0:0:0:0:
255,84,55052,1,0,0:0:0:0:
382,211,55637,1,0,0:0:0:0:
255,339,56223,6,0,P|196:313|211:206,1,180,4|0,0:3|0:0,0:0:0:0:
347,101,57393,2,0,P|381:108|434:87,1,90,8|0,0:1|0:0,0:0:0:0:
307,33,57979,1,8,0:1:0:0:
307,33,58125,2,0,P|287:44|269:63,1,45,8|4,0:1|0:3,0:0:0:0:
220,206,58564,6,0,P|194:235|146:150,1,180,4|0,0:3|0:0,0:0:0:0:
240,303,59735,2,0,P|287:261|305:191,1,135,8|8,0:1|0:0,0:0:0:0:
351,144,60320,2,0,P|379:146|404:140,1,45,8|8,0:0|0:0,0:0:0:0:
450,102,60613,2,0,P|452:74|445:48,1,45,8|8,0:0|0:0,0:0:0:0:
358,35,60906,102,0,B|313:19|269:41|269:41|219:60|178:36,1,180,4|0,0:3|0:0,0:0:0:0:
92,197,62076,2,0,P|100:253|83:287,1,90,8|0,0:1|0:0,0:0:0:0:
201,354,62662,1,8,0:1:0:0:
201,354,62808,2,0,P|223:357|245:356,1,45,8|4,0:1|0:3,0:0:0:0:
331,265,63247,6,0,P|364:224|345:104,2,180,4|0|8,0:3|0:0|0:1,0:0:0:0:
267,328,64710,1,0,0:0:0:0:
203,264,65003,1,0,0:0:0:0:
266,200,65296,1,0,0:0:0:0:
266,200,65589,102,4,B|289:154|268:119|268:119|247:76|280:20,2,180,4|0|8,0:3|0:0|0:1,0:0:0:0:
191,250,67052,1,0,0:0:0:0:
87,162,67345,1,8,0:1:0:0:
87,162,67491,2,0,P|90:140|89:118,1,45,8|4,0:1|0:3,0:0:0:0:
259,76,67930,6,0,P|309:91|394:66,1,135,4|0,0:3|0:0,0:0:0:0:
429,122,68515,2,0,P|414:172|439:257,1,135
467,309,69101,1,8,0:1:0:0:
345,343,69393,2,8,L|345:361,2,15,2|2|8,0:0|0:0|0:0,0:0:0:0:
294,299,69686,2,0,B|270:260|301:206,1,90,8|8,0:0|0:0,0:0:0:0:
329,158,70125,1,8,0:0:0:0:
329,158,70271,102,0,P|248:149|201:226,1,180,4|0,0:3|0:0,0:0:0:0:
338,335,71442,2,0,P|394:327|428:344,1,90,8|0,0:1|0:0,0:0:0:0:
507,233,72028,1,8,0:1:0:0:
507,233,72174,2,0,P|510:211|509:189,1,45,8|4,0:1|0:3,0:0:0:0:
324,100,72613,6,0,B|306:96|278:105|278:105|236:77|185:100,1,135,4|0,0:3|0:0,0:0:0:0:
158,128,73198,2,2,P|173:196|158:260,1,135,0|0,0:0|0:0,0:3:0:0:
189,289,73784,2,2,P|254:274|320:290,1,135,8|0,0:1|0:3,0:3:0:0:
347,254,74369,2,2,P|332:189|348:123,1,135,0|0,0:3|0:3,0:3:0:0:
382,95,74954,70,4,B|410:122|451:121|451:121|417:163|436:222,1,180,4|0,0:3|0:0,0:0:0:0:
317,324,76125,1,8,0:1:0:0:
229,303,76418,1,0,0:0:0:0:
96,326,76710,1,8,0:1:0:0:
96,326,76857,2,0,P|78:299|76:280,1,45,8|4,0:1|0:3,0:0:0:0:
231,151,77296,6,0,P|279:135|403:164,2,180,4|0|8,0:3|0:0|0:1,0:0:0:0:
98,224,78906,1,8,0:0:0:0:
46,269,79053,2,8,P|38:290|36:312,1,45
90,355,79345,2,8,P|98:334|101:311,1,45
155,271,79637,102,0,P|207:301|293:234,1,180,4|0,0:3|0:0,0:0:0:0:
187,47,80808,1,8,0:1:0:0:
104,83,81101,1,0,0:0:0:0:
10,179,81393,1,8,0:1:0:0:
10,179,81540,2,0,P|7:201|8:223,1,45,8|4,0:1|0:3,0:0:0:0:
143,285,81979,6,0,B|192:276|229:297|229:297|261:275|320:285,1,180,4|0,0:3|0:0,0:0:0:0:
418,135,83149,2,0,P|406:99|418:40,1,90,8|0,0:1|0:0,0:0:0:0:
348,31,83588,2,8,P|325:41|297:44,2,45,8|8|10,0:0|0:0|0:0,0:0:0:0:
250,220,84320,102,0,P|248:268|132:291,1,180,4|0,0:3|0:0,0:0:0:0:
223,138,85491,2,0,P|265:133|311:158,1,90,8|0,0:1|0:0,0:0:0:0:
423,221,86076,1,8,0:1:0:0:
423,221,86223,2,0,P|445:228|467:223,1,45,8|4,0:1|0:3,0:0:0:0:
264,272,86662,6,0,P|227:288|138:200,2,180,4|0|8,0:3|0:0|0:1,0:0:0:0:
386,156,88125,2,8,L|386:130,2,15,2|2|8,0:0|0:0|0:0,0:0:0:0:
433,228,88418,2,0,P|444:272|433:322,1,90,8|8,0:0|0:0,0:0:0:0:
378,353,88857,1,8,0:0:0:0:
314,330,89003,102,0,P|265:339|206:241,1,180,4|0,0:3|0:0,0:0:0:0:
273,74,90174,1,8,0:1:0:0:
360,93,90467,1,0,0:0:0:0:
447,195,90759,1,8,0:1:0:0:
447,195,90906,2,0,P|450:217|448:239,1,45,8|4,0:1|0:3,0:0:0:0:
256,328,91345,5,4,0:3:0:0:
256,192,91491,12,0,93101,0:0:0:0:
