osu file format v14

[General]
AudioFilename: audio.mp3
AudioLeadIn: 0
PreviewTime: 32604
Countdown: 1
SampleSet: Soft
StackLeniency: 0.7
Mode: 0
LetterboxInBreaks: 0
WidescreenStoryboard: 0

[Editor]
Bookmarks: 29937,112604,148604,149270
DistanceSpacing: 1.3
BeatDivisor: 6
GridSize: 16
TimelineZoom: 2.3

[Metadata]
Title:Goodbye, maboroshi
TitleUnicode:さよなら、まぼろし
Artist:itsue
ArtistUnicode:イツエ
Creator:spooky fish
Version:Goodbye
Source:
Tags:
BeatmapID:1126894
BeatmapSetID:531742

[Difficulty]
HPDrainRate:6
CircleSize:4
OverallDifficulty:7
ApproachRate:8.5
SliderMultiplier:1.6
SliderTickRate:1

[Events]
//Background and Video events
0,0,"itsue.png",0,0
//Break Periods
2,30137,31929
2,71137,74595
2,133470,147929
//Storyboard Layer 0 (Background)
//Storyboard Layer 1 (Fail)
//Storyboard Layer 2 (Pass)
//Storyboard Layer 3 (Foreground)
//Storyboard Sound Samples

[TimingPoints]
604,666.666666666667,4,2,0,25,1,0
3276,-100,4,2,0,25,0,0
7054,-100,4,2,0,25,0,0
11276,-80,4,1,0,25,0,0
16610,-80,4,1,0,25,0,0
21937,-66.6666666666667,4,1,0,25,0,0
25937,-133.333333333333,4,1,0,25,0,0
27048,-80,4,1,0,25,0,0
32604,-133.333333333333,4,1,0,35,0,0
75270,-100,4,1,0,35,0,0
78270,-133.333333333333,4,1,0,35,0,0
80270,-100,4,1,0,35,0,0
83270,-100,4,1,0,35,0,0
91270,-100,4,1,0,35,0,1
109937,-200,4,1,0,35,0,0
112604,-133.333333333333,4,1,0,35,0,0
113604,-100,4,1,0,35,0,0
132270,-133.333333333333,4,1,0,35,0,0
149270,-100,4,1,0,35,0,0
149937,-66.6666666666667,4,1,0,50,0,0
155270,-100,4,1,0,50,0,0
174937,-66.6666666666667,4,1,0,50,0,0
182604,-100,4,1,0,50,0,0
191937,-133.333333333333,4,1,0,50,0,1
194937,-100,4,1,0,50,0,1
196604,-100,4,1,0,50,0,1
219492,-133.333333333333,4,2,0,35,0,0
221937,-100,4,2,0,25,0,0
229937,-133.333333333333,4,2,0,25,0,0
230604,-200,4,2,0,25,0,0

[HitObjects]
136,40,604,6,0,P|118:65|111:93,1,53.3333333333333
108,144,1048,1,0,0:0:0:0:
216,280,1270,2,0,P|232:240|229:222,1,53.3333333333333
231,182,1715,1,0,0:0:0:0:
356,315,1937,6,0,P|364:267|360:251,1,53.3333333333333
359,216,2381,1,0,0:0:0:0:
282,48,2604,2,0,P|266:88|269:107,1,53.3333333333333
271,144,3048,1,0,0:0:0:0:
380,302,3270,6,0,L|324:248,1,53.3333333333333,0|0,0:1|0:1,0:1:0:0:
273,204,3715,1,0,0:0:0:0:
164,66,3937,2,0,L|202:115,1,53.3333333333333
351,219,4381,2,0,L|391:262,2,53.3333333333333
166,96,5048,2,0,L|132:46,2,53.3333333333333
237,193,5715,1,0,0:0:0:0:
376,145,5937,6,0,L|331:191,1,53.3333333333333
300,223,6381,1,0,0:0:0:0:
449,74,6604,2,0,L|415:111,2,26.6666666666667
354,215,7048,5,0,0:0:0:0:
196,130,7270,2,0,P|166:187|171:233,1,106.666666666667
183,259,7826,1,0,0:0:0:0:
208,282,7937,1,0,0:0:0:0:
264,200,8159,1,0,0:0:0:0:
388,265,8381,1,0,0:0:0:0:
415,55,8604,6,0,L|391:122,1,53.3333333333333
397,105,9048,1,0,0:0:0:0:
211,282,9270,1,0,0:0:0:0:
211,282,9492,2,0,L|244:233,1,53.3333333333333
301,144,9937,1,0,0:0:0:0:
309,8,10159,1,0,0:0:0:0:
165,65,10381,1,0,0:0:0:0:
312,163,10604,5,0,0:0:0:0:
307,17,10826,1,0,0:0:0:0:
169,75,11048,1,0,0:0:0:0:
355,184,11270,5,0,0:0:0:0:
447,303,11492,2,0,L|408:249,1,66.6666666666667
268,140,11937,1,0,0:0:0:0:
211,283,12159,2,0,L|238:218,1,66.6666666666667
218,64,12604,5,0,0:0:0:0:
112,240,12826,2,0,L|144:160,1,66.6666666666667
219,30,13270,1,0,0:0:0:0:
350,201,13492,2,0,L|315:143,1,66.6666666666667
194,29,13937,6,0,P|157:69|154:83,1,66.6666666666667
144,201,14381,1,0,0:0:0:0:
262,135,14604,2,0,P|266:189|257:203,1,66.6666666666667
163,315,15048,1,0,0:0:0:0:
178,174,15270,5,0,0:0:0:0:
315,285,15492,1,0,0:0:0:0:
144,347,15715,1,0,0:0:0:0:
178,174,15937,5,0,0:0:0:0:
321,281,16159,1,0,0:0:0:0:
148,339,16381,1,0,0:0:0:0:
360,133,16604,6,0,L|329:202,1,66.6666666666667
253,265,17048,1,0,0:0:0:0:
241,240,17159,1,0,0:0:0:0:
228,217,17270,1,0,0:0:0:0:
117,73,17492,1,0,0:0:0:0:
117,73,17715,2,0,P|108:105|113:142,1,66.6666666666667,0|0,0:3|0:3,0:3:0:0:
176,288,18159,5,0,0:0:0:0:
176,288,18270,1,0,0:0:0:0:
176,288,18381,2,0,L|201:227,1,66.6666666666667,0|0,0:3|0:3,0:3:0:0:
260,129,18826,1,0,0:0:0:0:
260,129,18937,1,0,0:0:0:0:
260,129,19048,2,0,L|300:195,1,66.6666666666667
390,297,19492,5,0,0:0:0:0:
484,223,19715,2,0,P|448:188|427:179,1,66.6666666666667
292,264,20159,1,0,0:0:0:0:
292,264,20270,1,0,0:0:0:0:
292,264,20381,2,0,L|267:202,1,66.6666666666667
235,62,20826,5,0,0:0:0:0:
169,248,21048,1,0,0:0:0:0:
37,108,21270,1,0,0:0:0:0:
242,66,21492,1,0,0:0:0:0:
181,251,21715,1,0,0:0:0:0:
141,71,21937,6,0,L|169:173,1,80.0000030517579
163,147,22381,1,0,0:0:0:0:
324,318,22604,2,0,P|356:269|347:220,1,80.0000030517579
357,249,23048,1,0,0:0:0:0:
340,69,23270,6,0,L|280:122,1,80.0000030517579
280,122,23715,1,0,0:0:0:0:
138,253,23937,2,0,P|113:197|120:172,1,80.0000030517579
115,180,24381,1,0,0:0:0:0:
211,46,24604,6,0,P|187:88|190:136,1,80.0000030517579
192,204,25048,1,0,0:0:0:0:
347,131,25270,2,0,P|357:219|353:226,1,80.0000030517579
323,275,25715,1,0,0:0:0:0:
94,230,25937,6,0,B|137:273|137:273|198:288,1,120.000004577637
352,111,27048,5,0,0:0:0:0:
352,111,27270,2,0,L|314:171,2,66.6666666666667
238,274,27937,2,0,L|289:349,2,66.6666666666667
162,176,28604,5,0,0:0:0:0:
286,32,28826,1,0,0:0:0:0:
376,201,29048,1,0,0:0:0:0:
168,171,29270,5,0,0:0:0:0:
294,40,29492,1,0,0:0:0:0:
370,204,29715,1,0,0:0:0:0:
279,147,29937,5,4,0:0:0:0:
266,140,32604,6,0,P|245:188|211:210,1,80.0000030517579
109,219,33270,1,0,0:0:0:0:
176,129,33604,1,0,0:0:0:0:
58,47,33937,2,0,L|93:123,1,80.0000030517579
251,175,34604,1,0,0:0:0:0:
251,175,34937,2,0,L|215:241,2,60.0000022888185
334,55,35937,5,0,0:0:0:0:
328,238,36270,1,0,0:0:0:0:
328,238,36604,2,0,L|409:144,1,120.000004577637
93,161,37604,1,0,0:0:0:0:
93,161,37937,2,0,L|163:260,1,120.000004577637
243,97,38937,2,0,L|224:156,2,60.0000022888185
267,28,39937,1,0,0:0:0:0:
309,193,40270,5,0,0:0:0:0:
263,277,40604,2,0,L|219:222,1,60.0000022888185
94,91,41270,2,0,L|129:140,1,60.0000022888185
240,207,41937,1,0,0:0:0:0:
263,70,42270,1,0,0:0:0:0:
137,115,42604,1,0,0:0:0:0:
315,240,42937,5,0,0:0:0:0:
318,245,43270,2,0,L|280:361,1,120.000004577637
109,110,44270,1,0,0:0:0:0:
107,115,44604,2,0,L|171:219,1,120.000004577637
402,132,45604,1,0,0:0:0:0:
402,132,45937,2,0,P|340:99|276:98,1,120.000004577637
240,298,46937,1,0,0:0:0:0:
240,298,47270,2,0,P|200:230|198:184,1,120.000004577637
346,93,48270,5,0,0:0:0:0:
339,96,48604,2,0,P|304:148|286:211,1,120.000004577637
264,301,49604,6,0,P|331:284|365:232,1,120.000004577637
278,137,50604,1,0,0:0:0:0:
355,285,50937,1,0,0:0:0:0:
227,204,51270,6,0,P|198:226|186:260,2,60.0000022888185
237,106,52270,2,0,P|298:66|346:79,1,120.000004577637
308,148,53270,1,0,0:0:0:0:
182,61,53715,5,0,0:0:0:0:
193,136,53937,2,0,P|227:192|274:217,1,120.000004577637
335,33,54937,1,0,0:0:0:0:
330,36,55270,2,0,P|290:77|279:151,1,120.000004577637
268,343,56270,1,0,0:0:0:0:
268,343,56604,2,0,P|253:268|231:230,1,120.000004577637
108,137,57604,5,0,0:0:0:0:
108,137,57937,1,0,0:0:0:0:
234,244,58270,1,0,0:0:0:0:
262,91,58604,1,0,0:0:0:0:
119,136,58937,1,0,0:0:0:0:
119,136,59270,2,0,L|154:264,1,120.000004577637
281,309,60270,1,0,0:0:0:0:
281,309,60604,2,0,L|235:190,1,120.000004577637
191,71,61604,5,0,0:0:0:0:
191,71,61937,1,0,0:0:0:0:
341,117,62270,1,0,0:0:0:0:
233,212,62604,1,0,0:0:0:0:
203,73,62937,2,0,B|245:23,1,60.0000022888185
125,161,63604,1,0,0:0:0:0:
92,248,63937,1,0,0:0:0:0:
97,336,64270,1,0,0:0:0:0:
97,336,64604,6,0,L|195:252,1,120.000004577637
381,76,65604,2,0,L|361:100,1,30.0000011444092
323,137,65937,2,0,P|261:94|213:90,1,120.000004577637
160,237,66937,6,0,L|205:195,2,60.0000022888185
123,269,67937,1,0,0:0:0:0:
241,122,68270,1,0,0:0:0:0:
241,122,68604,2,0,B|297:159|297:159,2,60.0000022888185
167,96,69604,1,0,0:0:0:0:
170,202,69937,2,0,L|176:277,2,60.0000022888185
161,102,70937,1,0,0:0:0:0:
181,106,75270,6,0,L|145:186,1,80
104,262,75937,1,0,0:0:0:0:
55,133,76270,1,0,0:0:0:0:
304,133,76604,2,0,L|255:200,1,80
362,47,77270,1,4,0:0:0:0:
291,286,77604,2,0,L|336:217,1,80
233,197,78270,6,0,P|220:171|220:131,2,60.0000022888185
315,277,79270,1,0,0:0:0:0:
293,144,79604,2,0,L|331:90,1,60.0000022888185
461,120,80270,5,0,0:0:0:0:
461,120,80604,2,0,L|298:185,1,160
295,283,81604,1,0,0:0:0:0:
107,112,81937,2,0,L|208:238,1,160
259,163,82937,1,0,0:0:0:0:
344,215,83270,1,0,0:0:0:0:
414,160,83604,1,0,0:0:0:0:
277,49,83937,2,0,B|227:47|208:85,1,80
180,191,84604,5,0,0:0:0:0:
203,207,84715,1,0,0:0:0:0:
219,231,84826,1,0,0:0:0:0:
227,259,84937,1,0,0:0:0:0:
228,288,85048,1,0,0:0:0:0:
238,315,85159,1,0,0:0:0:0:
263,329,85270,1,0,0:0:0:0:
370,173,85604,5,0,0:0:0:0:
177,93,85937,1,0,0:0:0:0:
159,291,86270,1,0,0:0:0:0:
369,119,86604,5,0,0:0:0:0:
125,160,86937,1,0,0:0:0:0:
285,324,87270,1,0,0:0:0:0:
364,112,87604,1,0,0:0:0:0:
153,137,87937,2,0,L|207:204,1,80
303,291,88604,5,0,0:0:0:0:
376,127,88937,1,0,0:0:0:0:
101,122,89270,1,0,0:0:0:0:
249,306,89604,1,0,0:0:0:0:
248,73,89937,1,0,0:0:0:0:
353,298,90270,1,0,0:0:0:0:
128,163,90604,1,0,0:0:0:0:
395,32,90937,1,0,0:0:0:0:
385,95,91270,6,0,L|330:161,1,80
223,240,91937,1,0,0:0:0:0:
118,313,92270,2,0,P|97:263|100:234,1,80
140,114,92937,1,0,0:0:0:0:
233,64,93270,2,0,P|241:128|236:142,1,80
198,233,93937,1,0,0:0:0:0:
349,168,94270,2,0,P|365:225|364:247,1,80
194,338,94937,2,0,P|134:293|126:275,1,80
91,179,95604,1,0,0:0:0:0:
55,28,95937,5,0,0:0:0:0:
216,28,96270,1,0,0:0:0:0:
142,101,96604,2,0,L|201:147,1,53.3333333333333
305,135,96937,2,0,L|239:193,1,80
186,310,97604,2,0,P|140:226|149:165,1,160
149,166,98604,1,0,0:0:0:0:
306,69,98937,5,0,0:0:0:0:
306,69,99270,2,0,L|272:158,2,80
120,139,100270,2,0,L|176:214,1,80,0|0,0:3|0:3,0:3:0:0:
291,332,100937,2,0,L|314:251,1,80
350,72,101937,6,0,P|318:81|281:123,1,80
177,298,102604,2,0,L|122:224,1,80
350,148,103270,2,0,L|316:230,1,80
176,89,103937,1,0,0:0:0:0:
176,89,104270,2,0,B|224:85|244:126|244:126,1,80
291,301,104937,2,0,P|336:241|339:224,1,80
215,68,105604,2,0,B|263:131,1,80
143,219,106270,2,0,B|212:263|212:263,1,80
399,124,106937,5,0,0:0:0:0:
189,302,107270,2,0,B|245:240,1,80
250,89,107937,1,0,0:0:0:0:
367,283,108270,1,0,0:0:0:0:
102,191,108604,1,0,0:0:0:0:
375,79,108937,1,0,0:0:0:0:
330,327,109270,5,0,0:0:0:0:
259,70,109604,1,0,0:0:0:0:
85,300,109937,2,0,B|91:255|116:229|154:199|154:199|164:166|166:142|220:104,1,240
138,99,112604,6,0,P|148:163|196:209,1,120.000004577637
264,107,113604,1,0,0:0:0:0:
310,336,113937,2,0,P|299:295|312:255,1,80
352,147,114604,2,0,P|381:193|373:296,1,160
298,341,115604,1,0,0:0:0:0:
211,324,115937,1,0,0:0:0:0:
145,265,116270,2,0,P|145:185|212:119,1,160
294,44,117270,2,0,P|275:136|275:136,1,80
336,309,117937,6,0,P|375:232|355:153,1,160
297,224,118937,1,0,0:0:0:0:
205,55,119270,2,0,L|242:127,1,80
322,343,119937,2,0,L|163:273,1,160
123,207,120937,1,0,0:0:0:0:
121,119,121270,1,0,0:0:0:0:
180,53,121604,2,0,P|234:19|332:42,1,160
374,108,122604,1,0,0:0:0:0:
390,194,122937,1,0,0:0:0:0:
141,80,123270,6,0,L|221:153,1,106.666666666667
313,198,123937,1,0,0:0:0:0:
326,56,124270,1,0,0:0:0:0:
185,225,124604,2,0,L|284:267,1,106.666666666667
357,295,125270,1,0,0:0:0:0:
222,122,125604,1,0,0:0:0:0:
245,15,125937,6,0,P|315:69|307:155,2,160
183,202,127604,1,0,0:0:0:0:
232,103,127937,1,0,0:0:0:0:
346,262,128270,1,0,0:0:0:0:
375,133,128604,2,0,P|322:132|279:162,1,106.666666666667
279,285,129270,2,0,B|352:238|352:238|350:240,1,80
341,81,129937,5,0,0:0:0:0:
106,166,130270,1,0,0:0:0:0:
301,310,130604,2,0,B|326:201|326:201,1,106.666666666667
348,97,131270,1,0,0:0:0:0:
146,51,131604,5,0,0:0:0:0:
76,224,131937,1,0,0:0:0:0:
236,202,132270,2,0,P|291:149|390:145,1,180.000006866455
160,144,148604,6,0,L|208:192,1,60.0000022888185
346,139,149270,2,0,P|378:171|378:219,1,80
222,326,149937,6,0,L|286:214,1,120.000004577637
394,40,150604,1,0,0:0:0:0:
327,269,150937,1,0,0:0:0:0:
168,124,151270,1,0,0:0:0:0:
457,211,151604,1,0,0:0:0:0:
192,288,151937,1,0,0:0:0:0:
441,48,152270,1,0,0:0:0:0:
239,50,152604,5,0,0:0:0:0:
456,313,152937,1,0,0:0:0:0:
115,307,153270,1,0,0:0:0:0:
425,49,153604,1,0,0:0:0:0:
199,41,153937,5,0,0:0:0:0:
475,311,154270,1,0,0:0:0:0:
83,311,154604,1,0,0:0:0:0:
228,41,154937,1,0,0:0:0:0:
335,267,155270,6,0,B|288:189,1,80
203,73,155937,1,0,0:0:0:0:
160,250,156270,1,0,0:0:0:0:
331,79,156604,6,0,B|380:102|386:155|386:155,1,80
310,290,157270,1,0,0:0:0:0:
139,252,157604,2,0,P|149:228|188:183,1,80
337,86,158270,5,0,0:0:0:0:
337,86,158604,2,0,P|337:150|330:167,1,80
153,232,159270,2,0,P|166:266|199:295,2,80
113,69,160270,1,0,0:0:0:0:
113,69,160604,2,0,L|194:130,1,80
253,167,161270,1,0,0:0:0:0:
322,221,161604,2,0,P|332:189|325:127,2,80
189,151,162604,6,0,L|239:217,1,80
305,32,163270,2,0,P|321:92|312:132,2,80
187,217,164270,1,0,0:0:0:0:
235,295,164604,2,0,B|264:262|265:201,1,80
239,39,165270,2,0,P|214:90|206:117,1,80
399,328,165937,6,0,B|350:270|400:248|347:189,1,120
290,153,166604,2,0,L|237:227,1,80
218,91,167270,1,0,0:0:0:0:
116,241,167604,2,0,L|166:165,1,80
189,298,168270,1,0,0:0:0:0:
290,140,168604,2,0,L|239:227,1,80
317,60,169270,6,0,L|369:126,2,80
351,289,170270,2,0,L|365:196,1,80
427,45,170937,1,0,0:0:0:0:
427,45,171270,2,0,P|363:73|310:146,1,160
257,330,172270,2,0,P|261:247|208:171,1,160
90,59,173270,2,0,L|141:136,1,80
251,254,173937,5,0,0:0:0:0:
313,72,174270,1,0,0:0:0:0:
142,99,174604,1,0,0:0:0:0:
512,39,174937,2,0,P|455:52|402:97,1,120.000004577637
375,133,175437,1,0,0:0:0:0:
339,173,175604,1,0,0:0:0:0:
296,205,175770,1,0,0:0:0:0:
249,219,175937,5,0,0:0:0:0:
201,193,176104,1,0,0:0:0:0:
148,181,176270,1,0,0:0:0:0:
94,188,176437,1,0,0:0:0:0:
50,220,176604,1,0,0:0:0:0:
17,262,176770,2,0,L|-14:325,2,60.0000022888184
78,107,177270,5,0,0:0:0:0:
154,303,177604,1,0,0:0:0:0:
432,79,177937,2,0,P|377:142|338:162,1,120.000004577637
322,37,178604,1,0,0:0:0:0:
377,325,178937,2,0,L|299:233,1,120.000004577637
119,67,179604,6,0,L|139:133,1,60.0000022888184
154,177,179937,1,0,0:0:0:0:
360,342,180270,2,0,L|312:281,1,60.0000022888184
288,259,180604,1,0,2:0:0:0:
150,294,180937,1,0,0:0:0:0:
266,99,181270,1,0,0:0:0:0:
25,105,181604,2,0,P|45:157|133:190,1,120.000004577637
168,46,182270,5,0,0:0:0:0:
367,78,182604,2,0,L|295:167,1,80
293,167,183104,1,0,0:0:0:0:
275,198,183270,1,0,0:0:0:0:
251,225,183437,1,0,0:0:0:0:
230,250,183604,1,0,0:0:0:0:
118,88,183937,5,0,0:0:0:0:
242,175,184270,1,0,0:0:0:0:
374,62,184604,2,0,P|380:122|372:147,1,80
228,320,185270,2,0,P|206:263|205:217,1,80
159,76,185770,2,0,L|144:116,1,40
127,145,186104,1,0,0:0:0:0:
118,179,186270,1,0,0:0:0:0:
112,214,186437,1,0,0:0:0:0:
106,249,186604,1,0,0:0:0:0:
300,104,186937,5,0,0:0:0:0:
311,202,187270,2,0,P|356:176|379:143,1,80
431,76,187937,2,0,P|381:60|337:67,1,80
225,148,188604,1,0,0:0:0:0:
170,276,188937,2,0,P|121:252|103:226,1,80
189,39,189604,2,0,L|326:151,1,160
160,133,190604,5,0,0:0:0:0:
229,75,190937,1,0,0:0:0:0:
166,231,191270,1,0,0:0:0:0:
197,315,191604,2,0,P|238:267|221:172,1,160
256,192,192604,12,0,194937,0:0:0:0:
403,44,195270,6,0,L|368:100,1,40
357,104,195604,1,0,0:0:0:0:
335,132,195770,1,0,0:0:0:0:
311,159,195937,1,0,0:0:0:0:
293,190,196104,1,0,0:0:0:0:
269,217,196270,1,0,0:0:0:0:
251,248,196437,1,0,0:0:0:0:
230,278,196604,6,0,L|205:302,3,26.6666666666667
298,322,197048,2,0,L|321:301,1,26.6666666666667
333,286,197270,1,0,0:0:0:0:
347,266,197381,1,0,0:0:0:0:
355,243,197492,1,0,0:0:0:0:
362,219,197604,2,0,L|337:130,1,80
261,38,198159,5,0,0:0:0:0:
145,124,198381,2,0,L|202:163,1,53.3333333333333
325,296,198826,2,0,L|331:235,1,53.3333333333333
353,114,199270,1,0,0:0:0:0:
215,227,199492,1,0,0:0:0:0:
403,300,199715,1,0,0:0:0:0:
191,53,199937,6,0,L|224:109,1,53.3333333333333
321,221,200381,1,0,0:0:0:0:
127,179,200604,1,0,0:0:0:0:
273,49,200826,1,0,0:0:0:0:
208,221,201048,6,0,L|168:273,1,53.3333333333333
174,103,201492,1,0,0:0:0:0:
368,272,201715,2,0,L|335:212,1,53.3333333333333
278,107,202159,1,0,0:0:0:0:
252,283,202381,1,0,0:0:0:0:
355,111,202604,6,0,L|304:166,1,53.3333333333333
191,278,203048,1,0,0:0:0:0:
96,68,203270,2,0,L|142:119,1,53.3333333333333
240,220,203715,1,0,0:0:0:0:
72,178,203937,1,0,0:0:0:0:
251,60,204159,2,0,L|220:122,1,53.3333333333333
216,305,204604,6,0,L|255:251,1,53.3333333333333
326,164,205048,1,0,0:0:0:0:
121,175,205270,1,0,0:0:0:0:
258,68,205492,1,0,0:0:0:0:
191,261,205715,1,0,0:0:0:0:
144,59,205937,6,0,L|184:120,1,53.3333333333333
276,237,206381,1,0,0:0:0:0:
87,178,206604,1,0,0:0:0:0:
288,97,206826,1,0,0:0:0:0:
234,310,207048,1,0,0:0:0:0:
161,70,207270,2,0,B|176:96|136:145|136:145|186:207|133:240,1,160
338,120,208381,5,0,0:0:0:0:
338,120,208604,2,0,L|282:172,1,53.3333333333333
181,260,209048,1,0,0:0:0:0:
234,68,209270,1,0,0:0:0:0:
374,225,209492,1,0,0:0:0:0:
98,97,209715,6,0,L|151:138,1,53.3333333333333
301,253,210159,1,0,0:0:0:0:
95,232,210381,1,0,0:0:0:0:
249,78,210604,1,0,0:0:0:0:
249,291,210826,1,0,0:0:0:0:
121,127,211048,1,0,0:0:0:0:
409,108,211270,6,0,L|367:147,1,53.3333333333333
271,229,211715,1,0,0:0:0:0:
312,74,211937,1,0,0:0:0:0:
423,246,212159,1,0,0:0:0:0:
189,138,212381,1,0,0:0:0:0:
401,125,212604,2,0,L|276:231,1,160
431,82,213715,5,0,0:0:0:0:
431,82,213937,2,0,L|382:137,1,53.3333333333333
314,207,214381,1,0,0:0:0:0:
287,80,214604,1,0,0:0:0:0:
431,224,214826,1,0,0:0:0:0:
228,267,215048,1,0,0:0:0:0:
191,65,215270,6,0,L|217:113,1,53.3333333333333
340,310,215715,2,0,L|286:261,1,53.3333333333333
163,178,216159,1,0,0:0:0:0:
351,117,216381,1,0,0:0:0:0:
199,348,216604,6,0,L|224:293,1,53.3333333333333
284,199,217048,1,0,0:0:0:0:
125,239,217270,1,0,0:0:0:0:
363,327,217492,1,0,0:0:0:0:
289,97,217715,1,0,0:0:0:0:
178,80,217937,6,0,P|161:123|160:139,1,40
172,177,218270,1,0,0:0:0:0:
204,232,218437,1,0,0:0:0:0:
260,262,218604,1,0,0:0:0:0:
323,262,218770,1,0,0:0:0:0:
377,228,218937,1,0,0:0:0:0:
493,189,219104,2,0,L|468:242,1,40
290,325,219492,6,0,L|272:282,1,40.000001525879
128,134,219937,2,0,L|110:180,2,40.000001525879
163,340,220604,2,0,L|182:293,2,40.000001525879
304,177,221270,2,0,L|349:141,2,40.000001525879
112,88,221937,6,0,L|145:159,1,53.3333333333333
176,212,222381,1,0,0:0:0:0:
262,79,222604,2,0,L|279:133,1,53.3333333333333
297,204,223048,1,0,0:0:0:0:
420,106,223270,6,0,L|469:52,2,53.3333333333333
261,283,223937,2,0,L|206:330,2,53.3333333333333
137,59,224604,2,0,P|172:71|194:85,1,53.3333333333333
259,174,225048,1,0,0:0:0:0:
393,58,225270,2,0,L|408:33,2,26.6666666666667
272,304,225715,5,0,0:0:0:0:
240,272,225937,2,0,P|228:199|233:186,1,80
264,113,226381,1,0,0:0:0:0:
161,33,226604,2,0,L|116:86,1,53.3333333333333
65,146,227048,1,0,0:0:0:0:
282,330,227270,6,0,P|293:299|291:260,1,53.3333333333333
285,182,227715,1,0,0:0:0:0:
140,63,227937,1,0,0:0:0:0:
144,101,228159,2,0,P|154:125|171:146,1,53.3333333333333
334,280,228604,2,0,L|383:318,2,53.3333333333333
228,105,229270,2,0,L|213:43,2,53.3333333333333
223,209,229937,6,0,P|151:163|149:160,1,80
102,84,230604,1,0,0:0:0:0:
401,113,230937,1,0,0:0:0:0:
401,113,231270,2,0,P|387:145|352:180,1,80
151,121,232270,1,0,0:0:0:0:
151,121,232604,2,0,P|158:158|189:195,1,80
339,208,233604,1,0,0:0:0:0:
339,208,233937,2,0,P|327:249|306:288,1,80
244,328,234937,5,0,0:0:0:0:
244,328,235270,2,0,P|233:275|244:237,1,80
268,128,236270,1,0,0:0:0:0:
312,280,236604,2,0,L|351:209,1,80
188,316,237604,1,0,0:0:0:0:
188,316,237937,2,0,L|242:248,2,80
356,222,239604,2,0,L|338:183,1,40
402,101,240270,5,0,0:0:0:0:
402,101,240604,2,0,L|336:174,1,80
298,63,241604,1,0,0:0:0:0:
298,63,241937,2,0,B|251:143,1,80
146,277,242937,5,0,0:0:0:0:
326,291,243270,1,0,0:0:0:0:
251,137,243604,2,0,L|241:184,1,40
398,73,244270,5,0,0:0:0:0:
398,73,244604,2,0,L|367:114,1,40
330,151,245270,1,0,0:0:0:0:
282,193,245604,1,0,0:0:0:0:
166,277,245937,2,0,L|201:256,1,40
236,70,246604,6,0,L|209:153,1,80
