osu file format v14

[General]
AudioFilename: audio.mp3
AudioLeadIn: 0
PreviewTime: 19782
Countdown: 0
SampleSet: Normal
StackLeniency: 0.7
Mode: 1
LetterboxInBreaks: 0
WidescreenStoryboard: 1

[Editor]
DistanceSpacing: 1
BeatDivisor: 4
GridSize: 8
TimelineZoom: 2.5

[Metadata]
Title:Tze-Chiang Hao
TitleUnicode:自強號
Artist:itaojirou
ArtistUnicode:痛男次郎
Creator:Nao Tomori
Version:Oni
Source:konzertsaal - THE BMS OF FIGHTERS 2013 -
Tags:台灣高鐵 Taiwan 台湾 High Speed Rail happy hardcore 英國硬核 bof2013 rhythm game electronic instrumental tzu-chiang tze chiang limited express zi qiang ziqiang train
BeatmapID:3226767
BeatmapSetID:1579998

[Difficulty]
HPDrainRate:5
CircleSize:5
OverallDifficulty:5.5
ApproachRate:5
SliderMultiplier:1.4
SliderTickRate:1

[Events]
//Background and Video events
0,0,"bullet train bg.jpg",0,0
//Break Periods
//Storyboard Layer 0 (Background)
//Storyboard Layer 1 (Fail)
//Storyboard Layer 2 (Pass)
//Storyboard Layer 3 (Foreground)
//Storyboard Layer 4 (Overlay)
//Storyboard Sound Samples

[TimingPoints]
1077,312.5,4,1,0,60,1,0
1077,-125,4,1,0,60,0,0
11077,-100,4,1,0,70,0,0
21077,-100,4,1,0,80,0,0
39827,-86.9565217391304,4,1,0,90,0,0
40087,-100,4,1,0,80,0,0
40243,-86.9565217391304,4,1,0,90,0,0
41024,-100,4,1,0,80,0,0
61389,-125,4,1,0,60,0,0
68837,-121.951219512195,4,1,0,60,0,0
69306,-119.047619047619,4,1,0,60,0,0
69722,-116.279069767442,4,1,0,60,0,0
69879,-113.636363636364,4,1,0,70,0,0
70035,-111.111111111111,4,1,0,70,0,0
70191,-108.695652173913,4,1,0,70,0,0
70556,-107.52688172043,4,1,0,70,0,0
70712,-105.263157894737,4,1,0,70,0,0
70868,-103.092783505155,4,1,0,70,0,0
71024,-100,4,1,0,70,0,0
78524,-100,4,1,0,80,0,0
89670,-100,4,1,0,80,0,0
89748,-86.9565217391304,4,1,0,90,0,0
90061,-100,4,1,0,80,0,0
90217,-86.9565217391304,4,1,0,90,0,0
90920,-100,4,1,0,80,0,0
100217,-96.8054211035818,4,1,0,80,0,0
100530,-93.7207122774133,4,1,0,80,0,0
100842,-90.9090909090909,4,1,0,80,0,0
101077,-90.9090909090909,4,1,0,90,0,1
109748,-83.3333333333333,4,1,0,100,0,1
110061,-90.9090909090909,4,1,0,90,0,1
110217,-83.3333333333333,4,1,0,100,0,1
110998,-90.9090909090909,4,1,0,90,0,1
121077,-90.9090909090909,4,1,0,100,0,0

[HitObjects]
49,153,1077,5,0,0:0:0:0:
49,153,1389,1,8,0:0:0:0:
49,153,1545,1,0,0:0:0:0:
49,153,1858,1,0,0:0:0:0:
49,153,2014,1,8,0:0:0:0:
49,153,2327,1,0,0:0:0:0:
49,153,2483,1,0,0:0:0:0:
49,153,2639,1,8,0:0:0:0:
49,153,2795,1,0,0:0:0:0:
49,153,3108,1,0,0:0:0:0:
49,153,3264,1,8,0:0:0:0:
49,153,3577,1,0,0:0:0:0:
49,153,3889,1,8,0:0:0:0:
49,153,4045,1,0,0:0:0:0:
49,153,4358,1,0,0:0:0:0:
49,153,4514,1,8,0:0:0:0:
49,153,4827,1,0,0:0:0:0:
49,153,4983,1,0,0:0:0:0:
49,153,5139,1,8,0:0:0:0:
49,153,5295,1,0,0:0:0:0:
49,153,5608,1,0,0:0:0:0:
49,153,5764,1,8,0:0:0:0:
49,153,6077,1,0,0:0:0:0:
49,153,6389,1,8,0:0:0:0:
49,153,6545,1,0,0:0:0:0:
49,153,6858,1,0,0:0:0:0:
49,153,7014,1,8,0:0:0:0:
49,153,7327,1,0,0:0:0:0:
49,153,7483,1,0,0:0:0:0:
49,153,7639,1,8,0:0:0:0:
49,153,7795,1,0,0:0:0:0:
49,153,8108,1,0,0:0:0:0:
49,153,8264,1,8,0:0:0:0:
49,153,8577,1,0,0:0:0:0:
49,153,8889,1,8,0:0:0:0:
49,153,9045,1,0,0:0:0:0:
49,153,9358,1,0,0:0:0:0:
49,153,9514,1,8,0:0:0:0:
49,153,9827,1,0,0:0:0:0:
49,153,9983,1,0,0:0:0:0:
49,153,10139,1,8,0:0:0:0:
49,153,10295,1,0,0:0:0:0:
49,153,10608,1,0,0:0:0:0:
49,153,10764,1,8,0:0:0:0:
49,153,11077,1,4,0:0:0:0:
118,145,11233,1,8,0:0:0:0:
200,164,11311,1,8,0:0:0:0:
219,215,11389,1,0,0:0:0:0:
158,160,11545,1,8,0:0:0:0:
151,167,11702,1,0,0:0:0:0:
151,167,11858,1,0,0:0:0:0:
151,167,12014,1,8,0:0:0:0:
146,164,12327,1,0,0:0:0:0:
146,165,12483,1,8,0:0:0:0:
146,165,12639,1,0,0:0:0:0:
176,163,12795,1,8,0:0:0:0:
176,163,12952,1,8,0:0:0:0:
176,163,13108,1,0,0:0:0:0:
176,163,13186,1,0,0:0:0:0:
176,163,13264,1,0,0:0:0:0:
176,163,13420,1,0,0:0:0:0:
163,159,13577,1,8,0:0:0:0:
163,153,13889,1,8,0:0:0:0:
182,131,14045,1,8,0:0:0:0:
182,131,14123,1,8,0:0:0:0:
177,111,14202,1,0,0:0:0:0:
179,115,14358,1,0,0:0:0:0:
179,115,14514,1,8,0:0:0:0:
174,118,14670,1,0,0:0:0:0:
174,118,14827,1,8,0:0:0:0:
169,185,15139,1,8,0:0:0:0:
151,217,15295,1,0,0:0:0:0:
151,217,15452,1,8,0:0:0:0:
151,217,15608,1,8,0:0:0:0:
151,217,15764,1,0,0:0:0:0:
151,217,15920,1,0,0:0:0:0:
209,121,15998,1,0,0:0:0:0:
151,217,16077,1,8,0:0:0:0:
146,213,16233,1,0,0:0:0:0:
146,213,16389,1,8,0:0:0:0:
141,217,16545,1,8,0:0:0:0:
138,208,16702,1,0,0:0:0:0:
121,266,17014,1,8,0:0:0:0:
135,246,17327,1,0,0:0:0:0:
135,246,17483,1,8,0:0:0:0:
135,246,17561,1,8,0:0:0:0:
135,246,17639,1,0,0:0:0:0:
135,246,17795,1,8,0:0:0:0:
135,246,17952,1,8,0:0:0:0:
135,246,18108,1,0,0:0:0:0:
135,246,18264,1,8,0:0:0:0:
135,246,18577,1,0,0:0:0:0:
135,246,18733,1,8,0:0:0:0:
131,249,18811,1,8,0:0:0:0:
131,249,18889,1,0,0:0:0:0:
129,250,18967,1,0,0:0:0:0:
131,249,19045,1,8,0:0:0:0:
230,220,19202,1,0,0:0:0:0:
227,224,19358,1,0,0:0:0:0:
227,224,19514,1,8,0:0:0:0:
225,228,19670,1,8,0:0:0:0:
221,233,19827,1,0,0:0:0:0:
219,225,21077,1,4,0:0:0:0:
220,165,21233,1,0,0:0:0:0:
220,165,21389,1,8,0:0:0:0:
220,165,21545,1,0,0:0:0:0:
220,165,21702,1,0,0:0:0:0:
213,163,21858,1,8,0:0:0:0:
212,164,21936,1,0,0:0:0:0:
214,163,22014,1,8,0:0:0:0:
212,164,22170,1,8,0:0:0:0:
188,121,22248,1,8,0:0:0:0:
183,126,22327,1,0,0:0:0:0:
174,130,22483,1,8,0:0:0:0:
174,130,22561,1,8,0:0:0:0:
174,130,22639,1,0,0:0:0:0:
174,130,22795,1,8,0:0:0:0:
196,135,22952,1,0,0:0:0:0:
184,120,23108,1,8,0:0:0:0:
184,120,23264,1,0,0:0:0:0:
185,117,23420,1,0,0:0:0:0:
184,120,23733,1,8,0:0:0:0:
173,123,23889,1,8,0:0:0:0:
173,123,23967,1,8,0:0:0:0:
173,123,24045,1,0,0:0:0:0:
173,123,24123,1,0,0:0:0:0:
173,123,24202,1,8,0:0:0:0:
166,119,24358,1,0,0:0:0:0:
192,116,24514,1,8,0:0:0:0:
192,116,24592,1,0,0:0:0:0:
192,116,24670,1,8,0:0:0:0:
187,116,24983,1,0,0:0:0:0:
187,116,25139,1,8,0:0:0:0:
184,134,25295,1,8,0:0:0:0:
158,155,25452,1,0,0:0:0:0:
158,155,25530,1,0,0:0:0:0:
158,155,25608,1,8,0:0:0:0:
158,155,25686,1,8,0:0:0:0:
158,155,25764,1,0,0:0:0:0:
172,174,25920,1,0,0:0:0:0:
246,128,26077,1,8,0:0:0:0:
228,143,26389,1,0,0:0:0:0:
221,149,26545,1,0,0:0:0:0:
219,150,26623,1,0,0:0:0:0:
215,152,26702,1,8,0:0:0:0:
206,156,26858,1,8,0:0:0:0:
206,156,26936,1,8,0:0:0:0:
207,156,27014,1,0,0:0:0:0:
182,145,27092,1,0,0:0:0:0:
201,159,27170,1,8,0:0:0:0:
171,158,27483,1,8,0:0:0:0:
171,158,27639,1,0,0:0:0:0:
171,158,27717,1,0,0:0:0:0:
171,158,27795,1,0,0:0:0:0:
171,158,27952,1,8,0:0:0:0:
171,158,28030,1,0,0:0:0:0:
171,158,28108,1,8,0:0:0:0:
176,160,28264,1,8,0:0:0:0:
173,163,28420,1,0,0:0:0:0:
169,139,28733,1,8,0:0:0:0:
161,126,28811,1,8,0:0:0:0:
162,130,28889,1,0,0:0:0:0:
198,116,29045,1,8,0:0:0:0:
198,116,29202,1,0,0:0:0:0:
198,116,29280,1,0,0:0:0:0:
198,116,29358,1,0,0:0:0:0:
198,116,29436,1,0,0:0:0:0:
198,116,29514,1,8,0:0:0:0:
190,112,29670,1,8,0:0:0:0:
174,130,29827,1,0,0:0:0:0:
167,137,29983,1,8,0:0:0:0:
168,137,30061,1,0,0:0:0:0:
167,137,30139,1,8,0:0:0:0:
168,137,30295,1,0,0:0:0:0:
220,155,30373,1,0,0:0:0:0:
220,155,30452,1,8,0:0:0:0:
214,145,30608,1,8,0:0:0:0:
202,143,30764,1,0,0:0:0:0:
202,143,30920,1,0,0:0:0:0:
202,143,31077,1,12,0:0:0:0:
235,166,31389,1,8,0:0:0:0:
215,166,31545,1,8,0:0:0:0:
231,140,31623,1,8,0:0:0:0:
231,140,31702,1,0,0:0:0:0:
221,161,31858,1,8,0:0:0:0:
221,161,31936,1,8,0:0:0:0:
221,161,32014,1,0,0:0:0:0:
221,161,32092,1,0,0:0:0:0:
221,161,32170,1,8,0:0:0:0:
221,161,32327,1,0,0:0:0:0:
193,164,32639,1,0,0:0:0:0:
193,164,32795,1,8,0:0:0:0:
177,165,32952,1,0,0:0:0:0:
176,164,33030,1,0,0:0:0:0:
177,165,33108,1,0,0:0:0:0:
177,165,33186,1,0,0:0:0:0:
176,164,33264,1,8,0:0:0:0:
177,165,33420,1,0,0:0:0:0:
152,152,33577,1,8,0:0:0:0:
152,152,33655,1,8,0:0:0:0:
152,152,33733,1,8,0:0:0:0:
152,152,33889,1,0,0:0:0:0:
152,152,33967,1,0,0:0:0:0:
152,152,34045,1,8,0:0:0:0:
152,152,34123,1,8,0:0:0:0:
152,152,34202,1,0,0:0:0:0:
152,152,34358,1,0,0:0:0:0:
152,152,34514,1,8,0:0:0:0:
152,152,34670,1,8,0:0:0:0:
141,154,34983,1,8,0:0:0:0:
145,152,35139,1,8,0:0:0:0:
146,152,35295,1,8,0:0:0:0:
145,152,35373,1,8,0:0:0:0:
145,149,35452,1,0,0:0:0:0:
145,152,35608,1,8,0:0:0:0:
145,149,35686,1,8,0:0:0:0:
141,148,35764,1,0,0:0:0:0:
142,142,35920,1,0,0:0:0:0:
141,152,36077,1,8,0:0:0:0:
141,163,36389,1,0,0:0:0:0:
158,104,36545,1,0,0:0:0:0:
158,104,36623,1,0,0:0:0:0:
158,104,36702,1,8,0:0:0:0:
155,108,36858,1,8,0:0:0:0:
152,110,36936,1,8,0:0:0:0:
147,113,37014,1,0,0:0:0:0:
146,115,37092,1,0,0:0:0:0:
145,116,37170,1,8,0:0:0:0:
172,153,37327,1,0,0:0:0:0:
172,153,37483,1,8,0:0:0:0:
172,153,37561,1,0,0:0:0:0:
172,153,37639,1,8,0:0:0:0:
172,153,37795,1,8,0:0:0:0:
172,153,37952,1,0,0:0:0:0:
172,153,38108,1,8,0:0:0:0:
164,145,38264,1,8,0:0:0:0:
157,148,38420,1,0,0:0:0:0:
191,135,38733,1,0,0:0:0:0:
211,130,38811,1,0,0:0:0:0:
210,130,38889,1,8,0:0:0:0:
191,135,39045,1,0,0:0:0:0:
211,130,39123,1,0,0:0:0:0:
210,130,39201,1,8,0:0:0:0:
191,135,39358,1,0,0:0:0:0:
211,130,39436,1,0,0:0:0:0:
210,130,39514,1,8,0:0:0:0:
242,86,39670,1,0,0:0:0:0:
221,102,39827,1,12,0:0:0:0:
221,102,39983,1,12,0:0:0:0:
215,104,40295,1,12,0:0:0:0:
205,101,40608,1,12,0:0:0:0:
206,95,40764,1,12,0:0:0:0:
171,193,41077,1,12,0:0:0:0:
301,174,41389,1,8,0:0:0:0:
301,175,41545,1,0,0:0:0:0:
301,174,41702,1,8,0:0:0:0:
232,193,41780,1,8,0:0:0:0:
232,193,41858,1,8,0:0:0:0:
240,196,42014,1,8,0:0:0:0:
240,196,42170,1,0,0:0:0:0:
212,165,42327,1,0,0:0:0:0:
196,155,42405,1,0,0:0:0:0:
196,155,42483,1,8,0:0:0:0:
189,40,42561,1,8,0:0:0:0:
151,175,42639,1,8,0:0:0:0:
151,175,42795,1,0,0:0:0:0:
143,172,42952,1,8,0:0:0:0:
141,172,43108,1,8,0:0:0:0:
143,172,43186,1,8,0:0:0:0:
141,172,43264,1,0,0:0:0:0:
143,172,43420,1,0,0:0:0:0:
141,172,43577,1,8,0:0:0:0:
132,175,43889,1,0,0:0:0:0:
231,68,43967,1,8,0:0:0:0:
172,142,44123,1,8,0:0:0:0:
172,142,44202,1,0,0:0:0:0:
172,142,44358,1,8,0:0:0:0:
187,104,44514,1,0,0:0:0:0:
163,115,44827,1,0,0:0:0:0:
163,115,44983,1,0,0:0:0:0:
163,115,45139,1,8,0:0:0:0:
163,115,45217,1,0,0:0:0:0:
158,118,45373,1,8,0:0:0:0:
152,126,45452,1,0,0:0:0:0:
148,127,45608,1,0,0:0:0:0:
198,160,45764,1,8,0:0:0:0:
220,83,45920,1,8,0:0:0:0:
198,160,46077,1,0,0:0:0:0:
193,158,46389,1,8,0:0:0:0:
174,48,46467,1,0,0:0:0:0:
216,116,46623,1,8,0:0:0:0:
216,116,46702,1,0,0:0:0:0:
216,116,46858,1,0,0:0:0:0:
199,78,46936,1,0,0:0:0:0:
199,78,47014,1,8,0:0:0:0:
186,140,47170,1,0,0:0:0:0:
308,68,47483,1,0,0:0:0:0:
186,140,47639,1,0,0:0:0:0:
205,43,47717,1,8,0:0:0:0:
176,92,47873,1,8,0:0:0:0:
176,92,47952,1,0,0:0:0:0:
176,92,48108,1,8,0:0:0:0:
170,99,48264,1,0,0:0:0:0:
171,98,48577,1,0,0:0:0:0:
160,120,48733,1,8,0:0:0:0:
214,176,48889,1,0,0:0:0:0:
214,176,48967,1,8,0:0:0:0:
171,66,49045,1,8,0:0:0:0:
215,170,49123,1,8,0:0:0:0:
215,170,49202,1,0,0:0:0:0:
160,105,49358,1,0,0:0:0:0:
215,170,49514,1,8,0:0:0:0:
215,170,49592,1,8,0:0:0:0:
215,170,49670,1,8,0:0:0:0:
215,170,49748,1,8,0:0:0:0:
241,138,49827,1,0,0:0:0:0:
224,114,50139,1,8,0:0:0:0:
224,114,50217,1,0,0:0:0:0:
224,114,50373,1,0,0:0:0:0:
217,117,50452,1,8,0:0:0:0:
214,121,50608,1,8,0:0:0:0:
214,121,50764,1,0,0:0:0:0:
214,121,50920,1,0,0:0:0:0:
214,121,51077,1,12,0:0:0:0:
230,153,51389,1,8,0:0:0:0:
226,149,51467,1,0,0:0:0:0:
212,129,51623,1,8,0:0:0:0:
210,132,51702,1,0,0:0:0:0:
212,129,51858,1,8,0:0:0:0:
163,132,52014,1,8,0:0:0:0:
163,132,52092,1,8,0:0:0:0:
163,132,52170,1,0,0:0:0:0:
163,132,52248,1,0,0:0:0:0:
163,132,52327,1,0,0:0:0:0:
199,136,52639,1,0,0:0:0:0:
199,136,52795,1,8,0:0:0:0:
192,137,52952,1,0,0:0:0:0:
192,137,53108,1,8,0:0:0:0:
192,137,53264,1,0,0:0:0:0:
192,137,53342,1,0,0:0:0:0:
192,137,53420,1,0,0:0:0:0:
192,137,53498,1,0,0:0:0:0:
185,136,53577,1,8,0:0:0:0:
183,137,53733,1,0,0:0:0:0:
183,137,53889,1,0,0:0:0:0:
182,130,53967,1,8,0:0:0:0:
182,127,54123,1,8,0:0:0:0:
182,130,54202,1,0,0:0:0:0:
182,127,54358,1,0,0:0:0:0:
177,131,54514,1,8,0:0:0:0:
168,128,54827,1,0,0:0:0:0:
169,123,54905,1,0,0:0:0:0:
170,122,54983,1,8,0:0:0:0:
168,128,55061,1,0,0:0:0:0:
164,128,55139,1,8,0:0:0:0:
168,128,55295,1,0,0:0:0:0:
164,128,55373,1,0,0:0:0:0:
162,131,55452,1,8,0:0:0:0:
177,126,55608,1,0,0:0:0:0:
177,126,55764,1,8,0:0:0:0:
178,127,55920,1,8,0:0:0:0:
178,127,56077,1,4,0:0:0:0:
224,162,56389,1,8,0:0:0:0:
225,161,56467,1,0,0:0:0:0:
141,163,56623,1,0,0:0:0:0:
141,163,56702,1,8,0:0:0:0:
141,163,56858,1,8,0:0:0:0:
140,156,56936,1,8,0:0:0:0:
142,154,57014,1,0,0:0:0:0:
182,33,57170,1,8,0:0:0:0:
228,160,57327,5,4,0:0:0:0:
269,117,57639,1,8,0:0:0:0:
269,117,57717,1,0,0:0:0:0:
159,131,57873,1,0,0:0:0:0:
159,131,57952,1,8,0:0:0:0:
159,131,58108,1,8,0:0:0:0:
159,131,58186,1,8,0:0:0:0:
159,131,58264,1,0,0:0:0:0:
152,130,58420,1,8,0:0:0:0:
172,157,58577,1,4,0:0:0:0:
211,90,58733,1,0,0:0:0:0:
207,79,58889,1,8,0:0:0:0:
184,154,59045,1,0,0:0:0:0:
182,154,59202,1,8,0:0:0:0:
182,154,59358,1,0,0:0:0:0:
184,154,59514,1,0,0:0:0:0:
182,154,59670,1,8,0:0:0:0:
182,154,59827,1,4,0:0:0:0:
241,103,59983,1,0,0:0:0:0:
294,149,60061,1,0,0:0:0:0:
294,149,60139,1,8,0:0:0:0:
241,103,60295,1,0,0:0:0:0:
294,149,60373,1,0,0:0:0:0:
294,149,60451,1,8,0:0:0:0:
241,103,60608,1,0,0:0:0:0:
294,149,60686,1,0,0:0:0:0:
294,149,60764,1,8,0:0:0:0:
241,103,60920,1,0,0:0:0:0:
294,149,60998,1,0,0:0:0:0:
294,149,61077,1,8,0:0:0:0:
151,143,61545,1,0,0:0:0:0:
268,142,61858,1,0,0:0:0:0:
268,142,62014,1,8,0:0:0:0:
189,133,62327,1,0,0:0:0:0:
189,133,62483,1,0,0:0:0:0:
188,134,62795,1,0,0:0:0:0:
186,135,63108,1,0,0:0:0:0:
186,135,63264,1,8,0:0:0:0:
151,154,63577,1,0,0:0:0:0:
149,155,63889,1,8,0:0:0:0:
204,170,64045,1,0,0:0:0:0:
224,89,64358,1,0,0:0:0:0:
224,89,64514,1,8,0:0:0:0:
219,86,64827,1,0,0:0:0:0:
219,86,64983,1,0,0:0:0:0:
219,86,65139,1,8,0:0:0:0:
213,84,65295,1,0,0:0:0:0:
211,85,65608,1,0,0:0:0:0:
194,105,65764,1,8,0:0:0:0:
182,123,66077,1,0,0:0:0:0:
181,124,66389,1,8,0:0:0:0:
181,124,66545,1,0,0:0:0:0:
180,118,66858,1,0,0:0:0:0:
180,118,67014,1,8,0:0:0:0:
180,118,67327,1,0,0:0:0:0:
180,118,67483,1,0,0:0:0:0:
171,114,67639,1,8,0:0:0:0:
173,117,67795,1,0,0:0:0:0:
173,117,68108,1,0,0:0:0:0:
173,117,68186,1,0,0:0:0:0:
173,117,68264,1,8,0:0:0:0:
173,117,68420,1,0,0:0:0:0:
173,117,68577,1,8,0:0:0:0:
167,116,68889,1,8,0:0:0:0:
167,116,69045,1,0,0:0:0:0:
167,116,69358,1,0,0:0:0:0:
167,116,69514,1,8,0:0:0:0:
155,113,69827,1,0,0:0:0:0:
172,106,69983,1,0,0:0:0:0:
172,106,70139,1,8,0:0:0:0:
172,106,70295,1,0,0:0:0:0:
164,102,70608,1,0,0:0:0:0:
164,102,70764,1,8,0:0:0:0:
176,120,70920,1,0,0:0:0:0:
163,116,71077,1,12,0:0:0:0:
158,110,71389,1,8,0:0:0:0:
199,105,71545,1,0,0:0:0:0:
199,105,71623,1,0,0:0:0:0:
201,97,71702,1,8,0:0:0:0:
201,96,71858,1,0,0:0:0:0:
201,96,72014,1,8,0:0:0:0:
194,94,72170,1,8,0:0:0:0:
194,94,72327,1,0,0:0:0:0:
186,97,72639,1,0,0:0:0:0:
228,75,72795,1,0,0:0:0:0:
228,75,72952,1,8,0:0:0:0:
170,100,73108,1,0,0:0:0:0:
220,78,73264,1,8,0:0:0:0:
139,100,73420,1,8,0:0:0:0:
139,100,73577,1,0,0:0:0:0:
198,76,73889,1,8,0:0:0:0:
195,81,74045,1,8,0:0:0:0:
195,81,74202,1,0,0:0:0:0:
195,81,74358,1,0,0:0:0:0:
195,81,74514,1,8,0:0:0:0:
195,81,74670,1,0,0:0:0:0:
195,81,74748,1,0,0:0:0:0:
195,81,74827,1,8,0:0:0:0:
189,79,74983,1,0,0:0:0:0:
189,79,75139,1,8,0:0:0:0:
211,124,75295,1,8,0:0:0:0:
185,81,75452,1,0,0:0:0:0:
185,81,75764,1,8,0:0:0:0:
139,103,76077,1,12,0:0:0:0:
268,86,76233,1,0,0:0:0:0:
199,91,76389,1,0,0:0:0:0:
199,91,76467,1,0,0:0:0:0:
199,91,76545,1,0,0:0:0:0:
199,91,76702,1,0,0:0:0:0:
194,91,76858,1,0,0:0:0:0:
194,91,77014,1,0,0:0:0:0:
194,91,77170,1,0,0:0:0:0:
180,94,77327,1,12,0:0:0:0:
180,94,77483,1,0,0:0:0:0:
258,218,77639,1,0,0:0:0:0:
270,118,77795,1,0,0:0:0:0:
270,118,77952,1,0,0:0:0:0:
261,115,78108,1,0,0:0:0:0:
261,115,78264,1,0,0:0:0:0:
261,115,78420,1,0,0:0:0:0:
252,120,78577,1,8,0:0:0:0:
252,120,78655,1,8,0:0:0:0:
252,120,78733,1,0,0:0:0:0:
252,120,78811,1,0,0:0:0:0:
252,120,78889,1,8,0:0:0:0:
252,120,79045,1,0,0:0:0:0:
252,120,79202,1,8,0:0:0:0:
252,120,79358,1,0,0:0:0:0:
252,120,79436,1,0,0:0:0:0:
252,120,79514,1,8,0:0:0:0:
214,141,79827,1,4,0:0:0:0:
262,102,79983,1,8,0:0:0:0:
307,94,80061,1,8,0:0:0:0:
307,88,80139,1,0,0:0:0:0:
262,102,80295,1,8,0:0:0:0:
307,94,80373,1,8,0:0:0:0:
307,88,80451,1,0,0:0:0:0:
262,102,80608,1,8,0:0:0:0:
307,94,80686,1,8,0:0:0:0:
307,88,80764,1,0,0:0:0:0:
262,102,80920,1,8,0:0:0:0:
307,94,80998,1,8,0:0:0:0:
307,88,81076,1,0,0:0:0:0:
287,122,81389,1,8,0:0:0:0:
287,122,81467,1,8,0:0:0:0:
280,126,81545,1,0,0:0:0:0:
278,128,81623,1,0,0:0:0:0:
180,85,81702,1,8,0:0:0:0:
180,85,81858,1,0,0:0:0:0:
164,147,82014,1,8,0:0:0:0:
164,147,82170,1,8,0:0:0:0:
158,156,82483,1,8,0:0:0:0:
154,149,82561,1,8,0:0:0:0:
153,149,82639,1,0,0:0:0:0:
154,149,82795,1,8,0:0:0:0:
154,149,82952,1,0,0:0:0:0:
154,149,83030,1,8,0:0:0:0:
154,149,83108,1,0,0:0:0:0:
149,150,83264,1,8,0:0:0:0:
148,143,83420,1,0,0:0:0:0:
149,150,83733,1,8,0:0:0:0:
149,150,83889,1,0,0:0:0:0:
149,150,83967,1,0,0:0:0:0:
149,150,84045,1,0,0:0:0:0:
149,150,84202,1,8,0:0:0:0:
149,150,84280,1,8,0:0:0:0:
149,150,84358,1,8,0:0:0:0:
149,150,84436,1,8,0:0:0:0:
149,150,84514,1,0,0:0:0:0:
217,111,84670,1,8,0:0:0:0:
190,45,84983,1,8,0:0:0:0:
182,138,85139,1,0,0:0:0:0:
213,124,85295,1,8,0:0:0:0:
167,172,85452,1,8,0:0:0:0:
167,172,85530,1,8,0:0:0:0:
167,172,85608,1,0,0:0:0:0:
167,148,85686,1,0,0:0:0:0:
167,150,85764,1,8,0:0:0:0:
167,148,85920,1,8,0:0:0:0:
167,148,86077,1,0,0:0:0:0:
167,148,86155,1,0,0:0:0:0:
167,148,86233,1,0,0:0:0:0:
164,142,86311,1,0,0:0:0:0:
161,142,86389,1,8,0:0:0:0:
209,114,86545,1,0,0:0:0:0:
209,114,86702,1,8,0:0:0:0:
211,109,86858,1,0,0:0:0:0:
211,109,87014,1,8,0:0:0:0:
211,109,87092,1,0,0:0:0:0:
211,109,87170,1,8,0:0:0:0:
205,108,87483,1,8,0:0:0:0:
224,129,87639,1,8,0:0:0:0:
224,129,87717,1,8,0:0:0:0:
224,129,87795,1,0,0:0:0:0:
130,147,87952,1,0,0:0:0:0:
130,147,88030,1,0,0:0:0:0:
130,147,88108,1,8,0:0:0:0:
124,147,88186,1,8,0:0:0:0:
123,147,88264,1,0,0:0:0:0:
124,147,88420,1,8,0:0:0:0:
269,66,88733,1,0,0:0:0:0:
120,142,88889,1,8,0:0:0:0:
125,141,89045,1,8,0:0:0:0:
125,141,89202,1,0,0:0:0:0:
177,101,89280,1,0,0:0:0:0:
177,101,89358,1,8,0:0:0:0:
177,101,89436,1,8,0:0:0:0:
177,101,89514,1,0,0:0:0:0:
159,153,89670,1,0,0:0:0:0:
162,147,89827,1,12,0:0:0:0:
162,147,89983,1,12,0:0:0:0:
162,147,90295,1,12,0:0:0:0:
159,144,90608,1,12,0:0:0:0:
159,144,90764,1,12,0:0:0:0:
220,140,91077,1,12,0:0:0:0:
290,147,91389,1,0,0:0:0:0:
290,147,91545,1,0,0:0:0:0:
291,147,91702,1,8,0:0:0:0:
290,147,91858,1,8,0:0:0:0:
291,147,91936,1,8,0:0:0:0:
291,142,92014,1,0,0:0:0:0:
291,141,92092,1,8,0:0:0:0:
292,139,92170,1,0,0:0:0:0:
291,141,92327,1,8,0:0:0:0:
201,127,92483,1,0,0:0:0:0:
201,120,92639,1,8,0:0:0:0:
201,120,92795,1,8,0:0:0:0:
201,120,92873,1,8,0:0:0:0:
201,120,92952,1,0,0:0:0:0:
201,120,93108,1,8,0:0:0:0:
201,120,93264,1,0,0:0:0:0:
201,120,93342,1,0,0:0:0:0:
201,120,93420,1,0,0:0:0:0:
201,120,93498,1,0,0:0:0:0:
201,120,93577,1,8,0:0:0:0:
212,88,93889,1,8,0:0:0:0:
212,88,94045,1,8,0:0:0:0:
182,126,94202,1,0,0:0:0:0:
182,126,94280,1,0,0:0:0:0:
182,126,94358,1,8,0:0:0:0:
188,44,94436,1,8,0:0:0:0:
179,120,94514,1,0,0:0:0:0:
179,120,94670,1,8,0:0:0:0:
179,120,94983,1,8,0:0:0:0:
179,120,95139,1,8,0:0:0:0:
179,120,95217,1,8,0:0:0:0:
179,120,95295,1,8,0:0:0:0:
179,120,95373,1,8,0:0:0:0:
179,120,95452,1,0,0:0:0:0:
177,114,95608,1,8,0:0:0:0:
179,110,95764,1,0,0:0:0:0:
178,111,95920,1,0,0:0:0:0:
172,110,96077,1,12,0:0:0:0:
298,89,96389,1,8,0:0:0:0:
246,83,96545,1,0,0:0:0:0:
246,83,96623,1,0,0:0:0:0:
224,64,96702,1,8,0:0:0:0:
167,94,96858,1,8,0:0:0:0:
279,88,96936,1,8,0:0:0:0:
172,81,97014,1,0,0:0:0:0:
167,108,97170,1,0,0:0:0:0:
161,127,97327,1,12,0:0:0:0:
247,144,97639,1,8,0:0:0:0:
247,144,97795,1,8,0:0:0:0:
247,144,97873,1,8,0:0:0:0:
247,144,97952,1,0,0:0:0:0:
247,144,98108,1,8,0:0:0:0:
247,144,98264,1,0,0:0:0:0:
232,138,98577,1,12,0:0:0:0:
176,49,98733,1,0,0:0:0:0:
165,107,98889,1,0,0:0:0:0:
165,107,99045,1,0,0:0:0:0:
165,107,99202,1,12,0:0:0:0:
165,107,99358,1,0,0:0:0:0:
165,107,99436,1,0,0:0:0:0:
165,107,99514,1,8,0:0:0:0:
165,107,99670,1,0,0:0:0:0:
157,104,99827,1,12,0:0:0:0:
251,151,99983,1,0,0:0:0:0:
251,151,100061,1,0,0:0:0:0:
251,151,100139,1,8,0:0:0:0:
251,151,100295,1,0,0:0:0:0:
251,151,100373,1,0,0:0:0:0:
251,151,100451,1,8,0:0:0:0:
251,151,100608,1,0,0:0:0:0:
251,151,100686,1,0,0:0:0:0:
251,151,100764,1,8,0:0:0:0:
251,151,100920,1,0,0:0:0:0:
251,151,101077,1,12,0:0:0:0:
292,116,101389,1,8,0:0:0:0:
292,116,101467,1,8,0:0:0:0:
292,116,101545,1,0,0:0:0:0:
292,116,101623,1,8,0:0:0:0:
292,116,101702,1,0,0:0:0:0:
284,115,101858,1,8,0:0:0:0:
285,116,102014,1,0,0:0:0:0:
279,117,102092,1,0,0:0:0:0:
279,116,102170,1,0,0:0:0:0:
279,117,102248,1,0,0:0:0:0:
279,117,102327,1,8,0:0:0:0:
279,117,102483,1,0,0:0:0:0:
279,117,102639,1,8,0:0:0:0:
279,117,102795,1,8,0:0:0:0:
279,117,102952,1,0,0:0:0:0:
276,112,103264,1,8,0:0:0:0:
276,112,103342,1,8,0:0:0:0:
276,112,103420,1,0,0:0:0:0:
276,112,103498,1,0,0:0:0:0:
276,112,103577,1,8,0:0:0:0:
276,112,103733,1,0,0:0:0:0:
276,112,103811,1,0,0:0:0:0:
270,115,103889,1,8,0:0:0:0:
153,100,104045,1,0,0:0:0:0:
270,115,104202,1,8,0:0:0:0:
275,110,104358,1,8,0:0:0:0:
147,178,104514,1,0,0:0:0:0:
275,110,104670,1,8,0:0:0:0:
211,85,104983,1,8,0:0:0:0:
71,70,105061,1,8,0:0:0:0:
196,102,105139,1,0,0:0:0:0:
110,106,105295,1,0,0:0:0:0:
195,104,105452,1,0,0:0:0:0:
191,105,105608,1,8,0:0:0:0:
290,105,105686,1,8,0:0:0:0:
191,105,105764,1,8,0:0:0:0:
217,14,105842,1,8,0:0:0:0:
191,105,105920,1,0,0:0:0:0:
191,105,106077,1,8,0:0:0:0:
216,115,106389,1,8,0:0:0:0:
209,115,106545,1,0,0:0:0:0:
207,115,106702,1,8,0:0:0:0:
175,58,106780,1,0,0:0:0:0:
209,117,106858,1,0,0:0:0:0:
207,115,106936,1,0,0:0:0:0:
209,117,107014,1,8,0:0:0:0:
207,115,107170,1,0,0:0:0:0:
207,115,107327,1,8,0:0:0:0:
304,93,107483,1,8,0:0:0:0:
304,93,107561,1,0,0:0:0:0:
304,93,107639,1,8,0:0:0:0:
304,93,107795,1,0,0:0:0:0:
304,93,107873,1,0,0:0:0:0:
295,88,107952,1,8,0:0:0:0:
250,84,108108,1,8,0:0:0:0:
250,84,108264,1,0,0:0:0:0:
250,84,108420,1,8,0:0:0:0:
250,84,108498,1,8,0:0:0:0:
177,100,108577,1,0,0:0:0:0:
140,106,108889,1,8,0:0:0:0:
140,106,108967,1,8,0:0:0:0:
140,106,109045,1,0,0:0:0:0:
140,106,109123,1,0,0:0:0:0:
140,106,109202,1,8,0:0:0:0:
140,100,109358,1,8,0:0:0:0:
140,100,109514,1,0,0:0:0:0:
140,98,109670,1,0,0:0:0:0:
147,77,109827,1,12,0:0:0:0:
161,101,109983,1,12,0:0:0:0:
159,107,110295,1,12,0:0:0:0:
156,105,110608,1,12,0:0:0:0:
148,108,110764,1,12,0:0:0:0:
136,110,111077,1,4,0:0:0:0:
180,154,111389,1,8,0:0:0:0:
180,154,111545,1,0,0:0:0:0:
180,154,111623,1,0,0:0:0:0:
180,154,111702,1,8,0:0:0:0:
180,154,111780,1,0,0:0:0:0:
179,147,111858,1,8,0:0:0:0:
178,147,112014,1,0,0:0:0:0:
203,130,112170,1,0,0:0:0:0:
203,130,112248,1,0,0:0:0:0:
195,133,112327,1,8,0:0:0:0:
195,134,112405,1,8,0:0:0:0:
195,134,112483,1,0,0:0:0:0:
195,134,112639,1,8,0:0:0:0:
161,79,112717,1,8,0:0:0:0:
195,133,112795,1,0,0:0:0:0:
199,129,112952,1,8,0:0:0:0:
241,73,113108,1,0,0:0:0:0:
224,110,113186,1,8,0:0:0:0:
224,110,113264,1,0,0:0:0:0:
224,110,113420,1,0,0:0:0:0:
224,110,113577,1,8,0:0:0:0:
180,116,113889,1,0,0:0:0:0:
225,66,114045,1,8,0:0:0:0:
182,110,114202,1,0,0:0:0:0:
156,102,114358,1,0,0:0:0:0:
176,47,114514,1,8,0:0:0:0:
182,96,114592,1,8,0:0:0:0:
179,104,114670,1,8,0:0:0:0:
132,160,114748,1,8,0:0:0:0:
182,96,114827,1,0,0:0:0:0:
182,95,114983,1,8,0:0:0:0:
182,95,115139,1,0,0:0:0:0:
275,87,115295,1,8,0:0:0:0:
182,95,115452,1,0,0:0:0:0:
183,90,115530,1,0,0:0:0:0:
183,90,115608,1,0,0:0:0:0:
184,90,115686,1,0,0:0:0:0:
186,83,115764,1,8,0:0:0:0:
211,62,115920,1,8,0:0:0:0:
211,62,116077,1,4,0:0:0:0:
260,125,116233,1,0,0:0:0:0:
249,124,116389,1,0,0:0:0:0:
249,124,116545,1,0,0:0:0:0:
227,111,116702,1,8,0:0:0:0:
227,111,117014,1,8,0:0:0:0:
194,106,117327,1,4,0:0:0:0:
194,106,117483,1,0,0:0:0:0:
194,106,117639,1,0,0:0:0:0:
194,106,117795,1,0,0:0:0:0:
228,101,117952,1,8,0:0:0:0:
230,91,118264,1,8,0:0:0:0:
150,99,118577,1,4,0:0:0:0:
302,104,118733,1,8,0:0:0:0:
302,104,118811,1,8,0:0:0:0:
307,99,118889,1,0,0:0:0:0:
302,104,119045,1,8,0:0:0:0:
302,104,119123,1,8,0:0:0:0:
307,99,119201,1,0,0:0:0:0:
302,104,119358,1,8,0:0:0:0:
302,104,119436,1,8,0:0:0:0:
307,99,119514,1,0,0:0:0:0:
211,49,119670,1,8,0:0:0:0:
307,99,119826,1,0,0:0:0:0:
128,120,119905,1,0,0:0:0:0:
128,120,119983,1,0,0:0:0:0:
128,120,120061,1,0,0:0:0:0:
132,116,120139,1,8,0:0:0:0:
132,115,120295,1,0,0:0:0:0:
132,116,120373,1,0,0:0:0:0:
246,74,120452,1,8,0:0:0:0:
246,74,120608,1,0,0:0:0:0:
167,107,120686,1,0,0:0:0:0:
272,112,120764,1,8,0:0:0:0:
272,112,120842,1,8,0:0:0:0:
226,54,120920,1,8,0:0:0:0:
177,56,121077,1,4,0:0:0:0:
