osu file format v14

[General]
AudioFilename: audio.mp3
AudioLeadIn: 0
PreviewTime: 19782
Countdown: 0
SampleSet: Normal
StackLeniency: 0.7
Mode: 1
LetterboxInBreaks: 0
WidescreenStoryboard: 1

[Editor]
DistanceSpacing: 1
BeatDivisor: 8
GridSize: 8
TimelineZoom: 1.6

[Metadata]
Title:Tze-Chiang Hao
TitleUnicode:自強號
Artist:itaojirou
ArtistUnicode:痛男次郎
Creator:Nao Tomori
Version:Futsuu
Source:konzertsaal - THE BMS OF FIGHTERS 2013 -
Tags:台灣高鐵 Taiwan 台湾 High Speed Rail happy hardcore 英國硬核 bof2013 rhythm game electronic instrumental tzu-chiang tze chiang limited express zi qiang ziqiang train
BeatmapID:3226819
BeatmapSetID:1579998

[Difficulty]
HPDrainRate:7
CircleSize:5
OverallDifficulty:3.5
ApproachRate:5
SliderMultiplier:1.4
SliderTickRate:1

[Events]
//Background and Video events
0,0,"bullet train bg.jpg",0,0
//Break Periods
//Storyboard Layer 0 (Background)
//Storyboard Layer 1 (Fail)
//Storyboard Layer 2 (Pass)
//Storyboard Layer 3 (Foreground)
//Storyboard Layer 4 (Overlay)
//Storyboard Sound Samples

[TimingPoints]
1077,312.5,4,1,0,60,1,0
1077,-125,4,1,0,60,0,0
11077,-100,4,1,0,70,0,0
21077,-100,4,1,0,80,0,0
39827,-100,4,1,0,90,0,0
40087,-100,4,1,0,80,0,0
40243,-100,4,1,0,90,0,0
41024,-100,4,1,0,80,0,0
61389,-125,4,1,0,60,0,0
68837,-121.951219512195,4,1,0,60,0,0
69306,-119.047619047619,4,1,0,60,0,0
69722,-116.279069767442,4,1,0,60,0,0
69879,-113.636363636364,4,1,0,70,0,0
70035,-111.111111111111,4,1,0,70,0,0
70191,-108.695652173913,4,1,0,70,0,0
70556,-107.52688172043,4,1,0,70,0,0
70712,-105.263157894737,4,1,0,70,0,0
70868,-103.092783505155,4,1,0,70,0,0
71024,-100,4,1,0,70,0,0
78524,-100,4,1,0,80,0,0
89670,-100,4,1,0,80,0,0
89748,-100,4,1,0,90,0,0
90061,-100,4,1,0,80,0,0
90217,-100,4,1,0,90,0,0
90920,-100,4,1,0,80,0,0
101077,-95.2380952380952,4,1,0,90,0,1
109748,-95.2380952380952,4,1,0,100,0,1
110061,-95.2380952380952,4,1,0,90,0,1
110217,-95.2380952380952,4,1,0,100,0,1
110998,-95.2380952380952,4,1,0,90,0,1
121077,-95.2380952380952,4,1,0,100,0,0

[HitObjects]
49,153,1077,5,0,0:0:0:0:
49,153,1389,1,8,0:0:0:0:
49,153,2014,1,8,0:0:0:0:
49,153,2327,1,0,0:0:0:0:
49,153,2639,1,8,0:0:0:0:
49,153,3264,1,8,0:0:0:0:
49,153,3577,1,0,0:0:0:0:
49,153,3889,1,8,0:0:0:0:
49,153,4514,1,8,0:0:0:0:
49,153,4827,1,0,0:0:0:0:
49,153,5139,1,8,0:0:0:0:
49,153,5764,1,8,0:0:0:0:
49,153,6077,1,0,0:0:0:0:
49,153,7327,1,0,0:0:0:0:
49,153,7639,1,8,0:0:0:0:
49,153,8264,1,8,0:0:0:0:
49,153,8577,1,0,0:0:0:0:
49,153,9827,1,0,0:0:0:0:
49,153,10139,1,8,0:0:0:0:
142,53,10295,1,0,0:0:0:0:
221,86,10608,1,0,0:0:0:0:
49,153,10764,1,8,0:0:0:0:
49,153,11077,1,4,0:0:0:0:
151,167,11702,1,0,0:0:0:0:
151,167,12014,1,0,0:0:0:0:
146,164,12327,1,8,0:0:0:0:
146,165,12639,1,8,0:0:0:0:
176,163,12952,1,0,0:0:0:0:
176,163,13108,1,0,0:0:0:0:
176,163,13264,1,8,0:0:0:0:
176,163,13420,1,0,0:0:0:0:
163,159,13577,1,8,0:0:0:0:
177,111,14202,1,0,0:0:0:0:
179,115,14514,1,8,0:0:0:0:
174,118,14827,1,0,0:0:0:0:
169,185,15139,1,8,0:0:0:0:
151,217,15452,1,8,0:0:0:0:
151,217,15608,1,8,0:0:0:0:
151,217,15764,1,0,0:0:0:0:
151,217,15920,1,0,0:0:0:0:
151,217,16077,1,8,0:0:0:0:
138,208,16702,1,0,0:0:0:0:
121,266,17014,1,8,0:0:0:0:
135,246,17327,1,0,0:0:0:0:
135,246,17483,1,8,0:0:0:0:
135,246,17639,1,8,0:0:0:0:
135,246,17952,1,0,0:0:0:0:
135,246,18264,1,8,0:0:0:0:
183,51,18420,1,8,0:0:0:0:
135,246,18577,1,0,0:0:0:0:
131,249,18889,1,8,0:0:0:0:
230,220,19202,1,0,0:0:0:0:
227,224,19514,1,8,0:0:0:0:
225,228,19670,1,8,0:0:0:0:
221,233,19827,1,0,0:0:0:0:
219,225,21077,1,4,0:0:0:0:
220,165,21389,1,8,0:0:0:0:
220,165,21702,1,8,0:0:0:0:
213,163,21858,1,0,0:0:0:0:
214,163,22014,1,0,0:0:0:0:
212,164,22170,1,8,0:0:0:0:
174,130,22483,1,8,0:0:0:0:
174,130,22795,1,8,0:0:0:0:
196,135,22952,1,0,0:0:0:0:
184,120,23108,1,8,0:0:0:0:
184,120,23264,1,0,0:0:0:0:
185,117,23420,1,0,0:0:0:0:
184,120,23733,1,8,0:0:0:0:
173,123,24045,1,0,0:0:0:0:
173,123,24202,1,8,0:0:0:0:
156,64,24358,1,0,0:0:0:0:
192,116,24514,1,8,0:0:0:0:
192,116,24670,1,8,0:0:0:0:
187,116,24983,1,8,0:0:0:0:
177,52,25295,1,8,0:0:0:0:
158,155,25452,1,0,0:0:0:0:
158,155,25608,1,8,0:0:0:0:
158,155,25764,1,0,0:0:0:0:
172,174,25920,1,0,0:0:0:0:
246,128,26077,1,8,0:0:0:0:
215,152,26702,1,8,0:0:0:0:
206,156,26858,1,0,0:0:0:0:
207,156,27014,1,0,0:0:0:0:
201,159,27170,1,8,0:0:0:0:
171,158,27483,1,8,0:0:0:0:
171,158,27795,1,8,0:0:0:0:
171,158,27952,1,0,0:0:0:0:
171,158,28108,1,8,0:0:0:0:
176,160,28264,1,8,0:0:0:0:
173,163,28420,1,0,0:0:0:0:
169,139,28733,1,0,0:0:0:0:
198,116,29045,1,0,0:0:0:0:
198,116,29202,1,8,0:0:0:0:
198,116,29358,1,8,0:0:0:0:
198,116,29514,1,0,0:0:0:0:
190,112,29670,1,8,0:0:0:0:
208,107,29983,1,0,0:0:0:0:
220,155,30452,1,8,0:0:0:0:
214,145,30608,1,8,0:0:0:0:
202,143,30764,1,0,0:0:0:0:
202,143,30920,1,0,0:0:0:0:
202,143,31077,1,12,0:0:0:0:
231,140,31702,1,8,0:0:0:0:
221,161,31858,1,0,0:0:0:0:
221,161,32014,1,0,0:0:0:0:
221,161,32170,1,8,0:0:0:0:
221,161,32327,1,0,0:0:0:0:
193,164,32639,1,0,0:0:0:0:
193,164,32795,1,8,0:0:0:0:
177,165,32952,1,0,0:0:0:0:
177,165,33108,1,0,0:0:0:0:
176,164,33264,1,8,0:0:0:0:
152,152,33577,1,8,0:0:0:0:
152,152,33889,1,0,0:0:0:0:
152,152,34202,1,8,0:0:0:0:
152,152,34358,1,0,0:0:0:0:
152,152,34514,1,8,0:0:0:0:
152,152,34670,1,8,0:0:0:0:
141,154,34983,1,8,0:0:0:0:
146,152,35295,1,8,0:0:0:0:
145,149,35452,1,0,0:0:0:0:
145,152,35608,1,8,0:0:0:0:
141,148,35764,1,0,0:0:0:0:
142,142,35920,1,0,0:0:0:0:
141,152,36077,1,8,0:0:0:0:
158,104,36702,1,8,0:0:0:0:
147,113,37014,1,0,0:0:0:0:
172,153,37327,1,0,0:0:0:0:
172,153,37483,1,8,0:0:0:0:
172,153,37639,1,8,0:0:0:0:
172,153,37795,1,8,0:0:0:0:
172,153,37952,1,0,0:0:0:0:
157,148,38264,1,8,0:0:0:0:
160,96,38577,1,0,0:0:0:0:
176,53,39202,1,0,0:0:0:0:
210,130,39514,1,0,0:0:0:0:
221,102,39827,1,12,0:0:0:0:
221,102,39983,1,12,0:0:0:0:
215,104,40295,1,12,0:0:0:0:
205,101,40608,1,12,0:0:0:0:
206,95,40764,1,12,0:0:0:0:
171,193,41077,1,12,0:0:0:0:
301,174,41702,1,8,0:0:0:0:
232,193,41858,1,0,0:0:0:0:
240,196,42014,1,8,0:0:0:0:
240,196,42170,1,0,0:0:0:0:
212,165,42327,1,0,0:0:0:0:
151,175,42639,1,8,0:0:0:0:
143,172,42952,1,0,0:0:0:0:
141,172,43108,1,8,0:0:0:0:
141,172,43264,1,8,0:0:0:0:
143,172,43420,1,0,0:0:0:0:
141,172,43577,1,8,0:0:0:0:
172,142,44202,1,8,0:0:0:0:
172,142,44358,1,8,0:0:0:0:
187,104,44514,1,0,0:0:0:0:
226,76,44670,1,0,0:0:0:0:
163,115,44827,1,8,0:0:0:0:
163,115,45139,1,8,0:0:0:0:
152,126,45452,1,0,0:0:0:0:
148,127,45608,1,0,0:0:0:0:
198,160,45764,1,8,0:0:0:0:
220,83,45920,1,0,0:0:0:0:
198,160,46077,1,0,0:0:0:0:
216,116,46702,1,8,0:0:0:0:
199,78,47014,1,0,0:0:0:0:
139,114,47327,1,8,0:0:0:0:
308,68,47483,1,8,0:0:0:0:
186,140,47639,1,0,0:0:0:0:
176,92,47795,1,8,0:0:0:0:
176,92,47952,1,0,0:0:0:0:
170,99,48264,1,8,0:0:0:0:
171,98,48577,1,0,0:0:0:0:
214,176,48889,1,8,0:0:0:0:
171,66,49045,1,0,0:0:0:0:
215,170,49202,1,8,0:0:0:0:
215,170,49514,1,0,0:0:0:0:
241,138,49827,1,0,0:0:0:0:
217,117,50452,1,8,0:0:0:0:
214,121,50764,1,0,0:0:0:0:
167,64,50920,1,0,0:0:0:0:
214,121,51077,1,12,0:0:0:0:
210,132,51702,1,0,0:0:0:0:
212,129,51858,1,8,0:0:0:0:
163,132,52014,1,8,0:0:0:0:
163,132,52170,1,8,0:0:0:0:
163,132,52327,1,0,0:0:0:0:
199,136,52639,1,0,0:0:0:0:
199,136,52795,1,8,0:0:0:0:
192,137,53108,1,8,0:0:0:0:
192,137,53264,1,0,0:0:0:0:
185,136,53577,1,8,0:0:0:0:
183,137,53889,1,8,0:0:0:0:
182,127,54045,1,8,0:0:0:0:
182,130,54202,1,0,0:0:0:0:
182,127,54358,1,0,0:0:0:0:
177,131,54514,1,8,0:0:0:0:
168,128,54827,1,0,0:0:0:0:
164,128,55139,1,8,0:0:0:0:
164,128,55295,1,8,0:0:0:0:
162,131,55452,1,0,0:0:0:0:
177,126,55764,1,8,0:0:0:0:
178,127,56077,1,4,0:0:0:0:
141,163,56702,1,8,0:0:0:0:
142,154,57014,1,0,0:0:0:0:
182,33,57170,1,8,0:0:0:0:
228,160,57327,5,4,0:0:0:0:
269,117,57639,1,8,0:0:0:0:
159,131,57795,1,0,0:0:0:0:
159,131,57952,1,8,0:0:0:0:
159,131,58264,1,0,0:0:0:0:
172,157,58577,1,12,0:0:0:0:
182,154,59202,1,4,0:0:0:0:
182,154,59827,1,12,0:0:0:0:
185,110,60139,1,12,0:0:0:0:
294,149,60451,1,12,0:0:0:0:
294,149,60764,1,12,0:0:0:0:
294,149,61077,1,12,0:0:0:0:
268,142,62014,1,8,0:0:0:0:
189,133,62327,1,0,0:0:0:0:
186,135,63264,1,8,0:0:0:0:
151,154,63577,1,0,0:0:0:0:
149,155,63889,1,8,0:0:0:0:
224,89,64514,1,8,0:0:0:0:
219,86,64827,1,0,0:0:0:0:
194,105,65764,1,8,0:0:0:0:
182,123,66077,1,0,0:0:0:0:
180,118,67014,1,8,0:0:0:0:
180,118,67327,1,0,0:0:0:0:
171,114,67639,1,8,0:0:0:0:
173,117,68264,1,8,0:0:0:0:
173,117,68577,1,8,0:0:0:0:
167,116,68889,1,8,0:0:0:0:
167,116,69514,1,8,0:0:0:0:
155,113,69827,1,0,0:0:0:0:
172,106,69983,1,0,0:0:0:0:
172,106,70139,1,8,0:0:0:0:
164,102,70608,1,0,0:0:0:0:
163,116,71077,1,12,0:0:0:0:
158,110,71389,1,8,0:0:0:0:
201,97,71702,1,8,0:0:0:0:
201,96,72014,1,8,0:0:0:0:
194,94,72327,1,0,0:0:0:0:
186,97,72639,1,0,0:0:0:0:
228,75,72952,1,8,0:0:0:0:
220,78,73264,1,8,0:0:0:0:
139,100,73577,1,0,0:0:0:0:
195,81,74202,1,0,0:0:0:0:
195,81,74514,1,8,0:0:0:0:
195,81,74827,1,8,0:0:0:0:
185,40,74983,1,0,0:0:0:0:
211,124,75295,1,8,0:0:0:0:
185,81,75452,1,0,0:0:0:0:
185,81,75764,1,8,0:0:0:0:
139,103,76077,1,4,0:0:0:0:
199,91,76702,1,0,0:0:0:0:
194,91,77014,1,0,0:0:0:0:
180,94,77327,1,12,0:0:0:0:
270,118,77952,1,0,0:0:0:0:
261,115,78108,1,0,0:0:0:0:
261,115,78264,1,0,0:0:0:0:
252,120,78577,1,12,0:0:0:0:
252,120,79202,1,8,0:0:0:0:
252,120,79358,1,8,0:0:0:0:
252,120,79514,1,0,0:0:0:0:
214,141,79827,1,12,0:0:0:0:
307,88,80139,1,12,0:0:0:0:
307,88,80451,1,12,0:0:0:0:
307,88,80764,1,12,0:0:0:0:
307,88,81076,1,12,0:0:0:0:
180,85,81702,1,8,0:0:0:0:
180,85,81858,1,0,0:0:0:0:
164,147,82014,1,0,0:0:0:0:
164,147,82170,1,8,0:0:0:0:
158,156,82483,1,8,0:0:0:0:
154,149,82795,1,8,0:0:0:0:
154,149,82952,1,0,0:0:0:0:
154,149,83108,1,8,0:0:0:0:
149,150,83264,1,8,0:0:0:0:
148,143,83420,1,0,0:0:0:0:
149,150,83733,1,8,0:0:0:0:
149,150,83889,1,0,0:0:0:0:
149,150,84202,1,0,0:0:0:0:
149,150,84358,1,8,0:0:0:0:
149,150,84514,1,8,0:0:0:0:
217,111,84670,1,0,0:0:0:0:
190,45,84983,1,8,0:0:0:0:
213,124,85295,1,8,0:0:0:0:
167,172,85452,1,0,0:0:0:0:
167,172,85608,1,8,0:0:0:0:
167,150,85764,1,0,0:0:0:0:
167,148,85920,1,0,0:0:0:0:
167,148,86077,1,8,0:0:0:0:
209,114,86702,1,8,0:0:0:0:
211,109,86858,1,0,0:0:0:0:
211,109,87014,1,0,0:0:0:0:
211,109,87170,1,8,0:0:0:0:
205,108,87483,1,8,0:0:0:0:
224,129,87795,1,0,0:0:0:0:
130,147,87952,1,0,0:0:0:0:
130,147,88108,1,8,0:0:0:0:
123,147,88264,1,8,0:0:0:0:
124,147,88420,1,0,0:0:0:0:
269,66,88733,1,0,0:0:0:0:
232,66,89045,1,8,0:0:0:0:
177,101,89358,1,0,0:0:0:0:
205,74,89514,1,8,0:0:0:0:
162,147,89827,1,4,0:0:0:0:
162,147,89983,1,4,0:0:0:0:
162,147,90295,1,4,0:0:0:0:
159,144,90608,1,4,0:0:0:0:
159,144,90764,1,4,0:0:0:0:
220,140,91077,1,12,0:0:0:0:
291,147,91702,1,8,0:0:0:0:
290,147,91858,1,8,0:0:0:0:
291,142,92014,1,0,0:0:0:0:
292,139,92170,1,0,0:0:0:0:
291,141,92327,1,8,0:0:0:0:
201,120,92639,1,8,0:0:0:0:
201,120,92952,1,0,0:0:0:0:
201,120,93108,1,8,0:0:0:0:
201,120,93264,1,0,0:0:0:0:
201,120,93420,1,0,0:0:0:0:
201,120,93577,1,8,0:0:0:0:
212,88,93889,1,8,0:0:0:0:
182,126,94202,1,0,0:0:0:0:
179,120,94514,1,0,0:0:0:0:
179,120,94670,1,8,0:0:0:0:
224,109,94983,1,8,0:0:0:0:
179,120,95295,1,8,0:0:0:0:
179,120,95452,1,0,0:0:0:0:
179,110,95764,1,0,0:0:0:0:
178,111,95920,1,0,0:0:0:0:
172,110,96077,1,12,0:0:0:0:
224,64,96702,1,8,0:0:0:0:
167,94,96858,1,8,0:0:0:0:
172,81,97014,1,8,0:0:0:0:
167,108,97170,1,0,0:0:0:0:
161,127,97327,1,12,0:0:0:0:
247,144,97639,1,8,0:0:0:0:
247,144,97795,1,0,0:0:0:0:
247,144,97952,1,0,0:0:0:0:
247,144,98108,1,8,0:0:0:0:
247,144,98264,1,0,0:0:0:0:
232,138,98577,1,12,0:0:0:0:
165,107,98889,1,0,0:0:0:0:
165,107,99202,1,12,0:0:0:0:
165,107,99514,1,0,0:0:0:0:
157,104,99827,1,12,0:0:0:0:
251,151,100139,1,12,0:0:0:0:
251,151,100452,1,12,0:0:0:0:
251,151,100764,1,12,0:0:0:0:
251,151,101077,1,12,0:0:0:0:
292,116,101702,1,0,0:0:0:0:
284,115,101858,1,8,0:0:0:0:
285,116,102014,1,0,0:0:0:0:
279,116,102170,1,0,0:0:0:0:
279,117,102327,1,8,0:0:0:0:
279,117,102639,1,8,0:0:0:0:
279,117,102795,1,8,0:0:0:0:
279,117,102952,1,0,0:0:0:0:
276,112,103264,1,8,0:0:0:0:
276,112,103577,1,0,0:0:0:0:
276,112,103733,1,0,0:0:0:0:
270,115,103889,1,8,0:0:0:0:
153,100,104045,1,0,0:0:0:0:
270,115,104202,1,8,0:0:0:0:
147,178,104514,1,8,0:0:0:0:
275,110,104827,1,0,0:0:0:0:
162,117,105139,1,8,0:0:0:0:
195,104,105452,1,0,0:0:0:0:
191,105,105608,1,8,0:0:0:0:
191,105,105764,1,8,0:0:0:0:
191,105,105920,1,0,0:0:0:0:
191,105,106077,1,8,0:0:0:0:
207,115,106702,1,0,0:0:0:0:
209,117,107014,1,0,0:0:0:0:
207,115,107170,1,8,0:0:0:0:
207,115,107327,1,0,0:0:0:0:
304,93,107639,1,8,0:0:0:0:
295,88,107952,1,0,0:0:0:0:
228,126,108108,1,0,0:0:0:0:
250,84,108264,1,0,0:0:0:0:
250,84,108420,1,8,0:0:0:0:
177,100,108577,1,0,0:0:0:0:
140,106,108889,1,8,0:0:0:0:
140,106,109202,1,8,0:0:0:0:
140,100,109514,1,0,0:0:0:0:
147,77,109827,1,12,0:0:0:0:
161,101,109983,1,12,0:0:0:0:
159,107,110295,1,12,0:0:0:0:
156,105,110608,1,12,0:0:0:0:
148,108,110764,1,12,0:0:0:0:
136,110,111077,1,4,0:0:0:0:
180,154,111702,1,8,0:0:0:0:
179,147,111858,1,8,0:0:0:0:
178,147,112014,1,0,0:0:0:0:
203,130,112170,1,0,0:0:0:0:
195,133,112327,1,8,0:0:0:0:
195,134,112639,1,8,0:0:0:0:
199,129,112952,1,0,0:0:0:0:
241,73,113108,1,8,0:0:0:0:
224,110,113264,1,0,0:0:0:0:
224,110,113420,1,0,0:0:0:0:
224,110,113577,1,8,0:0:0:0:
182,110,114202,1,0,0:0:0:0:
156,102,114358,1,0,0:0:0:0:
176,47,114514,1,8,0:0:0:0:
182,96,114827,1,0,0:0:0:0:
182,95,115139,1,8,0:0:0:0:
275,87,115452,1,8,0:0:0:0:
183,90,115608,1,0,0:0:0:0:
186,83,115764,1,8,0:0:0:0:
211,62,115920,1,8,0:0:0:0:
211,62,116077,1,4,0:0:0:0:
227,111,116702,1,8,0:0:0:0:
164,148,116858,1,8,0:0:0:0:
227,111,117014,1,0,0:0:0:0:
168,43,117170,1,0,0:0:0:0:
194,106,117327,1,12,0:0:0:0:
228,101,117952,1,8,0:0:0:0:
151,143,118108,1,0,0:0:0:0:
230,91,118264,1,8,0:0:0:0:
150,99,118577,1,4,0:0:0:0:
307,99,118889,1,4,0:0:0:0:
307,99,119201,1,4,0:0:0:0:
307,99,119514,1,4,0:0:0:0:
307,99,119827,1,12,0:0:0:0:
256,192,119983,12,0,121077,0:0:0:0:
