osu file format v14

[General]
AudioFilename: audio.mp3
AudioLeadIn: 0
PreviewTime: 141529
Countdown: 0
SampleSet: Soft
StackLeniency: 0.3
Mode: 0
LetterboxInBreaks: 0
EpilepsyWarning: 1
WidescreenStoryboard: 1

[Editor]
Bookmarks: 142112
DistanceSpacing: 1
BeatDivisor: 3
GridSize: 8
TimelineZoom: 2.2

[Metadata]
Title:Aun no Beats
TitleUnicode:阿吽のビーツ
Artist:isubokuro
ArtistUnicode:いすぼくろ
Creator:Beren
Version:vivicat's Insane
Source:
Tags:cover lobelia buhei SUNRISE vivicat japanese novelty utaite v flower 羽生まゐご 羽生迷子 maigo hanyuu
BeatmapID:2418534
BeatmapSetID:1153984

[Difficulty]
HPDrainRate:5
CircleSize:3
OverallDifficulty:8
ApproachRate:9
SliderMultiplier:1.2
SliderTickRate:1

[Events]
//Background and Video events
0,0,"IMG_9841(20200419-094607).jpg",0,0
//Break Periods
2,57277,65798
2,103879,112400
//Storyboard Layer 0 (Background)
//Storyboard Layer 1 (Fail)
//Storyboard Layer 2 (Pass)
//Storyboard Layer 3 (Foreground)
Sprite,Foreground,Centre,"SB\bg.jpg",320,240 F,0,559,1141,0,1 S,0,1141,,0.6944515 F,0,1141,10170,1
Sprite,Foreground,Centre,"SB\bg.jpg",320,240 F,0,160753,181238,1
Sprite,Foreground,Centre,"SB\IMG_9830(20200419-094321).JPG",320,240 M,0,9879,,295.2258,247.4322 S,0,9879,,0.513 F,0,9879,10170,0,1 F,0,10170,,1 M,0,19782,19976,295.2258,249.0838,-630.5033,249.0838
Sprite,Foreground,Centre,"SB\1.JPG",320,240 S,0,19782,,0.6118709 M,0,19782,19976,1266.374,325.058,346.6242,325.058 M,0,19976,38423,346.6242,325.058,286.9678,325.058 F,0,38423,,1 M,0,38423,38617,286.9678,325.058,-570.2194,326.7097
Sprite,Foreground,Centre,"SB\1.png",320,240 M,0,1141,,295.2258,291.2 F,0,1141,1432,1,0 S,0,1141,1432,1,1.057
Sprite,Foreground,Centre,"SB\1.png",320,240 M,0,1432,,295.2258,291.2 F,0,1432,1723,1,0 S,0,1432,1723,1,1.057
Sprite,Foreground,Centre,"SB\1.png",320,240 M,0,3471,,295.2258,291.2 F,0,3471,3762,1,0 S,0,3471,3762,1,1.057
Sprite,Foreground,Centre,"SB\1.png",320,240 M,0,3762,,295.2258,291.2 F,0,3762,4053,1,0 S,0,3762,4053,1,1.057
Sprite,Foreground,Centre,"SB\1.png",320,240 M,0,5801,,295.2258,291.2 F,0,5801,6092,1,0 S,0,5801,6092,1,1.057
Sprite,Foreground,Centre,"SB\1.png",320,240 M,0,6092,,295.2258,291.2 F,0,6092,6383,1,0 S,0,6092,6383,1,1.057
Sprite,Foreground,Centre,"SB\1.png",320,240 M,0,8325,,295.2258,291.2 F,0,8325,8520,1,0 S,0,8325,8520,1,1.057
Sprite,Foreground,Centre,"SB\1.png",320,240 M,0,8131,,295.2258,291.2 F,0,8131,8326,1,0 S,0,8131,8326,1,1.057
Sprite,Foreground,Centre,"SB\1.png",320,240 M,0,8520,,295.2258,291.2 F,0,8520,8715,1,0 S,0,8520,8715,1,1.057
Sprite,Foreground,Centre,"SB\1.png",320,240 M,0,8714,,295.2258,291.2 F,0,8714,8909,1,0 S,0,8714,8909,1,1.057
Sprite,Foreground,Centre,"SB\1.png",320,240 M,0,8908,,295.2258,291.2 F,0,8908,9103,1,0 S,0,8908,9103,1,1.057
Sprite,Foreground,Centre,"SB\1.png",320,240 M,0,9102,,295.2258,291.2 F,0,9102,9297,1,0 S,0,9102,9297,1,1.057
Sprite,Foreground,Centre,"SB\1.png",320,240 M,0,9296,,295.2258,291.2 F,0,9296,9491,1,0 S,0,9296,9491,1,1.057
Sprite,Foreground,Centre,"SB\1.png",320,240 M,0,9491,,295.2258,291.2 F,0,9491,9686,1,0 S,0,9491,9686,1,1.057
Sprite,Foreground,Centre,"SB\1.png",320,240 M,0,9685,,295.2258,291.2 F,0,9685,9880,1,0 S,0,9685,9880,1,1.057
Sprite,Foreground,Centre,"SB\1.png",320,240 M,0,9879,,295.2258,291.2 F,0,9879,10074,1,0 S,0,9879,10074,1,1.057
Sprite,Foreground,Centre,"SB\1.png",320,240 M,0,17452,,408.3613,233.3936 F,0,17452,17647,1,0 S,0,17452,17647,1,1.057
Sprite,Foreground,Centre,"SB\1.png",320,240 M,0,17646,,408.3613,233.3936 F,0,17646,17841,1,0 S,0,17646,17841,1,1.057
Sprite,Foreground,Centre,"SB\1.png",320,240 M,0,17840,,408.3613,233.3936 F,0,17840,18035,1,0 S,0,17840,18035,1,1.057
Sprite,Foreground,Centre,"SB\1.png",320,240 M,0,18034,,408.3613,233.3936 F,0,18034,18229,1,0 S,0,18034,18229,1,1.057
Sprite,Foreground,Centre,"SB\1.png",320,240 M,0,18228,,408.3613,233.3936 F,0,18228,18423,1,0 S,0,18228,18423,1,1.057
Sprite,Foreground,Centre,"SB\1.png",320,240 M,0,18423,,408.3613,233.3936 F,0,18423,18618,1,0 S,0,18423,18618,1,1.057
Sprite,Foreground,Centre,"SB\1.png",320,240 M,0,18617,,408.3613,233.3936 F,0,18617,18812,1,0 S,0,18617,18812,1,1.057
Sprite,Foreground,Centre,"SB\1.png",320,240 M,0,18811,,408.3613,233.3936 F,0,18811,19006,1,0 S,0,18811,19006,1,1.057
Sprite,Foreground,Centre,"SB\1.png",320,240 M,0,19005,,408.3613,233.3936 F,0,19005,19200,1,0 S,0,19005,19200,1,1.057
Sprite,Foreground,Centre,"SB\1.png",320,240 M,0,19199,,408.3613,233.3936 F,0,19199,19394,1,0 S,0,19199,19394,1,1.057
Sprite,Foreground,Centre,"SB\1.png",320,240 M,0,19393,,408.3613,233.3936 F,0,19393,19588,1,0 S,0,19393,19588,1,1.057
Sprite,Foreground,Centre,"SB\1.png",320,240 M,0,19588,,408.3613,233.3936 F,0,19588,19783,1,0 S,0,19588,19783,1,1.057
Sprite,Foreground,Centre,"SB\4.JPG",320,240 M,0,66384,66578,1237.471,372.9548,335.6903,375.4323 M,0,66578,,335.6903,375.4323 S,0,66578,,0.5045162 M,0,66578,85025,335.6903,375.4323,285.3161,374.6064 F,0,85025,,1 M,0,85025,85219,285.3161,374.6064,-596.6451,373.7806
Sprite,Foreground,Centre,"SB\8.JPG",320,240 F,0,122306,,1 M,0,122306,122500,1246.555,318.4516,335.6904,320.929 S,0,122500,,0.5292903 M,0,122500,142112,335.6904,320.929,272.1033,321.7548 M,0,142112,142306,272.1033,321.7548,-612.3354,321.7548
Sprite,Foreground,Centre,"SB\1.png",320,240 R,0,1141,,0 F,0,1141,1238,0,1 F,0,1238,9879,1 M,0,8423,,295.2258,291.2 F,0,9879,10170,1,0 M,0,17452,,408.3613,233.3936 F,0,17452,19782,1
Sprite,Foreground,Centre,"SB\2.png",320,240 M,0,17452,17646,435.6129,185.4968
Sprite,Foreground,Centre,"SB\3.png",320,240 M,0,17646,17840,435.6129,186.3226
Sprite,Foreground,Centre,"SB\4.png",320,240 M,0,17840,18034,437.2645,184.671
Sprite,Foreground,Centre,"SB\5.png",320,240 M,0,18034,18228,436.4388,184.671
Sprite,Foreground,Centre,"SB\6.png",320,240 M,0,18228,18423,435.6129,183.8452
Sprite,Foreground,Centre,"SB\7.png",320,240 M,0,18423,18617,435.6129,181.3678
Sprite,Foreground,Centre,"SB\8.png",320,240 M,0,18617,18811,434.7871,181.3678
Sprite,Foreground,Centre,"SB\9.png",320,240 M,0,18811,19005,433.9613,180.542
Sprite,Foreground,Centre,"SB\11.png",320,240 M,0,19005,19199,433.1355,180.5419
Sprite,Foreground,Centre,"SB\12.png",320,240 M,0,19199,19393,433.1355,183.0193
Sprite,Foreground,Centre,"SB\13.png",320,240 M,0,19393,19588,430,182 S,0,19491,,0.727
Sprite,Foreground,Centre,"SB\14.png",320,240 S,0,19588,,0.727 M,0,19588,19782,430,182
Sprite,Foreground,Centre,"SB\15.png",320,240 F,0,1141,1238,0,1 F,0,1238,3180,1 F,0,3180,3471,1,0
Sprite,Foreground,Centre,"SB\16.png",320,240 F,0,3471,3568,0,1 F,0,3568,5219,1 F,0,5219,5510,1,0
Sprite,Foreground,Centre,"SB\18.png",320,240 F,0,5801,5898,0,1 F,0,5898,7840,1 F,0,7840,8131,1,0
Sprite,Foreground,Centre,"SB\IMG_9830(20200419-094321).JPG",320,240 M,0,10461,,295.2258,247.4322 F,0,10461,10753,1,0 S,0,10461,10753,0.513,0.525
Sprite,Foreground,Centre,"SB\IMG_9830(20200419-094321).JPG",320,240 M,0,10753,,295.2258,247.4322 F,0,10753,11045,1,0 S,0,10753,11045,0.513,0.525
Sprite,Foreground,Centre,"SB\IMG_9830(20200419-094321).JPG",320,240 M,0,12792,,295.2258,247.4322 F,0,12792,13084,1,0 S,0,12792,13084,0.513,0.525
Sprite,Foreground,Centre,"SB\IMG_9830(20200419-094321).JPG",320,240 M,0,13083,,295.2258,247.4322 F,0,13083,13375,1,0 S,0,13083,13375,0.513,0.525
Sprite,Foreground,Centre,"SB\IMG_9830(20200419-094321).JPG",320,240 M,0,15122,,295.2258,247.4322 F,0,15122,15414,1,0 S,0,15122,15414,0.513,0.525
Sprite,Foreground,Centre,"SB\IMG_9830(20200419-094321).JPG",320,240 M,0,15413,,295.2258,247.4322 F,0,15413,15705,1,0 S,0,15413,15705,0.513,0.525
Sprite,Foreground,Centre,"SB\2.png",320,240 F,0,8131,8325,1
Sprite,Foreground,Centre,"SB\4.png",320,240 F,0,8520,8714,1
Sprite,Foreground,Centre,"SB\6.png",320,240 F,0,8908,9102,1
Sprite,Foreground,Centre,"SB\7.png",320,240 F,0,9102,9296,1
Sprite,Foreground,Centre,"SB\9.png",320,240 F,0,9491,9685,1
Sprite,Foreground,Centre,"SB\11.png",320,240 F,0,9685,9879,1
Sprite,Foreground,Centre,"SB\12.png",320,240 F,0,9879,10170,1,0
Sprite,Foreground,Centre,"SB\3.JPG",320,240 M,0,93762,93957,1259.342,244.129,314.6189,244.9548 M,0,93957,103083,314.6189,244.9548,274.1544,244.129 S,0,94054,,0.5127741 M,0,103083,103277,274.1544,244.129,-625.9746,243.3032
Sprite,Foreground,Centre,"IMG_9841(20200419-094607).jpg",320,240 M,0,142112,142306,1270.503,262.2968,381.9355,256.5161 S,0,142306,,0.5045161 M,0,142306,163665,381.9355,256.5161,270.4516,257.3419 F,0,160753,163665,1,0
Sprite,Foreground,Centre,"SB\9.jpg",320,240 M,0,56481,56675,1234.994,274.6839,320.0001,273.8581 S,0,56675,,0.4054193 M,0,56675,66384,320.0001,273.8581,282.013,273.0323 F,0,66384,,1 M,0,66384,66578,282.013,273.0323,-588.3871,273.0323
Sprite,Foreground,Centre,"SB\11.JPG",320,240 M,0,103083,103277,1247.38,295.329,342.2968,298.6323 S,0,103277,,0.5127742 M,0,103277,112986,342.2968,298.6323,309.2645,299.4581 M,0,112986,113180,309.2645,299.4581,-605.7291,299.4581
Sprite,Foreground,Centre,"SB\6.jpg",320,240 M,0,112986,113180,1251.51,245.7806,348.0774,246.6064 M,0,113180,122306,348.0774,246.6064,311.7419,247.4323 S,0,113568,,0.4962581 M,0,122306,122500,311.7419,247.4323,-590.0387,249.9097
Sprite,Foreground,Centre,"SB\7.jpg",320,240 S,0,38423,,0.4962581 M,0,38423,38617,1238.607,241.2482,340.955,238.7708 M,0,38617,47160,340.955,238.7708,295.5357,239.5966 M,0,47160,47355,295.5357,239.5966,-550.9159,241.2482
Sprite,Foreground,Centre,"SB\2.jpg",320,240 M,0,47160,47355,1255.152,304.4786,357.5,302.0012 S,0,47355,,0.5127742 M,0,47355,56481,357.5,302.0012,303.8226,302.0012 M,0,56481,56675,303.8226,302.0012,-574.8355,302.0012
Sprite,Foreground,Centre,"SB\12.jpg",320,240 M,0,85025,85219,1252.059,285.4377,322.2012,286.2635 S,0,85219,,0.4384515 M,0,85219,93762,322.2012,286.2635,289.9948,287.9151 M,0,93762,93957,289.9948,287.9151,-660.5047,287.9149
Sprite,Foreground,Centre,"SB\19.png",320,240 F,0,19782,19879,0,1 F,0,19879,21626,1 M,0,19976,,167.2258,381.213 F,0,21626,21821,1,0
Sprite,Foreground,Centre,"SB\21.png",320,240 F,0,22015,22112,0,1 F,0,22112,23859,1 M,0,22694,,464.5161,332.4903 F,0,23859,24054,1,0
Sprite,Foreground,Centre,"SB\22.png",320,240 F,0,24345,24442,0,1 F,0,24442,28228,1 M,0,25025,,157.3161,226.7871 F,0,28228,28423,1,0.02141937
Sprite,Foreground,Centre,"SB\23.png",320,240 F,0,29102,29199,0.009032135,1 F,0,29199,30947,1 M,0,29685,,152.3613,391.1226 F,0,30947,31141,1,0
Sprite,Foreground,Centre,"SB\24.png",320,240 F,0,31432,31529,0,1 F,0,31529,33180,1 M,0,31724,,485.9871,303.5871 F,0,33180,33374,1,0
Sprite,Foreground,Centre,"SB\25.png",320,240 F,0,33665,33762,0.04619354,1 F,0,33762,36675,1 F,0,36675,36869,1,0
Sprite,Foreground,Centre,"SB\1.png",320,240 M,0,37743,,70.60646,369.6516 S,0,37743,,0.7770321 F,0,38423,,1
Sprite,Foreground,Centre,"SB\4.png",320,240 M,0,37743,37937,86.29679,330.0129
Sprite,Foreground,Centre,"SB\3.png",320,240 M,0,37937,38131,87.9484,334.9677
Sprite,Foreground,Centre,"SB\26.png",320,240 M,0,38131,38423,87.94839,333.3161
Sprite,Foreground,Centre,"SB\27.png",320,240 F,0,38423,38520,0.000774231,1 F,0,38520,40461,1 M,0,38714,,208.5161,214.4 F,0,40461,40656,1,0.004903183
Sprite,Foreground,Centre,"SB\28.png",320,240 F,0,40753,40850,0,1 F,0,40850,42792,1 M,0,41335,,144.1033,383.6903 F,0,42792,42986,1,0.004903183
Sprite,Foreground,Centre,"SB\29.png",320,240 F,0,43083,43180,0,1 F,0,43180,43957,1 M,0,43665,,545.4452,214.4 F,0,43957,44151,1,0
Sprite,Foreground,Centre,"SB\31.png",320,240 F,0,44248,44345,0,1 F,0,44345,44830,1 M,0,44539,,87.94839,218.529 F,0,44830,45025,1,0
Sprite,Foreground,Centre,"SB\32.png",320,240 F,0,45316,45413,0,1 F,0,45413,46869,1 M,0,45704,,530.5807,215.2258 F,0,46869,47063,1,0
Sprite,Foreground,Centre,"SB\1.png",320,240 F,0,47160,47258,0,1 F,0,47258,47549,1 M,0,47549,,73.90966,362.2194 S,0,47549,,0.7027097 F,0,47549,47743,1,0
Sprite,Foreground,Centre,"SB\33.png",320,240 F,0,47160,47258,0,1 F,0,47258,47549,1 M,0,47549,,88.77418,325.8839 F,0,47549,47743,1,0
Sprite,Foreground,Centre,"SB\34.png",320,240 F,0,47743,47840,0,1 F,0,47840,49491,1 M,0,48034,,243.2,104.5677 F,0,49491,49685,1,0
Sprite,Foreground,Centre,"SB\35.png",320,240 F,0,49976,50073,0,1 F,0,50073,52112,1 M,0,50364,,458.7355,337.4452 F,0,52112,52306,1,0
Sprite,Foreground,Centre,"SB\1.png",320,240 F,0,53180,53277,0,1 F,0,53277,56190,1 M,0,53859,,59.04514,344.8774 F,0,56190,56481,1,0
Sprite,Foreground,Centre,"SB\36.png",320,240 F,0,53180,53277,0,1 F,0,53277,53859,1 M,0,53859,,84.64516,301.9354 F,0,53859,54054,1,0
Sprite,Foreground,Centre,"SB\37.png",320,240 F,0,54151,54248,0,1 F,0,54248,56190,1 M,0,54345,,86.29677,299.4581 F,0,56190,56481,1,0
Sprite,Foreground,Centre,"SB\1.png",320,240 M,0,64054,,483.5097,257.342 F,0,66384,,1
Sprite,Foreground,Centre,"SB\1.png",320,240 M,0,64054,,483.5097,257.342 F,0,64054,64249,1,0 S,0,64054,64249,1,1.057
Sprite,Foreground,Centre,"SB\1.png",320,240 M,0,64248,,483.5097,257.342 F,0,64248,64443,1,0 S,0,64248,64443,1,1.057
Sprite,Foreground,Centre,"SB\1.png",320,240 M,0,64442,,483.5097,257.342 F,0,64442,64637,1,0 S,0,64442,64637,1,1.057
Sprite,Foreground,Centre,"SB\1.png",320,240 M,0,64636,,483.5097,257.342 F,0,64636,64831,1,0 S,0,64636,64831,1,1.057
Sprite,Foreground,Centre,"SB\1.png",320,240 M,0,64830,,483.5097,257.342 F,0,64830,65025,1,0 S,0,64830,65025,1,1.057
Sprite,Foreground,Centre,"SB\1.png",320,240 M,0,65025,,483.5097,257.342 F,0,65025,65220,1,0 S,0,65025,65220,1,1.057
Sprite,Foreground,Centre,"SB\1.png",320,240 M,0,65219,,483.5097,257.342 F,0,65219,65414,1,0 S,0,65219,65414,1,1.057
Sprite,Foreground,Centre,"SB\1.png",320,240 M,0,65413,,483.5097,257.342 F,0,65413,65608,1,0 S,0,65413,65608,1,1.057
Sprite,Foreground,Centre,"SB\1.png",320,240 M,0,65607,,483.5097,257.342 F,0,65607,65802,1,0 S,0,65607,65802,1,1.057
Sprite,Foreground,Centre,"SB\1.png",320,240 M,0,65801,,483.5097,257.342 F,0,65801,65996,1,0 S,0,65801,65996,1,1.057
Sprite,Foreground,Centre,"SB\1.png",320,240 M,0,65995,,483.5097,257.342 F,0,65995,66190,1,0 S,0,65995,66190,1,1.057
Sprite,Foreground,Centre,"SB\1.png",320,240 M,0,66190,,483.5097,257.342 F,0,66190,66385,1,0 S,0,66190,66385,1,1.057
Sprite,Foreground,Centre,"SB\2.png",320,240 M,0,64054,64248,508.2839,208.6194
Sprite,Foreground,Centre,"SB\3.png",320,240 M,0,64248,64442,508.2839,208.6194
Sprite,Foreground,Centre,"SB\4.png",320,240 M,0,64442,64636,509.1097,209.4452
Sprite,Foreground,Centre,"SB\5.png",320,240 M,0,64636,64830,508.2838,209.4452
Sprite,Foreground,Centre,"SB\6.png",320,240 M,0,64830,65025,507.4581,209.4452
Sprite,Foreground,Centre,"SB\7.png",320,240 M,0,65025,65219,507.4581,208.6194
Sprite,Foreground,Centre,"SB\8.png",320,240 M,0,65219,65413,505.8065,208.6194
Sprite,Foreground,Centre,"SB\9.png",320,240 M,0,65413,65607,506.6323,208.6194
Sprite,Foreground,Centre,"SB\11.png",320,240 M,0,65607,65801,506.6323,208.6194
Sprite,Foreground,Centre,"SB\12.png",320,240 M,0,65801,65995,506.6323,210.271
Sprite,Foreground,Centre,"SB\13.png",320,240 M,0,65995,66190,505,206 S,0,66190,,0.727
Sprite,Foreground,Centre,"SB\14.png",320,240 M,0,66190,66384,505,206 S,0,66384,,0.727
Sprite,Foreground,Centre,"SB\5.png",320,240 M,0,8714,8908,320,240
Sprite,Foreground,Centre,"SB\3.png",320,240 M,0,8325,8520,320,240
Sprite,Foreground,Centre,"SB\8.png",320,240 M,0,9296,9491,320,240
Sprite,Foreground,Centre,"SB\bg.jpg",320,240 S,0,76772,,0.6531613 F,0,76772,76869,0,1 F,0,76869,77743,1 F,0,77743,77937,1,0
Sprite,Foreground,Centre,"SB\bg.jpg",320,240 M,0,79102,,320,240 F,0,79102,79199,0,1 F,0,79199,80073,1 F,0,80073,80267,1,0
Sprite,Foreground,Centre,"SB\38.png",320,240 F,0,66384,66481,0,1 F,0,66481,69588,1 M,0,66578,,462.0387,254.8645 F,0,69588,69782,1,0
Sprite,Foreground,Centre,"SB\39.png",320,240 M,0,71044,,55.74194,253.2129 F,0,71044,71141,0,1 F,0,71141,73957,1 F,0,73957,74151,1,0
Sprite,Foreground,Centre,"SB\41.png",320,240 M,0,75122,,532.2323,325.8839 F,0,75122,75219,0.05445145,1 F,0,75219,76578,1 F,0,76578,76772,1,0
Sprite,Foreground,Centre,"SB\42.png",320,240 F,0,76772,76869,0,1 F,0,76869,77355,1 F,0,77355,77452,1,0
Sprite,Foreground,Centre,"SB\43.png",320,240 M,0,77937,,116.0258,168.1548 F,0,77937,78034,0,1 F,0,78034,78908,1 F,0,78908,79102,1,0
Sprite,Foreground,Centre,"SB\1.png",320,240 F,0,79102,79199,0,1 F,0,79199,79782,1 M,0,79491,,295.2258,290.3742 F,0,79782,79976,1,0
Sprite,Foreground,Centre,"SB\44.png",320,240 F,0,79102,79199,0,1 F,0,79199,79782,1 F,0,79782,79976,1,0
Sprite,Foreground,Centre,"SB\45.png",320,240 M,0,80267,,353.0323,268.0774 S,0,80267,,0.603613 F,0,80267,80364,0,1 F,0,80364,83568,1 F,0,83568,83762,1,0
Sprite,Foreground,Centre,"SB\4.png",320,240 S,0,84345,,0.8100644 M,0,84345,84539,545.4452,132.6452
Sprite,Foreground,Centre,"SB\3.png",320,240 S,0,84539,,0.7274841 M,0,84539,84733,543.7936,133.4709
Sprite,Foreground,Centre,"SB\46.png",320,240 S,0,84733,,0.6944513 M,0,84733,85025,538.0129,133.471
Sprite,Foreground,Centre,"SB\47.png",320,240 F,0,85025,85122,0,1 F,0,85122,87063,1 M,0,85219,,492.5936,342.4 F,0,87063,87258,1,0
Sprite,Foreground,Centre,"SB\48.png",320,240 M,0,87355,,163.0968,133.471 F,0,87355,87452,0,1 F,0,87452,89393,1 F,0,89393,89588,1,0
Sprite,Foreground,Centre,"SB\49.png",320,240 F,0,89685,89782,0,1 M,0,89782,,538.8387,177.2387 F,0,89782,90558,1 F,0,90558,90753,1,0
Sprite,Foreground,Centre,"SB\51.png",320,240 M,0,90850,,44.18063,322.5806 F,0,90850,90947,0,1 F,0,90947,91432,1 F,0,91432,91626,1,0
Sprite,Foreground,Centre,"SB\52.png",320,240 M,0,91918,,510.7613,216.8774 S,0,91918,,0.7605162 F,0,91918,92015,0,1 F,0,92015,93471,1 F,0,93471,93665,1,0
Sprite,Foreground,Centre,"SB\1.png",320,240 F,0,93762,93859,0,1 F,0,93859,94054,1 M,0,93957,,6.193552,381.213 S,0,93957,,0.5870969 F,0,94054,94248,1,0
Sprite,Foreground,Centre,"SB\33.png",320,240 F,0,93762,93859,0.0007740784,1 F,0,93859,94054,1 M,0,93957,,19.40644,349.8322 F,0,94054,94248,1,0
Sprite,Foreground,Centre,"SB\53.png",320,240 M,0,94345,,445.5226,273.0323 F,0,94345,94442,0,1 F,0,94442,96384,1 F,0,96384,96578,1,0
Sprite,Foreground,Centre,"SB\54.png",320,240 F,0,96675,96772,0,1 F,0,96772,98714,1 M,0,96966,,132.5419,390.2968 F,0,98714,98908,1,0
Sprite,Foreground,Centre,"SB\1.png",320,240 F,0,99879,99976,0,1 M,0,99976,,503.329,289.5485 F,0,99976,102792,1 F,0,102792,103083,1,0
Sprite,Foreground,Centre,"SB\36.png",320,240 F,0,99879,99976,0,1 M,0,99976,,528.1033,248.2581 F,0,99976,100461,1 F,0,100461,100656,1,0
Sprite,Foreground,Centre,"SB\55.png",320,240 F,0,100753,100850,0,1 F,0,100850,102792,1 M,0,101044,,530.5807,237.5226 S,0,101044,,0.9009032 F,0,102792,103083,1,0
Sprite,Foreground,Centre,"SB\heart.png",320,240 F,0,122306,122403,0,0.8 F,0,122403,125801,0.8,1 M,0,122597,,113.5484,378.7355 S,0,122597,,1.132129 R,0,122597,,-0.2807739 F,0,125801,125995,1,0
Sprite,Foreground,Centre,"SB\56.png",320,240 F,0,122306,122403,0,1 F,0,122403,125801,1 M,0,123180,,113.5484,244.9548 S,0,123180,,0.7522584 F,0,125801,125995,1,0
Sprite,Foreground,Centre,"SB\57.png",320,240 M,0,126092,,611.5097,145.858 S,0,126092,,0.8183226 F,0,126092,126190,0,1 F,0,126190,127840,1 F,0,127840,128034,1,0
Sprite,Foreground,Centre,"SB\58.png",320,240 M,0,128423,,99.50968,187.9742 S,0,128423,,0.7027097 F,0,128423,128520,0,1 F,0,128520,130461,1 F,0,130461,130656,1,0
Sprite,Foreground,Centre,"SB\59.png",320,240 M,0,131626,,602.4258,220.1806 S,0,131626,,0.6201291 F,0,131626,131724,0,1 F,0,131724,135122,1 F,0,135122,135316,1,0
Sprite,Foreground,Centre,"SB\61.png",320,240 M,0,135413,,51.61292,206.1419 S,0,135413,,0.5045161 F,0,135413,135510,0,1 F,0,135510,138908,1 F,0,138908,139102,1,0
Sprite,Foreground,Centre,"SB\1.png",320,240 F,0,141529,141626,0,1 F,0,141626,141821,1 M,0,141821,,69.78064,180.542 S,0,141821,,0.4632259 F,0,141821,142112,1,0
Sprite,Foreground,Centre,"SB\62.png",320,240 F,0,141529,141626,0,1 F,0,141626,141821,1 M,0,141821,,79.69034,155.7677 F,0,141821,142112,1,0
Sprite,Foreground,Centre,"SB\63.png",320,240 F,0,142112,142209,0,1 F,0,142209,146481,1 M,0,142403,,192,372.9548 F,0,146481,146675,1,0
Sprite,Foreground,Centre,"SB\29.png",320,240 M,0,146772,,92.90324,268.0774 F,0,146772,146869,0,1 F,0,146869,147646,1 F,0,147646,147840,1,0
Sprite,Foreground,Centre,"SB\64.png",320,240 M,0,147937,,591.6903,283.7678 F,0,147937,148034,0,1 F,0,148034,148520,1 F,0,148520,148714,1,0
Sprite,Foreground,Centre,"SB\65.png",320,240 F,0,149005,149102,0,1 M,0,149102,,78.03871,261.4709 F,0,149102,150558,1 F,0,150558,150753,1,0
Sprite,Foreground,Centre,"SB\1.png",320,240 M,0,150850,,548.7484,321.7549 S,0,150850,,0.6036127 F,0,150850,150947,0,1 F,0,150947,151141,1 F,0,151141,151432,1,0
Sprite,Foreground,Centre,"SB\33.png",320,240 F,0,150850,150947,0,1 F,0,150947,151141,1 M,0,151141,,562.7871,289.5484 F,0,151141,151432,1,0
Sprite,Foreground,Centre,"SB\34.png",320,240 F,0,151432,151529,0.03380631,1 F,0,151529,153180,1 M,0,152015,,165.5742,398.5548 F,0,153180,153374,1,0
Sprite,Foreground,Centre,"SB\66.png",320,240 M,0,153665,,462.0387,349.0065 F,0,153665,153762,0,1 F,0,153762,155801,1 F,0,155801,155995,1,0
Sprite,Foreground,Centre,"SB\1.png",320,240 F,0,156869,156966,0,1 F,0,156966,157549,1 M,0,157549,,484.3355,265.6 S,0,157549,,0.7935482 F,0,157549,157743,1,0
Sprite,Foreground,Centre,"SB\67.png",320,240 F,0,156869,156966,0,1 F,0,156966,157549,1 M,0,157549,,505.8065,225.1355 F,0,157549,157743,1,0
Sprite,Foreground,Centre,"SB\68.png",320,240 M,0,157840,,192,372.1291 F,0,157840,157937,0,1 F,0,157937,160753,1 F,0,160753,163374,1,0
Sprite,Foreground,Centre,"SB\69.png",320,240 M,0,165413,,320,240 F,0,165413,165510,0,1 F,0,165510,169782,1 F,0,169782,169976,1,0
Sprite,Foreground,Centre,"SB\1.png",320,240 F,0,174345,174442,0,1 F,0,174442,177646,1 F,0,177646,177840,1,0 M,0,177840,,296.0516,293.6774
Sprite,Foreground,Centre,"SB\bg.jpg",320,240 F,0,182889,184054,1 F,0,184054,184636,1,0
Sprite,Foreground,Centre,"SB\67.png",320,240 F,0,174345,174442,0,1 F,0,174442,177646,1 F,0,177646,177840,1,0
Sprite,Foreground,Centre,"SB\14.jpg",320,240 F,0,181141,181238,0,1 M,0,181141,183083,342.0452,268.0737,337.0082,267.9996 F,0,181238,182889,1 S,0,181432,,0.488 F,0,182889,183083,1,0
Sprite,Foreground,Centre,"SB\71.png",320,240 F,0,181141,181238,0,1 M,0,181238,,133.3678,257.3419 F,0,181238,182889,1 F,0,182889,183083,1,0
Sprite,Foreground,Centre,"SB\1111.png",320,240 F,0,1141,1238,0,1 S,0,1238,,0.4797419 F,0,1238,141529,1 F,0,141529,,1 F,0,141529,184054,1 F,0,184054,184636,1,0
Sprite,Foreground,Centre,"SB\72.png",320,240 F,0,182889,183083,0,1 F,0,183083,184054,1 F,0,184054,184636,1,0
//Storyboard Layer 4 (Overlay)
//Storyboard Sound Samples

[TimingPoints]
1156,291.26213592233,4,2,1,70,1,0
28824,-100,4,2,0,70,0,0
29019,-100,4,2,1,70,0,0
38437,-66.6666666666667,4,2,1,90,0,1
56494,-100,4,2,1,90,0,1
57078,-100,4,2,1,70,0,0
76786,-333.333333333333,4,2,1,70,0,0
77756,-100,4,2,1,70,0,0
79116,-333.333333333333,4,2,1,70,0,0
80087,-100,4,2,1,70,0,0
85039,-66.6666666666667,4,2,1,90,0,1
103096,-100,4,2,1,90,0,1
103680,-100,4,2,1,70,0,0
124650,-333.333333333333,4,2,1,70,0,0
126980,-133.333333333333,4,2,1,70,0,0
142126,-66.6666666666667,4,2,1,90,0,1
160767,-100,4,2,1,80,0,0
179408,-100,4,2,1,70,0,0
182902,-133.333333333333,4,2,1,70,0,0

[Colours]
Combo1 : 171,205,239
Combo2 : 130,171,193
Combo3 : 141,206,211
Combo4 : 175,175,216
SliderTrackOverride : 235,235,235

[HitObjects]
262,241,1156,6,0,L|262:347,1,80,6|0,0:0|3:0,0:0:0:0:
95,263,1447,2,0,L|3:210,1,80,4|0,0:3|3:0,0:0:0:0:
148,122,1738,2,0,L|239:69,1,80,6|0,0:0|3:0,0:0:0:0:
234,72,2029,1,0,0:0:0:0:
500,227,2223,1,0,0:0:0:0:
471,223,2321,1,0,0:0:0:0:
349,52,2515,2,0,P|316:89|333:164,1,120,4|0,0:0|0:0,0:0:0:0:
363,353,2903,2,0,P|394:317|379:251,1,120,4|0,0:0|3:0,0:0:0:0:
158,246,3389,5,0,0:0:0:0:
173,259,3486,2,0,L|72:263,1,80,6|0,0:0|3:0,0:0:0:0:
26,129,3777,2,0,L|105:125,1,80,4|0,0:3|3:0,0:0:0:0:
284,33,4068,2,0,L|183:37,1,80,6|0,0:0|3:0,0:0:0:0:
184,36,4359,1,0,0:0:0:0:
353,169,4554,1,0,0:0:0:0:
370,180,4651,1,0,0:0:0:0:
423,314,4845,2,0,P|380:340|311:298,1,120,4|0,0:0|0:0,0:0:0:0:
130,216,5233,2,0,P|173:190|242:232,1,120,4|0,0:0|3:0,0:0:0:0:
447,248,5816,6,0,L|344:240,1,80,6|0,0:0|3:0,0:0:0:0:
201,264,6107,2,0,L|260:178,1,80,4|0,0:3|3:0,0:0:0:0:
307,54,6398,2,0,L|351:148,1,80,6|0,0:0|3:0,0:0:0:0:
350,143,6689,1,0,0:0:0:0:
117,67,6884,1,0,0:0:0:0:
130,78,6981,1,0,0:0:0:0:
309,205,7175,2,0,P|259:181|203:216,1,120,4|0,0:0|0:0,0:0:0:0:
66,316,7563,2,0,P|116:340|172:305,1,120,4|0,0:0|3:0,0:0:0:0:
197,18,8049,5,0,0:0:0:0:
242,132,8146,2,0,L|219:100,1,40,6|0,0:0|3:0,0:0:0:0:
111,69,8340,2,0,L|114:108,1,40,8|0,0:0|3:0,0:0:0:0:
357,85,8534,2,0,L|321:69,1,40,8|0,0:0|3:0,0:0:0:0:
161,207,8728,2,0,L|199:217,1,40,4|0,0:0|3:0,0:0:0:0:
397,155,8922,2,0,L|394:195,1,40,8|0,0:0|3:0,0:0:0:0:
313,264,9117,2,0,L|280:198,1,40,8|0,0:0|3:0,0:0:0:0:
459,275,9311,2,0,L|526:293,1,40,6|0,0:0|3:0,0:0:0:0:
380,333,9505,2,0,L|362:368,1,40,8|0,0:0|3:0,0:0:0:0:
243,274,9699,2,0,L|211:249,1,40,4|0,0:0|3:0,0:0:0:0:
323,138,9893,2,0,P|352:176|331:270,1,120,6|0,0:0|0:0,0:0:0:0:
446,68,10379,5,0,0:0:0:0:
427,62,10476,2,0,P|381:58|328:74,1,80,6|0,0:0|3:0,0:0:0:0:
42,74,10767,2,0,P|83:75|122:65,1,80,4|0,0:3|3:0,0:0:0:0:
281,137,11058,2,0,P|237:135|182:149,1,80,8|0,0:0|3:0,0:0:0:0:
183,151,11350,1,0,0:0:0:0:
66,280,11544,1,0,0:0:0:0:
81,293,11641,2,0,P|122:303|176:282,1,80,4|0,0:0|0:0,0:0:0:0:
415,248,11932,2,0,P|374:238|320:259,1,80,4|0,0:3|0:0,0:0:0:0:
250,347,12223,2,0,L|244:227,1,120,8|0,0:0|0:0,0:0:0:0:
426,318,12709,5,0,0:0:0:0:
411,332,12806,2,0,P|363:332|318:310,1,80,6|0,0:0|3:0,0:0:0:0:
51,204,13097,2,0,P|91:202|129:215,1,80,4|0,0:3|3:0,0:0:0:0:
231,342,13389,2,0,P|183:342|138:320,1,80,8|0,0:0|3:0,0:0:0:0:
140,315,13680,1,0,0:0:0:0:
73,67,13874,1,0,0:0:0:0:
86,82,13971,2,0,P|88:126|77:164,1,80,4|0,0:0|0:0,0:0:0:0:
293,261,14262,2,0,P|292:224|302:179,1,80,4|0,0:3|0:0,0:0:0:0:
197,35,14554,2,0,L|203:161,1,120,8|0,0:0|0:0,0:0:0:0:
304,366,15039,5,0,0:0:0:0:
315,349,15136,2,0,P|320:304|311:258,1,80,6|0,0:0|3:0,0:0:0:0:
467,44,15427,2,0,P|462:86|470:123,1,80,4|0,0:3|3:0,0:0:0:0:
389,223,15719,2,0,P|393:180|386:141,1,80,8|0,0:0|3:0,0:0:0:0:
378,125,16010,1,0,0:0:0:0:
478,276,16204,1,0,0:0:0:0:
484,294,16301,2,0,P|478:342|457:370,1,80,4|0,0:0|0:0,0:0:0:0:
208,202,16592,2,0,P|248:205|287:218,1,80,4|0,0:3|0:0,0:0:0:0:
391,79,16884,2,0,L|394:203,1,120,8|0,0:0|0:0,0:0:0:0:
123,311,17369,5,0,0:0:0:0:
119,330,17466,2,0,P|105:301|100:269,1,40,6|0,0:0|3:0,0:0:0:0:
98,58,17660,2,0,P|94:78|95:98,1,40,8|0,0:0|3:0,0:0:0:0:
66,218,17855,2,0,P|60:198|60:179,1,40,8|0,0:0|3:0,0:0:0:0:
227,103,18049,6,0,P|229:125|234:146,1,40,4|0,0:0|3:0,0:0:0:0:
322,381,18243,2,0,P|308:366|298:350,1,40,8|0,0:0|3:0,0:0:0:0:
243,231,18437,2,0,P|249:250|259:268,1,40,8|0,0:0|3:0,0:0:0:0:
343,274,18631,6,0,P|308:290|269:296,1,40,6|0,0:0|3:0,0:0:0:0:
24,298,18825,2,0,P|44:301|64:302,1,40,8|0,0:0|3:0,0:0:0:0:
206,310,19020,2,0,P|186:313|167:317,1,40,8|0,0:0|3:0,0:0:0:0:
73,225,19214,6,0,P|97:222|121:216,1,40,6|0,0:0|3:0,0:0:0:0:
425,66,19408,2,0,P|410:79|395:92,1,40,12|0,0:0|3:0,0:0:0:0:
245,172,19602,2,0,P|263:163|281:154,1,40,8|0,0:0|3:0,0:0:0:0:
450,54,19796,6,0,L|467:164,1,80,6|0,0:0|0:0,0:0:0:0:
340,238,20088,2,0,P|296:231|253:254,1,80,4|0,0:3|0:0,0:0:0:0:
438,224,20379,2,0,L|448:331,1,80,8|0,0:0|0:0,0:0:0:0:
449,323,20670,1,0,0:0:0:0:
285,179,20864,1,0,0:0:0:0:
283,159,20961,2,0,L|275:79,1,80,4|0,0:0|0:0,0:0:0:0:
128,204,21253,2,0,P|88:199|49:209,1,80,4|0,0:3|0:0,0:0:0:0:
209,364,21544,2,0,P|202:305|219:248,1,120,8|0,0:0|0:0,0:0:0:0:
201,29,22029,5,0,0:0:0:0:
214,44,22126,2,0,L|205:138,1,80,6|0,0:0|0:0,0:0:0:0:
126,233,22418,2,0,P|87:221|55:198,1,80,4|0,0:3|0:0,0:0:0:0:
307,187,22709,2,0,P|339:164|377:153,1,80,8|0,0:0|0:0,0:0:0:0:
397,154,23000,1,0,0:0:0:0:
364,311,23194,1,0,0:0:0:0:
344,315,23291,2,0,P|306:304|274:281,1,80,4|0,0:0|0:0,0:0:0:0:
453,219,23583,2,0,P|470:278|445:325,1,80,4|0,0:3|0:0,0:0:0:0:
184,212,23874,2,0,L|303:219,1,120,8|0,0:0|0:0,0:0:0:0:
132,128,24456,6,0,L|53:122,1,80,6|0,0:0|0:0,0:0:0:0:
300,43,24748,2,0,P|338:34|377:43,1,80,4|0,0:3|0:0,0:0:0:0:
257,138,25039,2,0,L|251:220,1,80,8|0,0:0|0:0,0:0:0:0:
252,237,25330,1,0,0:0:0:0:
355,308,25524,2,0,P|388:330|471:330,1,120,0|0,0:0|0:0,0:0:0:0:
168,242,25913,2,0,P|129:227|77:225,1,80,4|0,0:3|0:0,0:0:0:0:
307,75,26204,2,0,P|311:115|334:148,1,80,8|0,0:0|0:0,0:0:0:0:
138,127,26495,2,0,L|32:120,1,80
317,256,26787,6,0,P|393:260|442:249,1,120,6|4,0:0|0:3,0:0:0:0:
289,71,27272,1,0,0:0:0:0:
269,73,27369,2,0,P|273:113|296:146,1,80,8|0,0:0|0:0,0:0:0:0:
477,322,27660,2,0,P|414:316|358:326,1,120,0|4,0:0|0:0,0:0:0:0:
33,310,28146,2,0,P|91:321|149:306,1,120,0|0,0:3|0:0,0:0:0:0:
165,294,28534,1,8,0:0:0:0:
121,179,28728,1,0,0:0:0:0:
126,174,28825,6,0,P|106:194|121:171,1,80,2|0,2:2|0:0,0:0:0:0:
204,58,29117,6,0,L|295:66,1,80,6|0,0:0|0:0,0:0:0:0:
328,200,29408,2,0,P|368:214|419:208,1,80,4|0,0:3|0:0,0:0:0:0:
285,51,29699,2,0,L|205:43,1,80,8|0,0:0|0:0,0:0:0:0:
107,140,29990,2,0,P|67:141|29:127,1,80
17,112,30282,1,4,0:0:0:0:
105,282,30476,1,0,0:0:0:0:
124,288,30573,2,0,P|160:272|176:216,1,80
313,72,30864,2,0,P|277:88|261:144,1,80,8|0,0:0|0:0,0:0:0:0:
253,144,31155,1,0,0:0:0:0:
320,249,31350,5,0,0:0:0:0:
338,257,31447,2,0,P|372:273|418:273,1,80,6|0,0:0|0:0,0:0:0:0:
126,170,31738,2,0,P|92:154|46:154,1,80,4|0,0:3|0:0,0:0:0:0:
191,271,32029,2,0,P|175:305|175:351,1,80,8|0,0:0|0:0,0:0:0:0:
180,365,32321,1,0,0:0:0:0:
227,61,32515,1,0,0:0:0:0:
211,49,32612,2,0,L|120:58,1,80,4|0,0:0|0:0,0:0:0:0:
322,169,32903,2,0,P|361:176|400:169,1,80,4|0,0:3|0:0,0:0:0:0:
145,308,33194,2,0,L|66:314,1,80,8|0,0:0|0:0,0:0:0:0:
45,314,33486,1,0,0:0:0:0:
340,336,33680,5,0,0:0:0:0:
336,316,33777,2,0,P|323:281|285:240,1,80,6|0,0:0|0:0,0:0:0:0:
477,156,34068,2,0,P|453:184|436:238,1,80,4|0,0:3|0:0,0:0:0:0:
366,359,34359,2,0,P|303:347|237:372,1,120,8|0,0:0|0:0,0:0:0:0:
160,30,34845,5,0,0:0:0:0:
166,48,34942,2,0,P|179:83|217:124,1,80,6|0,0:0|0:0,0:0:0:0:
272,248,35233,2,0,P|232:254|194:243,1,80
43,229,35524,2,0,P|66:200|83:146,1,80,12|0,0:0|0:0,0:0:0:0:
316,35,35816,2,0,P|355:28|393:39,1,80
411,47,36107,1,6,0:0:0:0:
383,225,36301,5,0,0:0:0:0:
382,245,36398,2,0,L|370:327,1,80,4|0,0:3|0:0,0:0:0:0:
368,344,36689,1,8,0:0:0:0:
398,116,36884,2,0,P|373:64|311:70,1,120
301,77,37272,1,12,0:0:0:0:
313,343,37563,1,4,0:0:0:0:
295,84,37855,1,8,0:0:0:0:
224,346,38049,1,0,0:0:0:0:
208,358,38146,1,8,0:0:0:0:
87,84,38437,6,0,P|119:134|122:202,1,120.000004577637,6|0,0:0|0:0,0:0:0:0:
56,322,38728,2,0,L|173:295,1,120.000004577637,4|0,0:3|0:0,0:0:0:0:
324,340,39020,2,0,P|328:280|383:253,1,120.000004577637,8|0,0:0|0:0,0:0:0:0:
418,100,39311,2,0,P|368:68|311:78,1,120.000004577637
43,204,39602,2,0,L|163:196,1,120.000004577637,4|0,0:0|0:0,0:0:0:0:
222,194,39893,1,4,0:3:0:0:
418,100,40088,1,0,0:0:0:0:
476,112,40185,2,0,P|503:161|501:234,1,120.000004577637,8|0,0:0|0:0,0:0:0:0:
473,275,40476,1,0,0:0:0:0:
276,190,40670,5,0,0:0:0:0:
290,249,40767,2,0,P|246:285|197:257,1,120.000004577637,6|0,0:0|0:0,0:0:0:0:
50,96,41058,2,0,P|99:68|142:104,1,120.000004577637,4|0,0:3|0:0,0:0:0:0:
246,321,41350,2,0,P|190:330|162:282,1,120.000004577637,8|0,0:0|0:0,0:0:0:0:
103,45,41641,2,0,P|160:46|179:98,1,120.000004577637
164,364,41932,2,0,P|110:343|110:287,1,120.000004577637,4|0,0:0|0:0,0:0:0:0:
133,233,42223,1,4,0:3:0:0:
288,56,42418,1,0,0:0:0:0:
317,108,42515,2,0,P|335:148|414:143,1,120.000004577637,8|0,0:0|0:0,0:0:0:0:
455,121,42806,1,0,0:0:0:0:
204,267,43000,5,0,0:0:0:0:
242,219,43097,2,0,P|290:221|340:282,1,120.000004577637,6|0,0:0|3:0,0:0:0:0:
489,256,43389,2,0,P|451:210|393:204,1,120.000004577637,4|0,0:3|3:0,0:0:0:0:
330,63,43680,2,0,P|282:65|232:126,1,120.000004577637,8|0,0:0|3:0,0:0:0:0:
42,118,43971,2,0,P|79:72|137:66,1,120.000004577637,0|0,0:0|3:0,0:0:0:0:
233,198,44262,2,0,P|239:256|284:293,1,120.000004577637,4|0,0:0|0:0,0:0:0:0:
368,292,44554,2,0,P|415:257|424:199,1,120.000004577637,4|0,0:3|0:0,0:0:0:0:
377,119,44845,2,0,P|323:95|268:116,1,120.000004577637,8|0,0:0|0:0,0:0:0:0:
233,164,45136,1,0,0:0:0:0:
85,255,45330,5,0,0:0:0:0:
135,284,45427,2,0,L|258:270,1,120.000004577637,6|0,0:0|0:0,0:0:0:0:
347,368,45719,2,0,P|386:338|366:265,1,120.000004577637,4|0,0:3|0:0,0:0:0:0:
467,134,46010,2,0,L|347:147,1,120.000004577637,8|0,0:0|0:0,0:0:0:0:
277,29,46301,2,0,P|238:59|258:132,1,120.000004577637
64,246,46592,6,0,L|181:218,1,120.000004577637,4|0,0:0|0:0,0:0:0:0:
453,214,46884,2,0,L|337:244,1,120.000004577637,4|0,0:3|0:0,0:0:0:0:
315,300,47175,1,8,0:0:0:0:
201,273,47369,1,0,0:0:0:0:
165,321,47466,2,0,P|98:317|64:265,1,120.000004577637,8|0,0:0|0:0,0:0:0:0:
200,34,47757,6,0,L|203:161,1,120.000004577637,6|0,0:0|0:0,0:0:0:0:
470,220,48049,2,0,P|427:178|363:171,1,120.000004577637,4|0,0:3|0:0,0:0:0:0:
315,376,48340,2,0,L|312:249,1,120.000004577637,8|0,0:0|0:0,0:0:0:0:
50,216,48631,2,0,P|92:257|157:265,1,120.000004577637
371,187,48922,2,0,P|432:188|494:220,1,120.000004577637,4|0,0:0|0:0,0:0:0:0:
501,270,49214,1,4,0:3:0:0:
284,186,49408,1,0,0:0:0:0:
232,154,49505,2,0,P|171:149|98:168,1,120.000004577637,8|0,0:0|0:0,0:0:0:0:
60,188,49796,1,0,0:0:0:0:
107,338,49990,5,0,0:0:0:0:
97,278,50088,2,0,P|118:224|174:197,1,120.000004577637,6|0,0:0|0:0,0:0:0:0:
377,331,50379,2,0,P|329:299|271:308,1,120.000004577637,4|0,0:3|0:0,0:0:0:0:
252,35,50670,2,0,P|288:80|283:142,1,120.000004577637,8|0,0:0|0:0,0:0:0:0:
392,207,50961,2,0,P|445:181|467:127,1,120.000004577637
504,79,51253,2,0,L|369:61,1,120.000004577637,4|0,0:0|0:0,0:0:0:0:
193,73,51544,2,0,P|222:131|290:133,1,120.000004577637,4|0,0:3|0:0,0:0:0:0:
330,127,51835,1,8,0:0:0:0:
108,195,52029,1,0,0:0:0:0:
55,225,52126,2,0,P|47:300|76:329,1,120.000004577637,0|0,0:0|0:0,0:0:0:0:
130,351,52418,1,6,0:0:0:0:
380,270,52927,5,0,0:0:0:0:
429,304,53000,1,8,0:0:0:0:
373,52,53583,1,4,0:0:0:0:
101,318,54068,1,0,0:0:0:0:
146,278,54165,2,0,P|156:220|129:167,1,120.000004577637,8|0,0:0|0:0,0:0:0:0:
360,234,54456,2,0,P|350:292|377:345,1,120.000004577637
469,99,54748,6,0,L|342:105,1,120.000004577637,14|0,0:0|0:0,0:0:0:0:
289,107,55039,1,12,0:0:0:0:
264,52,55136,1,8,0:0:0:0:
312,16,55233,1,8,0:0:0:0:
365,43,55330,2,0,B|349:107|349:107|381:171,1,120.000004577637,8|0,0:0|0:0,0:0:0:0:
389,221,55622,1,8,0:0:0:0:
447,232,55719,1,8,0:0:0:0:
477,180,55816,1,8,0:0:0:0:
437,135,55913,2,0,B|381:161|381:161|301:155,1,120.000004577637,12|0,0:0|0:0,0:0:0:0:
73,166,56204,2,0,B|129:140|129:140|209:146,1,120.000004577637,12|0,0:0|0:0,0:0:0:0:
369,102,56495,2,0,B|295:125|244:77|247:-12|313:-16|348:37|304:64,1,240,10|4,0:0|1:1,0:0:0:0:
296,16,66398,5,4,0:0:0:0:
434,97,66592,2,0,P|371:115|314:86,1,120,0|0,0:0|0:0,0:0:0:0:
218,34,66981,2,0,L|203:122,1,80,6|0,0:0|0:0,0:0:0:0:
199,132,67272,1,0,0:0:0:0:
335,222,67563,5,4,0:0:0:0:
149,202,67757,2,0,P|212:220|268:191,1,120,0|0,0:0|0:0,0:0:0:0:
376,89,68146,2,0,L|391:177,1,80,6|0,0:0|0:0,0:0:0:0:
468,257,68437,2,0,P|476:300|441:338,1,80
377,303,68728,6,0,L|277:313,1,80,4|0,0:0|0:0,0:0:0:0:
187,226,69214,1,0,0:0:0:0:
167,227,69311,2,0,L|67:237,1,80,2|0,0:0|0:0,0:0:0:0:
67,236,69602,1,0,0:0:0:0:
265,369,69796,1,0,0:0:0:0:
267,353,69893,2,0,L|274:273,1,80,4|0,0:0|0:0,0:0:0:0:
195,145,70379,1,0,0:0:0:0:
200,125,70476,2,0,L|207:45,1,80,2|0,0:0|0:0,0:0:0:0:
333,70,70767,2,0,P|371:78|405:59,1,80,10|0,0:0|0:0,0:0:0:0:
493,145,71058,5,4,0:0:0:0:
310,95,71253,2,0,P|366:116|422:98,1,120,0|0,0:0|0:0,0:0:0:0:
459,301,71641,2,0,L|451:221,1,80,6|0,0:0|0:0,0:0:0:0:
446,201,71932,1,0,0:0:0:0:
174,172,72223,1,4,0:0:0:0:
323,276,72418,2,0,P|264:273|217:238,1,120
292,99,72806,2,0,L|300:179,1,80,6|0,0:0|0:0,0:0:0:0:
457,329,73097,2,0,P|476:295|468:257,1,80
290,298,73389,6,0,L|369:290,1,80,4|0,0:0|0:0,0:0:0:0:
41,222,73874,1,0,0:0:0:0:
61,226,73971,2,0,L|161:236,1,80,6|0,0:0|0:0,0:0:0:0:
161,235,74262,1,0,0:0:0:0:
423,128,74456,1,0,0:0:0:0:
403,130,74554,2,0,L|303:140,1,80,4|0,0:0|0:0,0:0:0:0:
176,50,75039,1,0,0:0:0:0:
154,53,75136,2,0,L|54:63,1,80,8|0,0:0|0:0,0:0:0:0:
226,287,75427,2,0,P|199:324|209:383,1,80,8|0,0:0|0:0,0:0:0:0:
410,279,75719,6,0,L|302:259,1,80,6|0,1:0|1:0,0:0:0:0:
22,184,76204,1,0,1:0:0:0:
39,191,76301,2,0,L|117:205,1,80,8|0,1:0|1:0,0:0:0:0:
138,210,76592,1,0,0:0:0:0:
353,208,76787,6,0,B|314:198|314:198|299:212|299:212|276:204,1,83.9999974365235,2|0,1:0|0:0,0:0:0:0:
426,164,77952,5,6,1:0:0:0:
434,181,78049,2,0,L|459:277,1,80,0|0,0:0|1:0,0:0:0:0:
327,67,78340,2,0,P|287:42|234:53,1,80,0|8,0:0|1:0,0:0:0:0:
229,214,78631,2,0,P|269:239|322:228,1,80,8|0,1:0|0:0,0:0:0:0:
320,233,78922,1,0,1:0:0:0:
86,127,79117,6,0,B|109:135|109:135|124:121|124:121|161:130,1,83.9999974365235,2|0,1:0|0:0,0:0:0:0:
208,194,80282,5,0,0:0:0:0:
198,211,80379,2,0,P|242:189|301:200,1,80,4|0,0:0|0:0,0:0:0:0:
495,201,80670,2,0,P|461:225|399:213,1,80,4|0,0:3|0:0,0:0:0:0:
335,258,80961,2,0,L|315:361,1,80,10|0,0:0|0:0,0:0:0:0:
313,355,81253,1,0,0:0:0:0:
341,148,81447,5,0,0:0:0:0:
326,134,81544,2,0,P|282:112|223:123,1,80,4|0,0:0|0:0,0:0:0:0:
42,127,81835,2,0,P|76:151|138:139,1,80,4|0,0:3|0:0,0:0:0:0:
151,0,82126,2,0,L|171:103,1,80,8|0,0:0|0:0,0:0:0:0:
219,314,82418,2,0,L|203:235,1,80
200,215,82709,1,6,0:0:0:0:
345,318,83194,5,0,0:0:0:0:
368,333,83291,1,10,0:0:0:0:
166,318,83777,1,0,0:0:0:0:
143,333,83874,1,4,0:0:0:0:
460,292,84165,1,4,0:3:0:0:
67,223,84456,1,8,0:0:0:0:
454,133,84651,1,0,0:0:0:0:
476,118,84748,1,8,0:0:0:0:
205,42,84942,5,0,0:0:0:0:
147,55,85039,2,0,P|115:105|112:173,1,120.000004577637,6|0,0:0|0:0,0:0:0:0:
383,188,85330,2,0,L|266:161,1,120.000004577637,4|0,0:3|0:0,0:0:0:0:
243,331,85622,2,0,P|239:271|184:244,1,120.000004577637,8|0,0:0|0:0,0:0:0:0:
367,53,85913,2,0,P|309:44|260:76,1,120.000004577637
352,154,86204,2,0,L|472:162,1,120.000004577637,4|0,0:0|0:0,0:0:0:0:
503,212,86495,1,4,0:2:0:0:
350,299,86689,1,0,0:0:0:0:
307,257,86787,2,0,P|255:243|218:314,1,120.000004577637,8|0,0:0|0:0,0:0:0:0:
198,345,87078,1,0,0:0:0:0:
238,63,87272,5,0,0:0:0:0:
256,121,87369,2,0,P|300:157|349:129,1,120.000004577637,6|0,0:0|0:0,0:0:0:0:
463,259,87660,2,0,P|414:231|371:267,1,120.000004577637,4|0,0:3|0:0,0:0:0:0:
192,211,87952,2,0,P|248:220|276:172,1,120.000004577637,8|0,0:0|0:0,0:0:0:0:
489,161,88243,2,0,P|432:162|413:214,1,120.000004577637
140,354,88534,2,0,P|194:333|194:277,1,120.000004577637,4|0,0:0|0:0,0:0:0:0:
182,219,88825,1,0,0:0:0:0:
52,65,89020,1,0,0:0:0:0:
105,94,89117,2,0,P|125:147|83:186,1,120.000004577637,8|0,0:0|0:0,0:0:0:0:
23,182,89408,1,0,0:0:0:0:
200,76,89602,5,0,0:0:0:0:
142,58,89699,2,0,P|83:64|46:109,1,120.000004577637,6|0,0:0|0:0,0:0:0:0:
296,65,89990,2,0,L|429:54,1,120.000004577637,4|0,0:3|0:0,0:0:0:0:
329,190,90282,2,0,P|377:192|427:253,1,120.000004577637,8|0,0:0|0:0,0:0:0:0:
174,245,90573,2,0,L|54:255,1,120.000004577637
30,317,90864,1,4,0:0:0:0:
218,349,91058,1,0,0:0:0:0:
270,320,91155,1,0,0:0:0:0:
252,145,91350,1,0,0:0:0:0:
310,167,91447,2,0,P|364:143|419:164,1,120.000004577637,8|0,0:0|0:0,0:0:0:0:
470,192,91738,1,0,0:0:0:0:
326,84,91932,5,0,0:0:0:0:
273,114,92029,2,0,L|150:100,1,120.000004577637,6|0,0:0|0:0,0:0:0:0:
198,384,92321,2,0,P|159:354|179:281,1,120.000004577637,4|0,0:3|0:0,0:0:0:0:
338,245,92612,2,0,L|458:258,1,120.000004577637,8|0,0:0|0:0,0:0:0:0:
150,66,92903,2,0,P|189:96|169:169,1,120.000004577637
336,149,93194,2,0,L|453:121,1,120.000004577637,4|0,0:0|0:0,0:0:0:0:
212,57,93486,2,0,L|95:85,1,120.000004577637,4|0,0:3|0:0,0:0:0:0:
37,102,93777,1,8,1:0:0:0:
231,235,93971,1,0,0:0:0:0:
277,273,94068,2,0,P|344:269|378:217,1,120.000004577637,8|0,0:0|0:0,0:0:0:0:
304,31,94359,6,0,L|301:158,1,120.000004577637,6|0,0:0|0:0,0:0:0:0:
25,162,94651,2,0,P|68:120|132:113,1,120.000004577637,4|0,0:3|0:0,0:0:0:0:
197,376,94942,2,0,L|200:249,1,120.000004577637,8|0,0:0|0:0,0:0:0:0:
491,283,95233,2,0,P|449:324|384:332,1,120.000004577637
334,162,95524,2,0,P|388:137|447:136,1,120.000004577637,4|0,0:0|0:0,0:0:0:0:
503,160,95816,1,4,0:3:0:0:
257,220,96010,1,0,0:0:0:0:
210,258,96107,2,0,P|151:270|91:265,1,120.000004577637,8|0,0:0|0:0,0:0:0:0:
39,235,96398,1,0,0:0:0:0:
356,265,96592,5,0,0:0:0:0:
415,278,96689,2,0,P|394:224|338:197,1,120.000004577637,6|0,0:0|0:0,0:0:0:0:
33,108,96981,2,0,P|81:76|139:85,1,120.000004577637,4|0,0:2|0:0,0:0:0:0:
160,240,97272,2,0,P|123:286|127:345,1,120.000004577637,8|0,0:0|0:0,0:0:0:0:
473,152,97563,2,0,P|421:127|398:72,1,120.000004577637
53,172,97855,2,0,L|188:154,1,120.000004577637,4|0,0:0|0:0,0:0:0:0:
231,147,98146,1,0,0:0:0:0:
125,275,98340,1,0,0:0:0:0:
179,303,98437,2,0,P|156:356|100:370,1,120.000004577637,8|0,0:0|0:0,0:0:0:0:
323,139,98728,2,0,P|398:131|427:160,1,120.000004577637,8|0,0:0|0:0,0:0:0:0:
454,212,99020,1,6,0:0:0:0:
192,162,99529,5,0,0:0:0:0:
138,134,99602,1,8,0:0:0:0:
420,262,100185,1,4,0:0:0:0:
186,316,100670,1,0,0:0:0:0:
131,339,100767,2,0,P|121:281|147:228,1,120.000004577637,8|0,0:0|0:0,0:0:0:0:
380,50,101058,2,0,P|390:108|364:161,1,120.000004577637,8|0,0:0|0:0,0:0:0:0:
54,87,101350,6,0,L|181:93,1,120.000004577637,14|0,0:0|0:0,0:0:0:0:
233,98,101641,1,12,0:0:0:0:
243,157,101738,1,8,0:0:0:0:
187,179,101835,1,8,0:0:0:0:
155,128,101932,2,0,B|127:184|127:184|139:256,1,120.000004577637,8|0,0:0|0:0,0:0:0:0:
135,306,102223,1,8,0:0:0:0:
77,317,102321,1,8,0:0:0:0:
47,265,102418,1,8,0:0:0:0:
88,221,102515,2,0,B|143:242|143:242|224:241,1,120.000004577637,12|0,0:0|0:0,0:0:0:0:
430,241,102806,2,0,B|375:220|375:220|294:221,1,120.000004577637,4|0,0:0|0:0,0:0:0:0:
154,187,103097,2,0,B|228:210|279:162|276:73|210:69|175:122|219:149,1,240,10|4,0:0|1:0,0:0:0:0:
285,233,113000,6,0,P|330:264|373:263,1,80,4|0,0:0|0:0,0:0:0:0:
358,176,113291,2,0,P|362:121|339:83,1,80
275,142,113583,2,0,P|225:165|205:200,1,80,8|0,0:0|0:0,0:0:0:0:
200,207,113874,1,0,0:0:0:0:
137,347,114068,5,0,0:0:0:0:
154,356,114165,2,0,P|195:340|221:315,1,80
234,214,114456,2,0,P|261:179|296:163,1,80
392,171,114748,2,0,P|433:155|454:124,1,80,10|0,0:0|0:0,0:0:0:0:
452,30,115039,2,0,P|410:46|387:75,1,80
223,196,115330,6,0,P|267:189|297:165,1,80,4|0,0:0|0:0,0:0:0:0:
290,62,115622,2,0,P|262:26|225:11,1,80
149,59,115913,2,0,P|132:100|142:136,1,80,8|0,0:0|0:0,0:0:0:0:
146,157,116204,1,0,0:0:0:0:
266,325,116398,5,0,0:0:0:0:
282,313,116495,2,0,P|298:271|294:234,1,80
201,233,116787,2,0,P|194:188|211:147,1,80
301,143,117078,2,0,P|317:101|311:66,1,80,10|0,0:0|0:0,0:0:0:0:
305,44,117369,1,0,0:0:0:0:
163,94,117660,6,0,L|36:100,1,120,4|0,0:0|0:0,0:0:0:0:
341,185,118243,2,0,L|426:189,1,80,8|0,0:0|0:0,0:0:0:0:
452,226,118534,2,0,L|372:222,1,80
349,94,118825,2,0,L|442:99,1,80
449,101,119117,1,0,0:0:0:0:
171,185,119408,2,0,L|86:189,1,80,10|0,0:0|0:0,0:0:0:0:
60,226,119699,2,0,L|139:222,1,80
368,284,119990,6,0,P|339:311|300:317,1,80,12|0,0:0|0:0,0:0:0:0:
181,295,120282,5,8,0:0:0:0:
148,272,120379,1,8,0:0:0:0:
125,239,120476,1,8,0:0:0:0:
118,199,120573,2,0,P|120:159|144:128,1,80,8|0,0:0|0:0,0:0:0:0:
229,46,120864,1,8,0:0:0:0:
266,31,120961,1,8,0:0:0:0:
306,29,121058,1,8,0:0:0:0:
342,43,121155,2,0,P|373:66|387:103,1,80,8|0,0:0|0:0,0:0:0:0:
392,225,121447,2,0,P|376:264|341:282,1,80,8|0,0:0|0:0,0:0:0:0:
224,279,121738,2,0,B|164:287|114:228|119:161|197:124|247:222|176:208,1,240,10|4,0:0|0:0,0:0:0:0:
291,261,123486,5,4,0:3:0:0:
391,142,124651,2,0,P|442:219|359:299,1,215.999993408203
174,194,126981,1,6,0:0:0:0:
207,128,128146,1,4,0:3:0:0:
335,96,129311,5,4,0:0:0:0:
402,138,129505,1,8,0:0:0:0:
332,177,129699,1,8,0:0:0:0:
355,110,129893,5,6,0:0:0:0:
419,180,130088,1,8,0:0:0:0:
326,203,130282,1,8,0:0:0:0:
385,160,130476,5,4,0:0:0:0:
411,271,130670,1,8,0:0:0:0:
300,240,130864,1,8,0:0:0:0:
449,204,131058,6,0,L|514:200,2,60.0000022888184,6|8|4,0:0|0:0|0:0,0:0:0:0:
243,220,131641,5,14,0:0:0:0:
104,96,132223,1,8,0:0:0:0:
236,269,132806,1,12,0:0:0:0:
441,213,133291,1,0,0:0:0:0:
477,196,133389,1,8,0:0:0:0:
294,142,133680,1,8,0:0:0:0:
118,90,133971,2,0,L|208:117,1,90.0000034332277,14|0,0:0|0:3,0:0:0:0:
384,167,134554,1,8,0:0:0:0:
122,247,134845,2,0,P|221:280|255:207,1,180.000006866455,8|4,0:0|0:3,0:0:0:0:
341,71,135622,1,0,0:0:0:0:
366,54,135719,1,8,0:0:0:0:
168,161,136010,1,8,0:0:0:0:
186,51,136301,5,14,0:0:0:0:
276,209,136592,1,4,0:0:0:0:
154,53,136884,1,8,0:0:0:0:
307,206,137175,1,4,0:0:0:0:
111,47,137466,1,8,0:0:0:0:
335,179,137757,1,4,0:0:0:0:
43,64,138049,1,8,0:0:0:0:
405,162,138340,1,4,0:3:0:0:
215,165,138631,5,14,0:0:0:0:
219,195,138728,1,0,0:0:0:0:
208,223,138825,1,0,0:0:0:0:
185,242,138922,1,12,0:0:0:0:
156,249,139020,1,0,0:0:0:0:
127,242,139117,1,0,0:0:0:0:
105,222,139214,1,8,0:0:0:0:
94,194,139311,1,0,0:0:0:0:
98,164,139408,1,0,0:0:0:0:
116,139,139505,1,8,0:0:0:0:
142,126,139602,1,0,0:0:0:0:
172,126,139699,1,0,0:0:0:0:
199,140,139796,1,14,0:0:0:0:
199,140,140864,5,0,0:0:0:0:
227,148,140961,1,4,0:0:0:0:
427,227,141253,1,4,0:3:0:0:
117,108,141544,1,8,0:0:0:0:
457,236,141738,1,0,0:0:0:0:
485,246,141835,1,8,0:0:0:0:
215,344,142126,6,0,P|247:294|250:226,1,120.000004577637,6|0,0:0|0:0,0:0:0:0:
225,131,142418,2,0,P|284:135|334:167,1,120.000004577637,4|0,0:3|0:0,0:0:0:0:
495,177,142709,2,0,P|438:161|406:112,1,120.000004577637,8|0,0:0|0:0,0:0:0:0:
98,36,143000,2,0,P|149:67|203:37,1,120.000004577637
315,29,143291,2,0,L|276:158,1,120.000004577637,4|0,0:0|0:0,0:0:0:0:
393,313,143583,2,0,P|340:336|291:306,1,120.000004577637,4|0,0:3|0:0,0:0:0:0:
249,262,143874,1,8,0:0:0:0:
497,160,144068,1,0,0:0:0:0:
488,219,144165,2,0,L|477:338,1,120.000004577637
261,293,144456,6,0,P|217:257|168:285,1,120.000004577637,6|0,0:0|0:0,0:0:0:0:
313,180,144748,2,0,P|362:208|405:172,1,120.000004577637,4|0,0:3|0:0,0:0:0:0:
160,210,145039,2,0,P|104:201|76:249,1,120.000004577637,8|0,0:0|0:0,0:0:0:0:
356,245,145330,2,0,P|413:244|432:192,1,120.000004577637
77,178,145622,2,0,P|23:199|23:255,1,120.000004577637,4|0,0:0|0:0,0:0:0:0:
66,295,145913,1,4,0:3:0:0:
312,124,146107,1,0,0:0:0:0:
362,156,146204,2,0,L|481:166,1,120.000004577637,8|0,0:0|0:0,0:0:0:0:
507,220,146495,1,0,0:0:0:0:
228,314,146689,5,0,0:0:0:0:
272,354,146787,2,0,P|320:352|370:291,1,120.000004577637,6|0,0:0|0:0,0:0:0:0:
95,135,147078,2,0,L|82:262,1,120.000004577637,4|0,0:3|0:0,0:0:0:0:
285,141,147369,2,0,P|283:93|222:43,1,120.000004577637,8|0,0:0|0:0,0:0:0:0:
381,206,147660,2,0,L|508:218,1,120.000004577637
504,277,147952,1,4,0:0:0:0:
252,288,148146,1,0,0:0:0:0:
291,333,148243,1,0,0:0:0:0:
185,91,148437,1,0,0:0:0:0:
224,136,148534,1,8,0:0:0:0:
159,300,148728,1,0,0:0:0:0:
104,326,148825,1,0,0:0:0:0:
55,171,149020,5,0,0:0:0:0:
104,137,149117,2,0,L|224:151,1,120.000004577637,6|0,0:0|0:0,0:0:0:0:
389,42,149408,2,0,P|428:72|408:145,1,120.000004577637,4|0,0:3|0:0,0:0:0:0:
487,296,149699,2,0,L|367:283,1,120.000004577637,8|0,0:0|0:0,0:0:0:0:
223,358,149990,2,0,P|184:328|204:255,1,120.000004577637
78,159,150282,2,0,L|197:172,1,120.000004577637,4|0,0:0|0:0,0:0:0:0:
256,180,150573,1,4,0:3:0:0:
450,179,150767,1,0,0:0:0:0:
390,170,150864,2,0,P|347:130|347:72,1,120.000004577637,8|0,0:0|0:0,0:0:0:0:
130,138,151155,2,0,P|174:99|233:99,1,120.000004577637,8|0,0:0|0:0,0:0:0:0:
46,328,151447,6,0,L|49:201,1,120.000004577637,6|0,0:0|0:0,0:0:0:0:
133,301,151738,2,0,P|192:292|234:251,1,120.000004577637,4|0,0:3|0:0,0:0:0:0:
476,133,152029,2,0,L|473:260,1,120.000004577637,8|0,0:0|0:0,0:0:0:0:
376,96,152321,2,0,P|318:105|276:147,1,120.000004577637
375,288,152612,2,0,P|317:278|276:237,1,120.000004577637
238,191,152903,1,4,0:3:0:0:
87,261,153097,1,0,0:0:0:0:
126,218,153194,2,0,P|181:190|239:192,1,120.000004577637,8|0,0:0|0:0,0:0:0:0:
294,210,153486,1,0,0:0:0:0:
216,10,153680,5,0,0:0:0:0:
178,57,153777,2,0,P|199:111|255:138,1,120.000004577637,6|0,0:0|0:0,0:0:0:0:
143,369,154068,2,0,P|164:315|220:288,1,120.000004577637,4|0,0:3|0:0,0:0:0:0:
276,296,154359,1,8,0:0:0:0:
283,28,154554,1,0,0:0:0:0:
340,9,154651,2,0,P|376:54|371:116,1,120.000004577637
481,269,154942,2,0,L|346:287,1,120.000004577637,4|0,0:0|0:0,0:0:0:0:
191,234,155233,2,0,P|220:176|288:174,1,120.000004577637,4|0,0:3|0:0,0:0:0:0:
328,179,155524,1,8,0:0:0:0:
111,285,155719,1,0,0:0:0:0:
65,245,155816,2,0,P|57:170|86:141,1,120.000004577637,8|0,0:0|0:0,0:0:0:0:
140,118,156107,1,6,0:0:0:0:
380,114,156592,5,0,0:0:0:0:
437,98,156689,1,8,0:0:0:0:
271,226,156884,1,4,0:0:0:0:
226,186,156981,2,0,P|171:164|119:190,1,120.000004577637
88,242,157272,1,0,0:0:0:0:
417,341,157466,2,0,L|422:161,1,180.000006866455,4|0,0:3|0:0,0:0:0:0:
424,100,157855,1,8,0:0:0:0:
128,152,158049,2,0,P|101:235|155:303,1,180.000006866455
442,227,158437,6,0,L|315:221,1,120.000004577637,14|0,0:0|0:0,0:0:0:0:
262,218,158728,1,12,0:0:0:0:
239,273,158825,1,8,0:0:0:0:
288,307,158922,1,8,0:0:0:0:
338,273,159020,2,0,B|323:219|323:219|354:145,1,120.000004577637,8|0,0:0|0:0,0:0:0:0:
373,106,159311,1,8,0:0:0:0:
432,114,159408,1,8,0:0:0:0:
447,171,159505,1,8,0:0:0:0:
395,202,159602,6,0,B|352:163|352:163|258:161,1,120.000004577637,12|0,0:0|0:0,0:0:0:0:
75,68,159893,2,0,B|118:107|118:107|212:109,1,120.000004577637,12|0,0:0|0:0,0:0:0:0:
239,97,160185,1,8,0:0:0:0:
297,83,160282,1,8,0:0:0:0:
344,121,160379,1,8,0:0:0:0:
344,181,160476,1,8,0:0:0:0:
297,218,160573,1,8,0:0:0:0:
239,205,160670,1,8,0:0:0:0:
212,151,160767,1,6,0:0:0:0:
256,192,160864,12,4,163097,2:2:0:0:
132,166,164262,6,0,P|132:207|161:243,1,80,4|0,0:0|3:0,0:0:0:0:
380,218,164554,2,0,P|380:177|351:141,1,80,0|0,0:0|3:0,0:0:0:0:
142,134,164845,2,0,P|132:174|151:216,1,80,8|0,0:0|3:0,0:0:0:0:
369,249,165136,2,0,P|379:209|360:167,1,80,0|0,0:0|3:0,0:0:0:0:
103,199,165427,6,0,L|4:205,1,80,4|0,0:0|0:0,0:0:0:0:
121,285,165719,2,0,L|201:281,1,80
405,177,166010,2,0,L|484:172,1,80,8|0,0:0|0:0,0:0:0:0:
333,116,166301,2,0,L|254:121,1,80
312,222,166592,6,0,L|316:301,1,80,4|0,0:0|0:0,0:0:0:0:
409,256,166884,2,0,L|404:176,1,80
103,128,167175,2,0,L|107:207,1,80,8|0,0:0|0:0,0:0:0:0:
200,162,167466,2,0,L|195:82,1,80
205,322,167757,6,0,P|244:328|289:317,1,80,4|0,0:0|0:0,0:0:0:0:
110,254,168049,2,0,P|71:248|26:259,1,80
282,302,168340,2,0,P|243:308|198:297,1,80,8|0,0:0|0:0,0:0:0:0:
377,234,168631,2,0,P|416:228|461:239,1,80
414,318,168922,6,0,L|415:215,1,80,4|0,0:0|0:0,0:0:0:0:
377,52,169214,2,0,L|376:131,1,80
378,151,169505,1,8,0:0:0:0:
125,207,169699,1,0,0:0:0:0:
125,187,169796,2,0,L|130:94,1,80,8|0,0:0|0:0,0:0:0:0:
343,104,170088,6,0,P|332:146|342:183,1,80,4|0,0:0|0:0,0:0:0:0:
231,311,170379,2,0,P|242:273|234:235,1,80
79,269,170670,2,0,L|168:272,1,80,8|0,0:0|0:0,0:0:0:0:
407,283,170961,2,0,L|318:280,1,80
170,184,171253,6,0,P|134:157|89:147,1,80,4|0,0:0|0:0,0:0:0:0:
269,339,171544,2,0,P|305:366|350:376,1,80
285,186,171835,2,0,P|321:159|366:149,1,80,8|0,0:0|0:0,0:0:0:0:
186,341,172126,2,0,P|150:368|105:378,1,80
354,238,172418,6,0,L|443:237,1,80,4|0,0:0|0:0,0:0:0:0:
364,90,172709,2,0,L|309:148,1,80
203,148,173000,2,0,L|147:90,1,80,8|0,0:0|0:0,0:0:0:0:
78,237,173291,2,0,L|158:238,1,80
256,28,173583,6,0,L|256:127,1,80,4|0,0:0|0:0,0:0:0:0:
256,356,173874,2,0,L|256:257,1,80
255,257,174165,1,8,0:0:0:0:
380,127,174359,5,0,0:0:0:0:
357,138,174456,2,0,P|331:170|333:215,1,80,8|0,0:0|0:0,0:0:0:0:
184,232,174748,2,0,P|209:264|208:309,1,80,4|0,0:0|0:0,0:0:0:0:
207,341,175039,1,0,0:0:0:0:
86,303,175233,1,0,0:0:0:0:
125,299,175330,1,8,0:0:0:0:
434,191,175524,1,0,0:0:0:0:
395,195,175622,1,8,0:0:0:0:
243,253,175816,5,0,0:0:0:0:
273,279,175913,2,0,P|305:304|350:303,1,80,6|0,0:0|0:0,0:0:0:0:
381,297,176204,1,4,0:3:0:0:
277,107,176398,1,0,0:0:0:0:
248,80,176495,1,8,0:0:0:0:
431,243,176689,1,0,0:0:0:0:
460,270,176787,1,8,0:0:0:0:
137,283,176981,5,8,0:0:0:0:
175,269,177078,2,0,B|213:260|213:260|254:268,1,80,12|0,0:0|0:0,0:0:0:0:
294,268,177369,1,12,0:0:0:0:
311,303,177466,1,8,0:0:0:0:
282,330,177563,1,8,0:0:0:0:
245,311,177660,2,0,B|232:268|232:268|247:202,1,80,8|0,0:0|0:0,0:0:0:0:
247,193,177952,1,8,0:0:0:0:
284,179,178049,1,8,0:0:0:0:
308,210,178146,1,8,0:0:0:0:
274,231,178243,6,0,B|235:220|235:220|194:231,1,80,14|0,0:0|0:0,0:0:0:0:
20,334,178534,2,0,B|59:345|59:345|100:334,1,80,12|0,0:0|0:0,0:0:0:0:
133,317,178825,1,8,0:0:0:0:
158,85,179020,1,0,0:0:0:0:
164,124,179117,1,8,0:0:0:0:
251,348,179311,1,0,0:0:0:0:
243,309,179408,1,12,0:0:0:0:
85,249,179893,5,6,0:0:0:0:
391,135,180282,1,2,0:0:0:0:
237,237,180573,2,0,P|297:249|348:217,1,120,6|0,0:0|0:0,0:0:0:0:
169,135,181058,1,0,0:0:0:0:
131,120,181155,2,0,P|91:121|54:133,1,80,4|0,0:0|0:0,0:0:0:0:
410,154,181447,2,0,P|449:153|487:140,1,80
354,85,181738,5,4,0:0:0:0:
291,248,181932,2,0,P|281:308|306:393,1,120
48,112,182321,2,0,P|51:156|76:213,1,80,4|0,0:0|0:0,0:0:0:0:
224,68,182612,2,0,P|204:107|196:169,1,80,4|0,0:0|0:0,0:0:0:0:
333,159,182903,2,0,B|349:279|471:320|569:203|455:98|364:158|358:220|455:219,1,360.000013732911,6|4,0:0|1:0,0:0:0:0:
