osu file format v14

[General]
AudioFilename: audio.mp3
AudioLeadIn: 0
PreviewTime: 141529
Countdown: 0
SampleSet: Normal
StackLeniency: 0.3
Mode: 0
LetterboxInBreaks: 0
EpilepsyWarning: 1
WidescreenStoryboard: 1

[Editor]
DistanceSpacing: 0.6
BeatDivisor: 3
GridSize: 8
TimelineZoom: 2.599999

[Metadata]
Title:Aun no Beats
TitleUnicode:阿吽のビーツ
Artist:isubokuro
ArtistUnicode:いすぼくろ
Creator:Beren
Version:buhei's Extra
Source:
Tags:cover lobelia buhei SUNRISE vivicat japanese novelty utaite v flower 羽生まゐご 羽生迷子 maigo hanyuu
BeatmapID:2425703
BeatmapSetID:1153984

[Difficulty]
HPDrainRate:6
CircleSize:4.2
OverallDifficulty:8.5
ApproachRate:9.3
SliderMultiplier:1.6
SliderTickRate:1

[Events]
//Background and Video events
0,0,"IMG_9841(20200419-094607).jpg",0,0
//Break Periods
2,57078,63417
//Storyboard Layer 0 (Background)
//Storyboard Layer 1 (Fail)
//Storyboard Layer 2 (Pass)
//Storyboard Layer 3 (Foreground)
Sprite,Foreground,Centre,"SB\bg.jpg",320,240 F,0,559,1141,0,1 S,0,1141,,0.6944515 F,0,1141,10170,1
Sprite,Foreground,Centre,"SB\bg.jpg",320,240 F,0,160753,181238,1
Sprite,Foreground,Centre,"SB\IMG_9830(20200419-094321).JPG",320,240 M,0,9879,,295.2258,247.4322 S,0,9879,,0.513 F,0,9879,10170,0,1 F,0,10170,,1 M,0,19782,19976,295.2258,249.0838,-630.5033,249.0838
Sprite,Foreground,Centre,"SB\1.JPG",320,240 S,0,19782,,0.6118709 M,0,19782,19976,1266.374,325.058,346.6242,325.058 M,0,19976,38423,346.6242,325.058,286.9678,325.058 F,0,38423,,1 M,0,38423,38617,286.9678,325.058,-570.2194,326.7097
Sprite,Foreground,Centre,"SB\1.png",320,240 M,0,1141,,295.2258,291.2 F,0,1141,1432,1,0 S,0,1141,1432,1,1.057
Sprite,Foreground,Centre,"SB\1.png",320,240 M,0,1432,,295.2258,291.2 F,0,1432,1723,1,0 S,0,1432,1723,1,1.057
Sprite,Foreground,Centre,"SB\1.png",320,240 M,0,3471,,295.2258,291.2 F,0,3471,3762,1,0 S,0,3471,3762,1,1.057
Sprite,Foreground,Centre,"SB\1.png",320,240 M,0,3762,,295.2258,291.2 F,0,3762,4053,1,0 S,0,3762,4053,1,1.057
Sprite,Foreground,Centre,"SB\1.png",320,240 M,0,5801,,295.2258,291.2 F,0,5801,6092,1,0 S,0,5801,6092,1,1.057
Sprite,Foreground,Centre,"SB\1.png",320,240 M,0,6092,,295.2258,291.2 F,0,6092,6383,1,0 S,0,6092,6383,1,1.057
Sprite,Foreground,Centre,"SB\1.png",320,240 M,0,8325,,295.2258,291.2 F,0,8325,8520,1,0 S,0,8325,8520,1,1.057
Sprite,Foreground,Centre,"SB\1.png",320,240 M,0,8131,,295.2258,291.2 F,0,8131,8326,1,0 S,0,8131,8326,1,1.057
Sprite,Foreground,Centre,"SB\1.png",320,240 M,0,8520,,295.2258,291.2 F,0,8520,8715,1,0 S,0,8520,8715,1,1.057
Sprite,Foreground,Centre,"SB\1.png",320,240 M,0,8714,,295.2258,291.2 F,0,8714,8909,1,0 S,0,8714,8909,1,1.057
Sprite,Foreground,Centre,"SB\1.png",320,240 M,0,8908,,295.2258,291.2 F,0,8908,9103,1,0 S,0,8908,9103,1,1.057
Sprite,Foreground,Centre,"SB\1.png",320,240 M,0,9102,,295.2258,291.2 F,0,9102,9297,1,0 S,0,9102,9297,1,1.057
Sprite,Foreground,Centre,"SB\1.png",320,240 M,0,9296,,295.2258,291.2 F,0,9296,9491,1,0 S,0,9296,9491,1,1.057
Sprite,Foreground,Centre,"SB\1.png",320,240 M,0,9491,,295.2258,291.2 F,0,9491,9686,1,0 S,0,9491,9686,1,1.057
Sprite,Foreground,Centre,"SB\1.png",320,240 M,0,9685,,295.2258,291.2 F,0,9685,9880,1,0 S,0,9685,9880,1,1.057
Sprite,Foreground,Centre,"SB\1.png",320,240 M,0,9879,,295.2258,291.2 F,0,9879,10074,1,0 S,0,9879,10074,1,1.057
Sprite,Foreground,Centre,"SB\1.png",320,240 M,0,17452,,408.3613,233.3936 F,0,17452,17647,1,0 S,0,17452,17647,1,1.057
Sprite,Foreground,Centre,"SB\1.png",320,240 M,0,17646,,408.3613,233.3936 F,0,17646,17841,1,0 S,0,17646,17841,1,1.057
Sprite,Foreground,Centre,"SB\1.png",320,240 M,0,17840,,408.3613,233.3936 F,0,17840,18035,1,0 S,0,17840,18035,1,1.057
Sprite,Foreground,Centre,"SB\1.png",320,240 M,0,18034,,408.3613,233.3936 F,0,18034,18229,1,0 S,0,18034,18229,1,1.057
Sprite,Foreground,Centre,"SB\1.png",320,240 M,0,18228,,408.3613,233.3936 F,0,18228,18423,1,0 S,0,18228,18423,1,1.057
Sprite,Foreground,Centre,"SB\1.png",320,240 M,0,18423,,408.3613,233.3936 F,0,18423,18618,1,0 S,0,18423,18618,1,1.057
Sprite,Foreground,Centre,"SB\1.png",320,240 M,0,18617,,408.3613,233.3936 F,0,18617,18812,1,0 S,0,18617,18812,1,1.057
Sprite,Foreground,Centre,"SB\1.png",320,240 M,0,18811,,408.3613,233.3936 F,0,18811,19006,1,0 S,0,18811,19006,1,1.057
Sprite,Foreground,Centre,"SB\1.png",320,240 M,0,19005,,408.3613,233.3936 F,0,19005,19200,1,0 S,0,19005,19200,1,1.057
Sprite,Foreground,Centre,"SB\1.png",320,240 M,0,19199,,408.3613,233.3936 F,0,19199,19394,1,0 S,0,19199,19394,1,1.057
Sprite,Foreground,Centre,"SB\1.png",320,240 M,0,19393,,408.3613,233.3936 F,0,19393,19588,1,0 S,0,19393,19588,1,1.057
Sprite,Foreground,Centre,"SB\1.png",320,240 M,0,19588,,408.3613,233.3936 F,0,19588,19783,1,0 S,0,19588,19783,1,1.057
Sprite,Foreground,Centre,"SB\4.JPG",320,240 M,0,66384,66578,1237.471,372.9548,335.6903,375.4323 M,0,66578,,335.6903,375.4323 S,0,66578,,0.5045162 M,0,66578,85025,335.6903,375.4323,285.3161,374.6064 F,0,85025,,1 M,0,85025,85219,285.3161,374.6064,-596.6451,373.7806
Sprite,Foreground,Centre,"SB\8.JPG",320,240 F,0,122306,,1 M,0,122306,122500,1246.555,318.4516,335.6904,320.929 S,0,122500,,0.5292903 M,0,122500,142112,335.6904,320.929,272.1033,321.7548 M,0,142112,142306,272.1033,321.7548,-612.3354,321.7548
Sprite,Foreground,Centre,"SB\1.png",320,240 R,0,1141,,0 F,0,1141,1238,0,1 F,0,1238,9879,1 M,0,8423,,295.2258,291.2 F,0,9879,10170,1,0 M,0,17452,,408.3613,233.3936 F,0,17452,19782,1
Sprite,Foreground,Centre,"SB\2.png",320,240 M,0,17452,17646,435.6129,185.4968
Sprite,Foreground,Centre,"SB\3.png",320,240 M,0,17646,17840,435.6129,186.3226
Sprite,Foreground,Centre,"SB\4.png",320,240 M,0,17840,18034,437.2645,184.671
Sprite,Foreground,Centre,"SB\5.png",320,240 M,0,18034,18228,436.4388,184.671
Sprite,Foreground,Centre,"SB\6.png",320,240 M,0,18228,18423,435.6129,183.8452
Sprite,Foreground,Centre,"SB\7.png",320,240 M,0,18423,18617,435.6129,181.3678
Sprite,Foreground,Centre,"SB\8.png",320,240 M,0,18617,18811,434.7871,181.3678
Sprite,Foreground,Centre,"SB\9.png",320,240 M,0,18811,19005,433.9613,180.542
Sprite,Foreground,Centre,"SB\11.png",320,240 M,0,19005,19199,433.1355,180.5419
Sprite,Foreground,Centre,"SB\12.png",320,240 M,0,19199,19393,433.1355,183.0193
Sprite,Foreground,Centre,"SB\13.png",320,240 M,0,19393,19588,430,182 S,0,19491,,0.727
Sprite,Foreground,Centre,"SB\14.png",320,240 S,0,19588,,0.727 M,0,19588,19782,430,182
Sprite,Foreground,Centre,"SB\15.png",320,240 F,0,1141,1238,0,1 F,0,1238,3180,1 F,0,3180,3471,1,0
Sprite,Foreground,Centre,"SB\16.png",320,240 F,0,3471,3568,0,1 F,0,3568,5219,1 F,0,5219,5510,1,0
Sprite,Foreground,Centre,"SB\74.png",320,240 F,0,5801,5898,0,1 F,0,5898,7840,1 F,0,7840,8131,1,0
Sprite,Foreground,Centre,"SB\IMG_9830(20200419-094321).JPG",320,240 M,0,10461,,295.2258,247.4322 F,0,10461,10753,1,0 S,0,10461,10753,0.513,0.525
Sprite,Foreground,Centre,"SB\IMG_9830(20200419-094321).JPG",320,240 M,0,10753,,295.2258,247.4322 F,0,10753,11045,1,0 S,0,10753,11045,0.513,0.525
Sprite,Foreground,Centre,"SB\IMG_9830(20200419-094321).JPG",320,240 M,0,12792,,295.2258,247.4322 F,0,12792,13084,1,0 S,0,12792,13084,0.513,0.525
Sprite,Foreground,Centre,"SB\IMG_9830(20200419-094321).JPG",320,240 M,0,13083,,295.2258,247.4322 F,0,13083,13375,1,0 S,0,13083,13375,0.513,0.525
Sprite,Foreground,Centre,"SB\IMG_9830(20200419-094321).JPG",320,240 M,0,15122,,295.2258,247.4322 F,0,15122,15414,1,0 S,0,15122,15414,0.513,0.525
Sprite,Foreground,Centre,"SB\IMG_9830(20200419-094321).JPG",320,240 M,0,15413,,295.2258,247.4322 F,0,15413,15705,1,0 S,0,15413,15705,0.513,0.525
Sprite,Foreground,Centre,"SB\2.png",320,240 F,0,8131,8325,1
Sprite,Foreground,Centre,"SB\4.png",320,240 F,0,8520,8714,1
Sprite,Foreground,Centre,"SB\6.png",320,240 F,0,8908,9102,1
Sprite,Foreground,Centre,"SB\7.png",320,240 F,0,9102,9296,1
Sprite,Foreground,Centre,"SB\9.png",320,240 F,0,9491,9685,1
Sprite,Foreground,Centre,"SB\11.png",320,240 F,0,9685,9879,1
Sprite,Foreground,Centre,"SB\12.png",320,240 F,0,9879,10170,1,0
Sprite,Foreground,Centre,"SB\3.JPG",320,240 M,0,93762,93957,1259.342,244.129,314.6189,244.9548 M,0,93957,103083,314.6189,244.9548,274.1544,244.129 S,0,94054,,0.5127741 M,0,103083,103277,274.1544,244.129,-625.9746,243.3032
Sprite,Foreground,Centre,"IMG_9841(20200419-094607).jpg",320,240 M,0,142112,142306,1270.503,262.2968,381.9355,256.5161 S,0,142306,,0.5045161 M,0,142306,163665,381.9355,256.5161,270.4516,257.3419 F,0,160753,163665,1,0
Sprite,Foreground,Centre,"SB\9.jpg",320,240 M,0,56481,56675,1234.994,274.6839,320.0001,273.8581 S,0,56675,,0.4054193 M,0,56675,66384,320.0001,273.8581,282.013,273.0323 F,0,66384,,1 M,0,66384,66578,282.013,273.0323,-588.3871,273.0323
Sprite,Foreground,Centre,"SB\11.JPG",320,240 M,0,103083,103277,1247.38,295.329,342.2968,298.6323 S,0,103277,,0.5127742 M,0,103277,112986,342.2968,298.6323,309.2645,299.4581 M,0,112986,113180,309.2645,299.4581,-605.7291,299.4581
Sprite,Foreground,Centre,"SB\6.jpg",320,240 M,0,112986,113180,1251.51,245.7806,348.0774,246.6064 M,0,113180,122306,348.0774,246.6064,311.7419,247.4323 S,0,113568,,0.4962581 M,0,122306,122500,311.7419,247.4323,-590.0387,249.9097
Sprite,Foreground,Centre,"SB\7.jpg",320,240 S,0,38423,,0.4962581 M,0,38423,38617,1238.607,241.2482,340.955,238.7708 M,0,38617,47160,340.955,238.7708,295.5357,239.5966 M,0,47160,47355,295.5357,239.5966,-550.9159,241.2482
Sprite,Foreground,Centre,"SB\2.jpg",320,240 M,0,47160,47355,1255.152,304.4786,357.5,302.0012 S,0,47355,,0.5127742 M,0,47355,56481,357.5,302.0012,303.8226,302.0012 M,0,56481,56675,303.8226,302.0012,-574.8355,302.0012
Sprite,Foreground,Centre,"SB\12.jpg",320,240 M,0,85025,85219,1252.059,285.4377,322.2012,286.2635 S,0,85219,,0.4384515 M,0,85219,93762,322.2012,286.2635,289.9948,287.9151 M,0,93762,93957,289.9948,287.9151,-660.5047,287.9149
Sprite,Foreground,Centre,"SB\19.png",320,240 F,0,19782,19879,0,1 F,0,19879,21626,1 M,0,19976,,167.2258,381.213 F,0,21626,21821,1,0
Sprite,Foreground,Centre,"SB\21.png",320,240 F,0,22015,22112,0,1 F,0,22112,23859,1 M,0,22694,,464.5161,332.4903 F,0,23859,24054,1,0
Sprite,Foreground,Centre,"SB\22.png",320,240 F,0,24345,24442,0,1 F,0,24442,28228,1 M,0,25025,,157.3161,226.7871 F,0,28228,28423,1,0.02141937
Sprite,Foreground,Centre,"SB\23.png",320,240 F,0,29102,29199,0.009032135,1 F,0,29199,30947,1 M,0,29685,,152.3613,391.1226 F,0,30947,31141,1,0
Sprite,Foreground,Centre,"SB\24.png",320,240 F,0,31432,31529,0,1 F,0,31529,33180,1 M,0,31724,,485.9871,303.5871 F,0,33180,33374,1,0
Sprite,Foreground,Centre,"SB\25.png",320,240 F,0,33665,33762,0.04619354,1 F,0,33762,36675,1 F,0,36675,36869,1,0
Sprite,Foreground,Centre,"SB\1.png",320,240 M,0,37743,,70.60646,369.6516 S,0,37743,,0.7770321 F,0,38423,,1
Sprite,Foreground,Centre,"SB\4.png",320,240 M,0,37743,37937,86.29679,330.0129
Sprite,Foreground,Centre,"SB\3.png",320,240 M,0,37937,38131,87.9484,334.9677
Sprite,Foreground,Centre,"SB\26.png",320,240 M,0,38131,38423,87.94839,333.3161
Sprite,Foreground,Centre,"SB\27.png",320,240 F,0,38423,38520,0.000774231,1 F,0,38520,40461,1 M,0,38714,,208.5161,214.4 F,0,40461,40656,1,0.004903183
Sprite,Foreground,Centre,"SB\28.png",320,240 F,0,40753,40850,0,1 F,0,40850,42792,1 M,0,41335,,144.1033,383.6903 F,0,42792,42986,1,0.004903183
Sprite,Foreground,Centre,"SB\29.png",320,240 F,0,43083,43180,0,1 F,0,43180,43957,1 M,0,43665,,545.4452,214.4 F,0,43957,44151,1,0
Sprite,Foreground,Centre,"SB\31.png",320,240 F,0,44248,44345,0,1 F,0,44345,44830,1 M,0,44539,,87.94839,218.529 F,0,44830,45025,1,0
Sprite,Foreground,Centre,"SB\32.png",320,240 F,0,45316,45413,0,1 F,0,45413,46869,1 M,0,45704,,530.5807,215.2258 F,0,46869,47063,1,0
Sprite,Foreground,Centre,"SB\1.png",320,240 F,0,47160,47258,0,1 F,0,47258,47549,1 M,0,47549,,73.90966,362.2194 S,0,47549,,0.7027097 F,0,47549,47743,1,0
Sprite,Foreground,Centre,"SB\33.png",320,240 F,0,47160,47258,0,1 F,0,47258,47549,1 M,0,47549,,88.77418,325.8839 F,0,47549,47743,1,0
Sprite,Foreground,Centre,"SB\34.png",320,240 F,0,47743,47840,0,1 F,0,47840,49491,1 M,0,48034,,243.2,104.5677 F,0,49491,49685,1,0
Sprite,Foreground,Centre,"SB\35.png",320,240 F,0,49976,50073,0,1 F,0,50073,52112,1 M,0,50364,,458.7355,337.4452 F,0,52112,52306,1,0
Sprite,Foreground,Centre,"SB\1.png",320,240 F,0,53180,53277,0,1 F,0,53277,56190,1 M,0,53859,,59.04514,344.8774 F,0,56190,56481,1,0
Sprite,Foreground,Centre,"SB\36.png",320,240 F,0,53180,53277,0,1 F,0,53277,53859,1 M,0,53859,,84.64516,301.9354 F,0,53859,54054,1,0
Sprite,Foreground,Centre,"SB\37.png",320,240 F,0,54151,54248,0,1 F,0,54248,56190,1 M,0,54345,,86.29677,299.4581 F,0,56190,56481,1,0
Sprite,Foreground,Centre,"SB\1.png",320,240 M,0,64054,,483.5097,257.342 F,0,66384,,1
Sprite,Foreground,Centre,"SB\1.png",320,240 M,0,64054,,483.5097,257.342 F,0,64054,64249,1,0 S,0,64054,64249,1,1.057
Sprite,Foreground,Centre,"SB\1.png",320,240 M,0,64248,,483.5097,257.342 F,0,64248,64443,1,0 S,0,64248,64443,1,1.057
Sprite,Foreground,Centre,"SB\1.png",320,240 M,0,64442,,483.5097,257.342 F,0,64442,64637,1,0 S,0,64442,64637,1,1.057
Sprite,Foreground,Centre,"SB\1.png",320,240 M,0,64636,,483.5097,257.342 F,0,64636,64831,1,0 S,0,64636,64831,1,1.057
Sprite,Foreground,Centre,"SB\1.png",320,240 M,0,64830,,483.5097,257.342 F,0,64830,65025,1,0 S,0,64830,65025,1,1.057
Sprite,Foreground,Centre,"SB\1.png",320,240 M,0,65025,,483.5097,257.342 F,0,65025,65220,1,0 S,0,65025,65220,1,1.057
Sprite,Foreground,Centre,"SB\1.png",320,240 M,0,65219,,483.5097,257.342 F,0,65219,65414,1,0 S,0,65219,65414,1,1.057
Sprite,Foreground,Centre,"SB\1.png",320,240 M,0,65413,,483.5097,257.342 F,0,65413,65608,1,0 S,0,65413,65608,1,1.057
Sprite,Foreground,Centre,"SB\1.png",320,240 M,0,65607,,483.5097,257.342 F,0,65607,65802,1,0 S,0,65607,65802,1,1.057
Sprite,Foreground,Centre,"SB\1.png",320,240 M,0,65801,,483.5097,257.342 F,0,65801,65996,1,0 S,0,65801,65996,1,1.057
Sprite,Foreground,Centre,"SB\1.png",320,240 M,0,65995,,483.5097,257.342 F,0,65995,66190,1,0 S,0,65995,66190,1,1.057
Sprite,Foreground,Centre,"SB\1.png",320,240 M,0,66190,,483.5097,257.342 F,0,66190,66385,1,0 S,0,66190,66385,1,1.057
Sprite,Foreground,Centre,"SB\2.png",320,240 M,0,64054,64248,508.2839,208.6194
Sprite,Foreground,Centre,"SB\3.png",320,240 M,0,64248,64442,508.2839,208.6194
Sprite,Foreground,Centre,"SB\4.png",320,240 M,0,64442,64636,509.1097,209.4452
Sprite,Foreground,Centre,"SB\5.png",320,240 M,0,64636,64830,508.2838,209.4452
Sprite,Foreground,Centre,"SB\6.png",320,240 M,0,64830,65025,507.4581,209.4452
Sprite,Foreground,Centre,"SB\7.png",320,240 M,0,65025,65219,507.4581,208.6194
Sprite,Foreground,Centre,"SB\8.png",320,240 M,0,65219,65413,505.8065,208.6194
Sprite,Foreground,Centre,"SB\9.png",320,240 M,0,65413,65607,506.6323,208.6194
Sprite,Foreground,Centre,"SB\11.png",320,240 M,0,65607,65801,506.6323,208.6194
Sprite,Foreground,Centre,"SB\12.png",320,240 M,0,65801,65995,506.6323,210.271
Sprite,Foreground,Centre,"SB\13.png",320,240 M,0,65995,66190,505,206 S,0,66190,,0.727
Sprite,Foreground,Centre,"SB\14.png",320,240 M,0,66190,66384,505,206 S,0,66384,,0.727
Sprite,Foreground,Centre,"SB\5.png",320,240 M,0,8714,8908,320,240
Sprite,Foreground,Centre,"SB\3.png",320,240 M,0,8325,8520,320,240
Sprite,Foreground,Centre,"SB\8.png",320,240 M,0,9296,9491,320,240
Sprite,Foreground,Centre,"SB\bg.jpg",320,240 S,0,76772,,0.6531613 F,0,76772,76869,0,1 F,0,76869,77743,1 F,0,77743,77937,1,0
Sprite,Foreground,Centre,"SB\bg.jpg",320,240 M,0,79102,,320,240 F,0,79102,79199,0,1 F,0,79199,80073,1 F,0,80073,80267,1,0
Sprite,Foreground,Centre,"SB\38.png",320,240 F,0,66384,66481,0,1 F,0,66481,69588,1 M,0,66578,,462.0387,254.8645 F,0,69588,69782,1,0
Sprite,Foreground,Centre,"SB\39.png",320,240 M,0,71044,,55.74194,253.2129 F,0,71044,71141,0,1 F,0,71141,73957,1 F,0,73957,74151,1,0
Sprite,Foreground,Centre,"SB\41.png",320,240 M,0,75122,,532.2323,325.8839 F,0,75122,75219,0.05445145,1 F,0,75219,76578,1 F,0,76578,76772,1,0
Sprite,Foreground,Centre,"SB\42.png",320,240 F,0,76772,76869,0,1 F,0,76869,77355,1 F,0,77355,77452,1,0
Sprite,Foreground,Centre,"SB\43.png",320,240 M,0,77937,,116.0258,168.1548 F,0,77937,78034,0,1 F,0,78034,78908,1 F,0,78908,79102,1,0
Sprite,Foreground,Centre,"SB\1.png",320,240 F,0,79102,79199,0,1 F,0,79199,79782,1 M,0,79491,,295.2258,290.3742 F,0,79782,79976,1,0
Sprite,Foreground,Centre,"SB\44.png",320,240 F,0,79102,79199,0,1 F,0,79199,79782,1 F,0,79782,79976,1,0
Sprite,Foreground,Centre,"SB\45.png",320,240 M,0,80267,,353.0323,268.0774 S,0,80267,,0.603613 F,0,80267,80364,0,1 F,0,80364,83568,1 F,0,83568,83762,1,0
Sprite,Foreground,Centre,"SB\4.png",320,240 S,0,84345,,0.8100644 M,0,84345,84539,545.4452,132.6452
Sprite,Foreground,Centre,"SB\3.png",320,240 S,0,84539,,0.7274841 M,0,84539,84733,543.7936,133.4709
Sprite,Foreground,Centre,"SB\46.png",320,240 S,0,84733,,0.6944513 M,0,84733,85025,538.0129,133.471
Sprite,Foreground,Centre,"SB\47.png",320,240 F,0,85025,85122,0,1 F,0,85122,87063,1 M,0,85219,,492.5936,342.4 F,0,87063,87258,1,0
Sprite,Foreground,Centre,"SB\48.png",320,240 M,0,87355,,163.0968,133.471 F,0,87355,87452,0,1 F,0,87452,89393,1 F,0,89393,89588,1,0
Sprite,Foreground,Centre,"SB\49.png",320,240 F,0,89685,89782,0,1 M,0,89782,,538.8387,177.2387 F,0,89782,90558,1 F,0,90558,90753,1,0
Sprite,Foreground,Centre,"SB\51.png",320,240 M,0,90850,,44.18063,322.5806 F,0,90850,90947,0,1 F,0,90947,91432,1 F,0,91432,91626,1,0
Sprite,Foreground,Centre,"SB\52.png",320,240 M,0,91918,,510.7613,216.8774 S,0,91918,,0.7605162 F,0,91918,92015,0,1 F,0,92015,93471,1 F,0,93471,93665,1,0
Sprite,Foreground,Centre,"SB\1.png",320,240 F,0,93762,93859,0,1 F,0,93859,94054,1 M,0,93957,,6.193552,381.213 S,0,93957,,0.5870969 F,0,94054,94248,1,0
Sprite,Foreground,Centre,"SB\33.png",320,240 F,0,93762,93859,0.0007740784,1 F,0,93859,94054,1 M,0,93957,,19.40644,349.8322 F,0,94054,94248,1,0
Sprite,Foreground,Centre,"SB\53.png",320,240 M,0,94345,,445.5226,273.0323 F,0,94345,94442,0,1 F,0,94442,96384,1 F,0,96384,96578,1,0
Sprite,Foreground,Centre,"SB\54.png",320,240 F,0,96675,96772,0,1 F,0,96772,98714,1 M,0,96966,,132.5419,390.2968 F,0,98714,98908,1,0
Sprite,Foreground,Centre,"SB\1.png",320,240 F,0,99879,99976,0,1 M,0,99976,,503.329,289.5485 F,0,99976,102792,1 F,0,102792,103083,1,0
Sprite,Foreground,Centre,"SB\36.png",320,240 F,0,99879,99976,0,1 M,0,99976,,528.1033,248.2581 F,0,99976,100461,1 F,0,100461,100656,1,0
Sprite,Foreground,Centre,"SB\55.png",320,240 F,0,100753,100850,0,1 F,0,100850,102792,1 M,0,101044,,530.5807,237.5226 S,0,101044,,0.9009032 F,0,102792,103083,1,0
Sprite,Foreground,Centre,"SB\heart.png",320,240 F,0,122306,122403,0,0.8 F,0,122403,125801,0.8,1 M,0,122597,,113.5484,378.7355 S,0,122597,,1.132129 R,0,122597,,-0.2807739 F,0,125801,125995,1,0
Sprite,Foreground,Centre,"SB\56.png",320,240 F,0,122306,122403,0,1 F,0,122403,125801,1 M,0,123180,,113.5484,244.9548 S,0,123180,,0.7522584 F,0,125801,125995,1,0
Sprite,Foreground,Centre,"SB\57.png",320,240 M,0,126092,,611.5097,145.858 S,0,126092,,0.8183226 F,0,126092,126190,0,1 F,0,126190,127840,1 F,0,127840,128034,1,0
Sprite,Foreground,Centre,"SB\58.png",320,240 M,0,128423,,99.50968,187.9742 S,0,128423,,0.7027097 F,0,128423,128520,0,1 F,0,128520,130461,1 F,0,130461,130656,1,0
Sprite,Foreground,Centre,"SB\59.png",320,240 M,0,131626,,602.4258,220.1806 S,0,131626,,0.6201291 F,0,131626,131724,0,1 F,0,131724,135122,1 F,0,135122,135316,1,0
Sprite,Foreground,Centre,"SB\61.png",320,240 M,0,135413,,51.61292,206.1419 S,0,135413,,0.5045161 F,0,135413,135510,0,1 F,0,135510,138908,1 F,0,138908,139102,1,0
Sprite,Foreground,Centre,"SB\1.png",320,240 F,0,141529,141626,0,1 F,0,141626,141821,1 M,0,141821,,69.78064,180.542 S,0,141821,,0.4632259 F,0,141821,142112,1,0
Sprite,Foreground,Centre,"SB\62.png",320,240 F,0,141529,141626,0,1 F,0,141626,141821,1 M,0,141821,,79.69034,155.7677 F,0,141821,142112,1,0
Sprite,Foreground,Centre,"SB\63.png",320,240 F,0,142112,142209,0,1 F,0,142209,146481,1 M,0,142403,,192,372.9548 F,0,146481,146675,1,0
Sprite,Foreground,Centre,"SB\29.png",320,240 M,0,146772,,92.90324,268.0774 F,0,146772,146869,0,1 F,0,146869,147646,1 F,0,147646,147840,1,0
Sprite,Foreground,Centre,"SB\64.png",320,240 M,0,147937,,591.6903,283.7678 F,0,147937,148034,0,1 F,0,148034,148520,1 F,0,148520,148714,1,0
Sprite,Foreground,Centre,"SB\65.png",320,240 F,0,149005,149102,0,1 M,0,149102,,78.03871,261.4709 F,0,149102,150558,1 F,0,150558,150753,1,0
Sprite,Foreground,Centre,"SB\1.png",320,240 M,0,150850,,548.7484,321.7549 S,0,150850,,0.6036127 F,0,150850,150947,0,1 F,0,150947,151141,1 F,0,151141,151432,1,0
Sprite,Foreground,Centre,"SB\33.png",320,240 F,0,150850,150947,0,1 F,0,150947,151141,1 M,0,151141,,562.7871,289.5484 F,0,151141,151432,1,0
Sprite,Foreground,Centre,"SB\34.png",320,240 F,0,151432,151529,0.03380631,1 F,0,151529,153180,1 M,0,152015,,165.5742,398.5548 F,0,153180,153374,1,0
Sprite,Foreground,Centre,"SB\66.png",320,240 M,0,153665,,462.0387,349.0065 F,0,153665,153762,0,1 F,0,153762,155801,1 F,0,155801,155995,1,0
Sprite,Foreground,Centre,"SB\1.png",320,240 F,0,156869,156966,0,1 F,0,156966,157549,1 M,0,157549,,484.3355,265.6 S,0,157549,,0.7935482 F,0,157549,157743,1,0
Sprite,Foreground,Centre,"SB\67.png",320,240 F,0,156869,156966,0,1 F,0,156966,157549,1 M,0,157549,,505.8065,225.1355 F,0,157549,157743,1,0
Sprite,Foreground,Centre,"SB\68.png",320,240 M,0,157840,,192,372.1291 F,0,157840,157937,0,1 F,0,157937,160753,1 F,0,160753,163374,1,0
Sprite,Foreground,Centre,"SB\69.png",320,240 M,0,165413,,320,240 F,0,165413,165510,0,1 F,0,165510,169782,1 F,0,169782,169976,1,0
Sprite,Foreground,Centre,"SB\1.png",320,240 F,0,174345,174442,0,1 F,0,174442,177646,1 F,0,177646,177840,1,0 M,0,177840,,296.0516,293.6774
Sprite,Foreground,Centre,"SB\bg.jpg",320,240 F,0,182889,184054,1 F,0,184054,184636,1,0
Sprite,Foreground,Centre,"SB\67.png",320,240 F,0,174345,174442,0,1 F,0,174442,177646,1 F,0,177646,177840,1,0
Sprite,Foreground,Centre,"SB\14.jpg",320,240 F,0,181141,181238,0,1 M,0,181141,183083,342.0452,268.0737,337.0082,267.9996 F,0,181238,182889,1 S,0,181432,,0.488 F,0,182889,183083,1,0
Sprite,Foreground,Centre,"SB\71.png",320,240 F,0,181141,181238,0,1 M,0,181238,,133.3678,257.3419 F,0,181238,182889,1 F,0,182889,183083,1,0
Sprite,Foreground,Centre,"SB\1111.png",320,240 F,0,1141,1238,0,1 S,0,1238,,0.4797419 F,0,1238,141529,1 F,0,141529,,1 F,0,141529,184054,1 F,0,184054,184636,1,0
Sprite,Foreground,Centre,"SB\72.png",320,240 F,0,182889,183083,0,1 F,0,183083,184054,1 F,0,184054,184636,1,0
//Storyboard Layer 4 (Overlay)
//Storyboard Sound Samples

[TimingPoints]
1156,291.26213592233,4,2,1,50,1,0
1156,-166.666666666667,4,2,1,50,0,0
1737,-166.666666666667,4,2,3,50,0,0
2902,-166.666666666667,4,2,2,50,0,0
3485,-166.666666666667,4,2,1,50,0,0
4067,-166.666666666667,4,2,3,50,0,0
5232,-166.666666666667,4,2,2,50,0,0
6397,-166.666666666667,4,2,3,50,0,0
7562,-166.666666666667,4,2,2,50,0,0
8145,-166.666666666667,4,2,1,50,0,0
9892,-83.3333333333333,4,2,1,50,0,0
10184,-166.666666666667,4,2,1,50,0,0
10475,-100,4,2,1,50,0,0
20864,-83.3333333333333,4,2,1,50,0,0
21154,-100,4,2,1,50,0,0
26786,-166.666666666667,4,2,1,50,0,0
29116,-100,4,2,1,50,0,0
36106,-125,4,2,1,50,0,0
36397,-250,4,2,1,50,0,0
36688,-125,4,2,1,50,0,0
36980,-250,4,2,1,50,0,0
37271,-500,4,2,1,50,0,0
37854,-125,4,2,1,50,0,0
38436,-66.6666666666667,4,1,1,50,0,0
43388,-125,4,1,1,50,0,0
43679,-66.6666666666667,4,1,1,50,0,0
43970,-125,4,1,1,50,0,0
44261,-100,4,1,1,50,0,0
46591,-83.3333333333333,4,1,1,50,0,0
47174,-125,4,1,1,50,0,0
47465,-125,4,1,2,50,0,0
47756,-66.6666666666667,4,1,1,50,0,0
49358,-100,4,1,1,50,0,0
50087,-66.6666666666667,4,1,1,50,0,0
50378,-100,4,1,1,50,0,0
50669,-83.3333333333333,4,1,1,50,0,0
51834,-100,4,1,1,50,0,0
52417,-125,4,1,1,50,0,0
54747,-83.3333333333333,4,1,1,50,0,0
56106,-166.666666666667,4,1,1,50,0,0
63970,-100,4,2,1,50,0,0
66397,-125,4,2,2,50,0,0
75718,-100,4,1,1,50,0,0
76786,-250,4,2,1,50,0,0
77951,-100,4,1,1,50,0,0
79116,-66.6666666666667,4,2,1,50,0,0
80378,-100,4,2,1,50,0,0
82708,-1000,4,2,1,50,0,0
83873,-125,4,2,1,50,0,0
84164,-83.3333333333333,4,2,1,50,0,0
84455,-66.6666666666667,4,2,1,50,0,0
84747,-166.666666666667,4,2,1,50,0,0
85038,-66.6666666666667,4,1,1,50,0,0
89989,-125,4,1,1,50,0,0
90281,-66.6666666666667,4,1,1,50,0,0
90572,-125,4,1,1,50,0,0
90863,-100,4,1,1,50,0,0
93193,-83.3333333333333,4,1,1,50,0,0
93776,-125,4,1,1,50,0,0
94067,-125,4,1,2,50,0,0
94358,-66.6666666666667,4,1,1,50,0,0
95960,-100,4,1,1,50,0,0
97271,-83.3333333333333,4,1,1,50,0,0
98436,-100,4,1,1,50,0,0
99019,-125,4,1,1,50,0,0
101349,-83.3333333333333,4,1,1,50,0,0
102805,-166.666666666667,4,1,1,50,0,0
103679,-100,4,2,1,50,0,0
112708,-166.666666666667,4,2,1,50,0,0
112999,-83.3333333333333,4,2,1,50,0,0
117951,-125,4,2,1,50,0,0
118242,-83.3333333333333,4,2,1,50,0,0
118533,-125,4,2,1,50,0,0
118824,-83.3333333333333,4,2,1,50,0,0
119116,-125,4,2,1,50,0,0
119407,-83.3333333333333,4,2,1,50,0,0
119698,-125,4,2,1,50,0,0
119989,-166.666666666667,4,2,1,50,0,0
120281,-83.3333333333333,4,2,1,50,0,0
121737,-166.666666666667,4,2,1,50,0,0
133970,-125,4,2,1,50,0,0
135718,-83.3333333333334,4,2,1,50,0,0
136009,-125,4,2,1,50,0,0
136300,-250,4,2,1,50,0,0
136883,-166.666666666667,4,2,1,50,0,0
137465,-125,4,2,1,50,0,0
138048,-100,4,2,1,50,0,0
139795,-166.666666666667,4,2,1,50,0,0
142125,-66.6666666666667,4,1,1,50,0,0
147077,-125,4,1,1,50,0,0
147368,-66.6666666666667,4,1,1,50,0,0
147659,-125,4,1,1,50,0,0
147951,-83.3333333333333,4,1,1,50,0,0
150863,-125,4,1,1,50,0,0
151154,-125,4,1,2,50,0,0
151446,-66.6666666666667,4,1,1,50,0,0
156106,-100,4,1,1,50,0,0
156397,-125,4,1,1,50,0,0
156688,-83.3333333333333,4,1,1,50,0,0
156980,-125,4,1,1,50,0,0
157465,-166.666666666667,4,1,1,50,0,0
157854,-100,4,1,1,50,0,0
160766,-125,4,1,1,50,0,0
163339,-166.666666666667,4,1,1,50,0,0
164261,-125,4,2,1,50,0,0
164553,-100,4,2,1,50,0,0
164844,-83.3333333333333,4,1,1,50,0,0
169504,-100,4,1,1,50,0,0
171834,-166.666666666667,4,1,1,50,0,0
172417,-100,4,1,1,50,0,0
174941,-166.666666666667,4,1,1,50,0,0
177368,-100,4,1,1,50,0,0
177659,-166.666666666667,4,1,1,50,0,0
177951,-100,4,1,1,50,0,0
179407,-166.666666666667,4,2,1,50,0,0
182321,-166.666666666667,4,2,2,50,0,0
183486,-166.666666666667,4,2,1,50,0,0

[Colours]
Combo1 : 171,205,239
Combo2 : 130,171,193
Combo3 : 141,206,211
Combo4 : 175,175,216
SliderTrackOverride : 235,235,235

[HitObjects]
167,96,1156,6,0,L|235:93,1,63.9999980468751,6|0,0:0|0:0,0:0:0:0:
319,89,1447,1,0,0:0:0:0:
319,89,1738,1,2,0:0:0:0:
319,89,2029,1,0,0:0:0:0:
343,190,2223,1,0,0:0:0:0:
343,190,2321,1,0,0:0:0:0:
247,186,2515,2,0,L|343:190,1,95.9999970703126,0|0,0:0|0:0,0:0:0:0:
412,224,2903,2,0,P|404:297|351:268,1,159.999995117188,8|0,0:0|0:0,0:0:0:0:
343,190,3486,6,0,L|275:187,1,63.9999980468751,6|0,0:0|0:0,0:0:0:0:
160,244,3777,2,0,L|223:241,1,63.9999980468751,0|0,0:0|0:0,0:0:0:0:
88,114,4068,2,0,P|73:159|90:204,1,95.9999970703126,2|0,0:0|0:0,0:0:0:0:
223,240,4554,1,0,0:0:0:0:
223,240,4651,1,0,0:0:0:0:
275,325,4845,2,0,P|318:305|366:306,1,95.9999970703126,0|0,0:0|0:0,0:0:0:0:
436,346,5233,2,0,P|397:301|426:197,1,159.999995117188,8|0,0:0|0:0,0:0:0:0:
475,142,5816,6,0,B|480:110|480:110|467:80,1,63.9999980468751,6|0,0:0|0:0,0:0:0:0:
394,30,6107,1,0,0:0:0:0:
394,30,6398,1,2,0:0:0:0:
394,30,6689,1,0,0:0:0:0:
317,165,6884,1,0,0:0:0:0:
317,165,6981,1,0,0:0:0:0:
413,172,7175,2,0,L|317:165,1,95.9999970703126,0|0,0:0|0:0,0:0:0:0:
254,214,7563,2,0,P|239:290|285:353,1,159.999995117188,8|0,0:0|0:0,0:0:0:0:
317,165,8146,5,6,0:0:0:0:
254,214,8340,1,8,0:0:0:0:
174,215,8534,1,8,0:0:0:0:
318,231,8728,5,4,0:0:0:0:
220,263,8922,1,8,0:0:0:0:
138,200,9117,1,8,0:0:0:0:
304,317,9311,5,6,0:0:0:0:
136,294,9505,1,8,0:0:0:0:
81,134,9699,1,4,0:0:0:0:
472,232,9893,2,0,L|345:243,1,127.99999609375,6|0,0:0|3:0,0:0:0:0:
365,158,10185,2,0,L|404:155,1,31.9999990234375,0|0,0:0|0:0,0:0:0:0:
434,152,10379,1,0,0:0:0:0:
312,81,10476,6,0,P|254:78|219:37,1,106.666666666667,2|0,0:0|0:0,0:0:0:0:
212,159,10767,2,0,B|223:230|223:230|215:264,1,106.666666666667,4|0,0:3|0:0,0:0:0:0:
125,347,11058,2,0,L|288:333,1,160,8|0,0:0|0:0,0:0:0:0:
445,259,11544,1,0,0:0:0:0:
442,327,11641,5,4,0:0:0:0:
279,285,11835,1,0,0:0:0:0:
284,333,11932,1,4,0:3:0:0:
445,259,12126,1,0,0:0:0:0:
442,327,12223,2,0,B|386:321|386:321|282:333,1,160,8|0,0:0|0:0,0:0:0:0:
118,243,12709,1,0,0:0:0:0:
155,255,12806,6,0,P|160:210|125:156,1,106.666666666667,2|0,0:0|0:0,0:0:0:0:
93,83,13097,2,0,L|201:88,1,106.666666666667,4|0,0:3|0:0,0:0:0:0:
392,158,13389,2,0,B|343:144|343:144|283:139|236:159,1,160,8|0,0:0|0:0,0:0:0:0:
349,291,13874,1,0,0:0:0:0:
340,224,13971,5,4,0:0:0:0:
240,110,14165,1,0,0:0:0:0:
236,159,14262,1,4,0:3:0:0:
349,291,14456,1,0,0:0:0:0:
340,224,14554,2,0,P|264:227|203:282,1,160,8|0,0:0|0:0,0:0:0:0:
61,358,15039,1,0,0:0:0:0:
61,358,15136,6,0,L|47:249,1,106.666666666667,2|0,0:0|0:0,0:0:0:0:
119,208,15427,2,0,L|133:99,1,106.666666666667,4|0,0:3|0:0,0:0:0:0:
202,55,15719,2,0,P|260:75|356:41,1,160,8|0,0:0|0:0,0:0:0:0:
276,216,16204,1,0,0:0:0:0:
208,213,16301,5,4,0:0:0:0:
389,155,16495,1,0,0:0:0:0:
437,150,16592,1,4,0:3:0:0:
276,216,16786,1,0,0:0:0:0:
208,213,16883,2,0,L|221:376,1,160,8|0,0:0|0:0,0:0:0:0:
336,298,17369,1,0,0:0:0:0:
370,317,17466,5,6,0:0:0:0:
245,280,17660,1,8,0:0:0:0:
397,234,17855,1,8,0:0:0:0:
232,268,18049,5,4,0:0:0:0:
402,312,18243,1,8,0:0:0:0:
282,157,18437,1,8,0:0:0:0:
441,334,18631,5,6,0:0:0:0:
192,282,18825,1,8,0:0:0:0:
374,123,19020,1,8,0:0:0:0:
368,81,19117,1,8,0:0:0:0:
362,39,19214,5,6,0:0:0:0:
209,56,19408,1,8,0:0:0:0:
56,73,19602,1,4,0:0:0:0:
103,349,19796,6,0,B|70:322|70:322|65:282|80:250,1,106.666666666667,6|0,0:0|0:0,0:0:0:0:
226,171,20088,2,0,L|115:182,1,106.666666666667,4|0,0:3|0:0,0:0:0:0:
303,144,20379,2,0,B|336:171|336:171|341:211|326:243,1,106.666666666667,8|0,0:0|0:0,0:0:0:0:
281,321,20670,1,0,0:0:0:0:
320,115,20864,6,0,P|345:179|322:243,1,127.99999609375,0|0,0:0|3:0,0:0:0:0:
281,321,21155,1,0,0:0:0:0:
58,175,21447,1,0,0:0:0:0:
71,95,21544,2,0,B|104:104|129:134|129:134|157:99|202:85,1,160,8|0,0:0|0:0,0:0:0:0:
349,242,22029,1,0,0:0:0:0:
369,314,22126,6,0,B|340:346|340:346|304:333|287:310,1,106.666666666667,6|0,0:0|0:0,0:0:0:0:
367,112,22418,2,0,B|409:121|409:121|415:158|404:185,1,106.666666666667,4|0,0:3|0:0,0:0:0:0:
270,233,22709,2,0,P|219:235|173:206,1,106.666666666667,8|0,0:0|0:0,0:0:0:0:
240,157,23000,1,0,0:0:0:0:
104,240,23194,1,0,0:0:0:0:
122,277,23291,6,0,B|9:282,1,106.666666666667,8|0,0:3|0:0,0:0:0:0:
194,341,23583,2,0,B|307:346,1,106.666666666667,4|0,0:3|0:0,0:0:0:0:
381,307,23874,2,0,B|425:278|425:278|456:238|445:172,1,160,8|0,0:0|0:0,0:0:0:0:
446,176,24456,6,0,L|335:186,1,106.666666666667,6|0,0:0|0:0,0:0:0:0:
269,90,24748,1,4,0:3:0:0:
376,81,24942,1,0,0:0:0:0:
376,81,25039,2,0,L|265:91,1,106.666666666667,8|0,0:0|0:0,0:0:0:0:
138,183,25330,1,0,0:0:0:0:
139,38,25524,2,0,B|116:64|116:64|135:179,1,106.666666666667,0|0,0:0|3:0,0:0:0:0:
138,183,25816,5,0,0:0:0:0:
127,134,25913,1,4,0:3:0:0:
128,232,26107,1,0,0:0:0:0:
138,183,26204,1,8,0:0:0:0:
138,281,26398,1,0,0:0:0:0:
128,232,26495,1,0,0:0:0:0:
128,330,26689,1,0,0:0:0:0:
138,281,26787,6,0,P|202:272|264:294,1,127.99999609375,6|0,0:0|3:0,0:0:0:0:
328,351,27272,2,0,P|374:347|422:327,1,95.9999970703126,0|0,0:0|3:0,0:0:0:0:
461,256,27660,2,0,P|444:221|437:198,1,63.9999980468751,0|0,0:0|0:0,0:0:0:0:
429,118,27952,5,6,0:0:0:0:
246,107,28146,1,0,0:0:0:0:
246,107,28243,2,0,L|312:112,1,63.9999980468751,4|0,0:3|0:0,0:0:0:0:
268,188,28534,2,0,L|204:183,1,63.9999980468751,8|4,0:0|0:3,0:0:0:0:
91,109,28825,2,0,L|157:114,1,63.9999980468751,0|0,0:0|0:0,0:0:0:0:
217,303,29117,6,0,B|186:320|186:320|145:303|133:269,1,106.666666666667,6|0,0:0|0:0,0:0:0:0:
310,280,29408,2,0,L|299:359,1,80,4|0,0:3|0:0,0:0:0:0:
377,221,29699,2,0,B|408:204|408:204|449:221|461:255,1,106.666666666667,8|0,0:0|0:0,0:0:0:0:
289,285,29990,2,0,L|302:190,1,80
355,92,30282,5,8,0:3:0:0:
146,131,30573,1,4,0:3:0:0:
48,69,30767,1,0,0:0:0:0:
57,37,30864,2,0,L|61:147,1,106.666666666667,8|0,0:0|0:0,0:0:0:0:
146,131,31155,2,0,L|142:241,1,106.666666666667,0|0,0:0|0:0,0:0:0:0:
211,294,31447,6,0,B|238:270|238:270|273:281|298:307,1,106.666666666667,6|0,0:0|0:0,0:0:0:0:
371,347,31738,2,0,B|398:371|398:371|433:360|458:334,1,106.666666666667,4|0,0:3|0:0,0:0:0:0:
480,252,32029,2,0,L|469:143,1,106.666666666667,8|0,0:0|0:0,0:0:0:0:
431,73,32321,1,0,0:0:0:0:
363,193,32515,1,4,0:3:0:0:
363,193,32612,6,0,P|302:180|223:234,1,160,8|4,0:3|0:3,0:0:0:0:
152,171,33097,1,0,0:0:0:0:
152,171,33194,2,0,P|212:158|308:266,1,213.333333333333,8|0,0:0|3:0,0:0:0:0:
295,338,33680,1,0,0:0:0:0:
255,323,33777,6,0,B|208:330|208:330|150:320,1,106.666666666667,6|0,0:0|0:0,0:0:0:0:
62,273,34068,2,0,B|13:253|13:253|64:232,1,106.666666666667,4|0,0:3|0:0,0:0:0:0:
152,197,34359,2,0,B|192:146|170:95|170:95|127:127,1,160,8|0,0:0|0:0,0:0:0:0:
283,71,34845,1,0,0:0:0:0:
276,114,34942,6,0,P|317:122|372:90,1,106.666666666667,8|0,0:3|0:0,0:0:0:0:
448,72,35233,2,0,P|449:125|416:174,1,106.666666666667,4|0,0:3|0:0,0:0:0:0:
360,222,35524,2,0,L|370:330,1,106.666666666667,8|0,0:0|0:0,0:0:0:0:
445,359,35816,1,0,0:0:0:0:
256,292,36010,1,0,0:0:0:0:
256,292,36107,6,0,L|155:300,1,85.3333333333333,6|0,0:0|0:0,0:0:0:0:
92,205,36398,2,0,L|138:210,1,42.6666666666667,4|0,0:3|0:0,0:0:0:0:
248,309,36689,2,0,P|228:262|229:223,1,85.3333333333333,8|0,0:0|0:0,0:0:0:0:
286,104,36981,2,0,L|282:148,1,42.6666666666667,0|0,0:0|0:0,0:0:0:0:
353,324,37272,6,0,L|357:352,1,21.3333333333333,4|0,0:0|3:0,0:0:0:0:
159,324,37563,2,0,L|155:352,1,21.3333333333333,4|0,0:3|3:0,0:0:0:0:
256,312,37855,2,0,L|256:216,1,85.3333333333333,8|0,0:0|0:0,0:0:0:0:
256,88,38146,1,10,0:0:0:0:
256,88,38437,6,0,B|306:73|306:73|350:115|326:172,1,160.000006103516,6|0,0:0|0:0,0:0:0:0:
165,244,38728,2,0,B|127:208|127:208|142:149|203:141,1,160.000006103516,4|0,0:3|0:0,0:0:0:0:
346,243,39020,2,0,B|334:294|334:294|275:311|238:262,1,160.000006103516,8|0,0:0|0:0,0:0:0:0:
256,88,39311,2,0,B|306:73|306:73|350:115|326:172,1,160.000006103516,0|0,0:0|0:0,0:0:0:0:
144,321,39602,6,0,L|157:161,1,160.000006103516,4|0,0:0|0:0,0:0:0:0:
165,84,39893,1,4,0:3:0:0:
83,192,40088,2,0,B|145:240|216:209|216:209|263:190|313:208,1,240.000009155274,0|0,0:0|0:0,0:0:0:0:
340,295,40476,2,0,P|375:342|426:280,1,160.000006103516,0|0,0:0|0:0,0:0:0:0:
393,57,40767,6,0,B|420:97|420:97|392:208,1,160.000006103516,6|0,0:0|0:0,0:0:0:0:
313,321,41058,2,0,B|286:281|286:281|313:172,1,160.000006103516,4|0,0:3|0:0,0:0:0:0:
393,57,41350,1,8,0:0:0:0:
201,120,41544,1,0,0:0:0:0:
143,108,41641,1,0,0:0:0:0:
31,275,41835,1,0,0:0:0:0:
102,258,41932,6,0,B|106:292|127:315|127:315|166:286|222:293,1,160.000006103516,4|0,0:0|0:0,0:0:0:0:
363,332,42223,1,4,0:3:0:0:
302,226,42418,2,0,B|303:182|298:150|274:125|240:109|240:109|264:70|304:64|336:69,1,240.000009155274,0|0,0:0|0:0,0:0:0:0:
451,128,42806,2,0,B|495:175|495:175|383:161,1,160.000006103516,0|0,0:0|0:0,0:0:0:0:
214,337,43097,6,0,P|188:296|220:193,1,160.000006103516,6|0,0:0|0:0,0:0:0:0:
350,89,43389,2,0,B|377:76|377:76|319:67,1,85.3333333333333,4|0,0:3|0:0,0:0:0:0:
298,337,43680,2,0,P|324:296|292:193,1,160.000006103516,8|0,0:0|0:0,0:0:0:0:
162,89,43972,2,0,B|135:76|135:76|193:67,1,85.3333333333333,0|0,0:0|0:0,0:0:0:0:
256,344,44262,5,4,0:0:0:0:
256,88,44456,1,0,0:0:0:0:
256,88,44554,1,4,0:3:0:0:
256,344,44748,1,0,0:0:0:0:
321,294,44845,2,0,B|371:307|371:307|425:294,1,106.666666666667,8|0,0:0|0:0,0:0:0:0:
468,225,45136,2,0,B|481:175|481:175|468:121,1,106.666666666667,0|0,0:0|0:0,0:0:0:0:
402,67,45427,5,6,0:0:0:0:
304,187,45622,1,0,0:0:0:0:
334,185,45719,1,4,0:3:0:0:
238,110,45913,1,0,0:0:0:0:
195,105,46010,1,8,0:0:0:0:
296,264,46204,1,0,0:0:0:0:
353,261,46301,1,0,0:0:0:0:
263,35,46495,1,0,0:0:0:0:
185,27,46592,6,0,L|205:224,1,191.999994140625,4|4,0:0|0:3,0:0:0:0:
67,344,47078,1,0,0:0:0:0:
107,317,47175,2,0,P|151:317|192:339,1,85.3333333333333,8|0,0:0|0:0,0:0:0:0:
319,321,47466,5,8,0:0:0:0:
322,278,47563,1,0,0:0:0:0:
325,235,47660,1,0,0:0:0:0:
301,186,47757,6,0,B|413:194|413:194|389:153,1,160.000006103516,6|0,0:0|0:0,0:0:0:0:
203,138,48049,2,0,B|91:146|91:146|115:105,1,160.000006103516,4|0,0:3|0:0,0:0:0:0:
310,158,48340,2,0,B|420:136|420:136|386:103,1,160.000006103516,8|0,0:0|0:0,0:0:0:0:
194,110,48631,1,0,0:0:0:0:
203,15,48825,1,0,0:0:0:0:
203,15,48922,6,0,B|229:49|229:49|200:255,1,240.000009155274,4|4,0:0|0:3,0:0:0:0:
102,327,49359,2,0,P|172:291|254:309,1,160,0|0,0:0|3:0,0:0:0:0:
400,266,49723,1,0,0:0:0:0:
400,266,49796,2,0,P|353:243|299:253,1,106.666666666667,0|0,0:0|0:0,0:0:0:0:
425,344,50088,6,0,B|414:306|414:306|429:184,1,160.000006103516,6|0,0:0|0:0,0:0:0:0:
259,77,50379,2,0,B|234:53|234:53|280:56|309:52,1,106.666666666667,4|0,0:3|0:0,0:0:0:0:
247,183,50670,2,0,L|118:180,1,127.99999609375,8|0,0:0|0:0,0:0:0:0:
40,140,50961,1,0,0:0:0:0:
106,340,51155,5,0,0:0:0:0:
183,322,51253,1,4,0:0:0:0:
183,322,51447,1,0,0:0:0:0:
260,340,51545,1,4,0:3:0:0:
260,340,51738,1,0,0:0:0:0:
337,322,51835,2,0,P|353:276|344:216,1,106.666666666667,8|0,0:0|0:0,0:0:0:0:
261,187,52126,2,0,L|148:196,1,106.666666666667,4|0,0:3|0:0,0:0:0:0:
73,232,52418,6,0,P|47:172|101:63,1,192,6|0,0:0|3:0,0:0:0:0:
177,42,52927,1,4,0:3:0:0:
177,42,53000,1,8,0:0:0:0:
293,56,53583,5,4,0:0:0:0:
409,70,54165,1,8,0:0:0:0:
454,303,54748,6,0,B|400:284|400:284|330:301,1,127.99999609375,6|0,0:0|0:0,0:0:0:0:
245,358,55039,1,4,0:3:0:0:
245,310,55136,1,8,0:0:0:0:
245,262,55233,1,8,0:0:0:0:
191,205,55330,6,0,B|137:224|137:224|68:207,1,127.99999609375,8|0,0:0|0:0,0:0:0:0:
38,132,55622,1,8,0:0:0:0:
86,132,55719,1,8,0:0:0:0:
134,132,55816,1,8,0:0:0:0:
204,92,55913,5,4,0:3:0:0:
471,181,56107,1,0,0:0:0:0:
471,181,56204,2,0,B|485:162|485:162|440:162,1,63.9999980468751,4|0,0:3|0:0,0:0:0:0:
303,338,56495,1,10,0:0:0:0:
176,86,63971,5,8,0:0:0:0:
142,67,64068,5,6,0:0:0:0:
267,104,64262,1,8,0:0:0:0:
115,150,64457,1,8,0:0:0:0:
280,116,64651,5,4,0:0:0:0:
110,72,64845,1,8,0:0:0:0:
230,227,65039,1,8,0:0:0:0:
71,50,65233,5,6,0:0:0:0:
320,102,65427,1,8,0:0:0:0:
138,261,65622,1,8,0:0:0:0:
144,303,65719,1,8,0:0:0:0:
150,345,65816,5,6,0:0:0:0:
303,328,66010,1,8,0:0:0:0:
456,311,66204,1,4,0:0:0:0:
248,235,66398,6,0,P|275:199|314:184,1,85.3333333333333,8|0,0:3|0:0,0:0:0:0:
387,209,66689,2,0,L|477:203,1,85.3333333333333,4|0,0:3|0:0,0:0:0:0:
456,122,66981,2,0,L|370:127,1,85.3333333333333,8|0,0:0|0:0,0:0:0:0:
311,184,67272,1,0,0:0:0:0:
178,54,67466,6,0,B|208:48|239:55|239:55|214:76|204:96|202:114,1,128,0|0,0:0|0:0,0:0:0:0:
164,187,67855,2,0,P|128:208|82:213,1,85.3333333333333,4|0,0:3|0:0,0:0:0:0:
55,302,68146,2,0,L|140:297,1,85.3333333333333,8|0,0:0|0:0,0:0:0:0:
225,317,68437,1,0,0:0:0:0:
363,348,68631,1,0,0:0:0:0:
363,348,68728,6,0,P|383:310|374:265,1,85.3333333333333,8|0,0:3|0:0,0:0:0:0:
327,200,69020,1,4,0:3:0:0:
203,35,69311,1,8,0:0:0:0:
177,127,69505,1,0,0:0:0:0:
177,127,69602,1,0,0:0:0:0:
201,222,69796,1,0,0:0:0:0:
201,222,69893,5,8,0:3:0:0:
175,314,70088,2,0,L|302:307,1,128,0|0,0:0|0:0,0:0:0:0:
391,340,70476,1,8,0:0:0:0:
302,306,70670,1,0,0:0:0:0:
302,306,70767,1,8,0:0:0:0:
102,144,71058,6,0,P|104:112|100:54,2,85.3333333333333,8|0|0,0:3|0:0|0:0,0:0:0:0:
56,262,71641,2,0,L|142:257,1,85.3333333333333,8|0,0:0|0:0,0:0:0:0:
201,200,71932,1,0,0:0:0:0:
315,357,72126,1,0,0:0:0:0:
315,357,72223,6,0,L|305:266,1,85.3333333333333,8|0,0:3|0:0,0:0:0:0:
348,197,72515,2,0,P|384:176|430:171,1,85.3333333333333,4|0,0:3|0:0,0:0:0:0:
457,82,72806,2,0,L|372:87,1,85.3333333333333,8|0,0:0|0:0,0:0:0:0:
287,67,73097,1,0,0:0:0:0:
149,36,73291,1,0,0:0:0:0:
149,36,73388,6,0,P|129:74|138:119,1,85.3333333333333,8|0,0:3|0:0,0:0:0:0:
185,184,73680,1,4,0:3:0:0:
309,349,73971,1,8,0:0:0:0:
335,257,74165,1,0,0:0:0:0:
335,257,74262,1,0,0:0:0:0:
311,162,74456,1,0,0:0:0:0:
311,162,74553,5,8,0:3:0:0:
337,70,74748,2,0,L|210:77,1,128,0|0,0:0|0:0,0:0:0:0:
121,44,75136,1,8,0:0:0:0:
210,78,75330,1,0,0:0:0:0:
210,78,75427,1,8,0:0:0:0:
116,208,75622,1,0,0:0:0:0:
131,172,75719,6,0,B|89:166|89:166|24:180,1,106.666666666667,6|0,1:0|1:0,0:0:0:0:
311,217,76010,2,0,B|256:225|256:225|204:217,1,106.666666666667,4|0,0:3|0:0,0:0:0:0:
485,179,76301,2,0,B|423:166|423:166|381:172,1,106.666666666667,8|0,1:0|1:0,0:0:0:0:
256,80,76592,1,0,0:0:0:0:
256,367,76787,6,0,B|259:342|265:326|275:315|283:309|283:309|285:291|277:276|257:271|235:277|225:294,1,149.333333333333,2|0,1:0|3:0,0:0:0:0:
396,176,77952,1,0,0:0:0:0:
381,212,78049,6,0,B|423:218|423:218|488:204,1,106.666666666667,6|0,1:0|0:0,0:0:0:0:
201,167,78340,2,0,B|256:159|256:159|308:167,1,106.666666666667,4|0,0:3|0:0,0:0:0:0:
27,205,78631,2,0,B|89:218|89:218|131:212,1,106.666666666667,8|0,1:0|0:0,0:0:0:0:
256,304,78922,1,0,1:0:0:0:
256,17,79117,6,0,B|253:42|248:60|237:69|228:79|228:79|227:93|237:107|255:114|277:111|288:103|293:88,1,160.000006103516,2|0,1:0|3:0,0:0:0:0:
293,87,80282,1,0,0:0:0:0:
374,126,80379,6,0,P|404:173|399:223,1,106.666666666667,4|0,0:0|0:0,0:0:0:0:
311,303,80670,2,0,L|206:287,1,106.666666666667,4|0,0:3|0:0,0:0:0:0:
108,328,80961,1,8,0:0:0:0:
201,193,81155,1,0,0:0:0:0:
157,200,81253,1,0,0:0:0:0:
66,85,81447,1,0,0:0:0:0:
110,92,81545,5,4,0:0:0:0:
150,244,81738,1,0,0:0:0:0:
157,200,81835,2,0,P|176:154|224:122,1,106.666666666667,4|0,0:3|0:0,0:0:0:0:
355,184,82126,2,0,P|336:230|288:262,1,106.666666666667,8|0,0:0|0:0,0:0:0:0:
362,140,82418,1,0,0:0:0:0:
163,88,82612,1,0,0:0:0:0:
159,60,82709,6,0,L|155:32,1,21.3333333333333,6|0,0:0|3:0,0:0:0:0:
353,60,83291,2,0,L|357:32,1,21.3333333333333,8|0,0:0|3:0,0:0:0:0:
349,88,83777,1,0,0:0:0:0:
400,143,83874,6,0,B|456:143|456:143|440:170,1,85.3333333333333,4|0,0:0|0:0,0:0:0:0:
293,267,84165,2,0,B|212:267|212:267|237:227,1,127.99999609375,4|0,0:3|0:0,0:0:0:0:
106,109,84456,2,0,B|159:109|159:109|107:202,1,160.000006103516,8|0,0:0|0:0,0:0:0:0:
37,355,84748,2,0,L|101:355,1,63.9999980468751,0|0,0:0|0:0,0:0:0:0:
256,296,85039,6,0,B|206:311|206:311|162:269|186:212,1,160.000006103516,6|0,0:0|0:0,0:0:0:0:
347,140,85330,2,0,B|385:176|385:176|370:235|309:243,1,160.000006103516,4|0,0:3|0:0,0:0:0:0:
166,141,85622,2,0,B|178:90|178:90|237:73|274:122,1,160.000006103516,8|0,0:0|0:0,0:0:0:0:
256,296,85913,2,0,B|206:311|206:311|162:269|186:212,1,160.000006103516,0|0,0:0|0:0,0:0:0:0:
368,63,86204,6,0,L|355:223,1,160.000006103516,4|0,0:0|0:0,0:0:0:0:
347,300,86495,1,4,0:2:0:0:
429,192,86690,2,0,B|367:144|296:175|296:175|249:194|199:176,1,240.000009155274,0|0,0:0|0:0,0:0:0:0:
172,89,87078,2,0,P|137:42|86:104,1,160.000006103516,0|0,0:0|0:0,0:0:0:0:
119,327,87369,6,0,B|92:287|92:287|120:176,1,160.000006103516,6|0,0:0|0:0,0:0:0:0:
199,63,87660,2,0,B|226:103|226:103|199:212,1,160.000006103516,4|0,0:3|0:0,0:0:0:0:
119,327,87952,1,8,0:0:0:0:
311,264,88146,1,0,0:0:0:0:
369,276,88243,1,0,0:0:0:0:
481,109,88437,1,0,0:0:0:0:
410,126,88534,6,0,B|406:92|385:69|385:69|346:98|290:91,1,160.000006103516,4|0,0:0|0:0,0:0:0:0:
149,52,88825,1,4,0:3:0:0:
210,158,89020,2,0,B|209:202|214:234|238:259|272:275|272:275|248:314|208:320|176:315,1,240.000009155274
61,256,89408,2,0,B|17:209|17:209|129:223,1,160.000006103516,0|0,0:0|0:0,0:0:0:0:
298,47,89699,6,0,P|324:88|292:191,1,160.000006103516,6|0,0:0|0:0,0:0:0:0:
162,295,89991,2,0,B|135:308|135:308|193:317,1,85.3333333333333,4|0,0:3|0:0,0:0:0:0:
214,47,90282,2,0,P|188:88|220:191,1,160.000006103516,8|0,0:0|0:0,0:0:0:0:
350,295,90574,2,0,B|377:308|377:308|319:317,1,85.3333333333333,0|0,0:0|0:0,0:0:0:0:
256,40,90864,5,4,0:0:0:0:
256,296,91058,1,0,0:0:0:0:
256,296,91156,1,4,0:3:0:0:
256,40,91350,1,0,0:0:0:0:
191,90,91447,2,0,B|141:77|141:77|87:90,1,106.666666666667,8|0,0:0|0:0,0:0:0:0:
44,159,91738,2,0,B|31:209|31:209|44:263,1,106.666666666667,0|0,0:0|0:0,0:0:0:0:
110,317,92029,5,6,0:0:0:0:
208,197,92224,1,0,0:0:0:0:
178,199,92321,1,4,0:3:0:0:
274,274,92515,1,0,0:0:0:0:
317,279,92612,1,8,0:0:0:0:
216,120,92806,1,0,0:0:0:0:
159,123,92903,1,0,0:0:0:0:
249,349,93097,1,0,0:0:0:0:
327,357,93194,6,0,L|307:160,1,191.999994140625,4|4,0:0|0:3,0:0:0:0:
445,40,93680,1,0,0:0:0:0:
405,67,93777,2,0,P|361:67|320:45,1,85.3333333333333,8|0,0:0|0:0,0:0:0:0:
193,63,94068,5,8,0:0:0:0:
190,106,94165,1,0,0:0:0:0:
187,149,94262,1,0,0:0:0:0:
211,198,94359,6,0,B|99:190|99:190|123:231,1,160.000006103516,6|0,0:0|0:0,0:0:0:0:
309,246,94651,2,0,B|421:238|421:238|397:279,1,160.000006103516,4|0,0:3|0:0,0:0:0:0:
202,226,94942,2,0,B|92:248|92:248|126:281,1,160.000006103516,8|0,0:0|0:0,0:0:0:0:
318,274,95233,1,0,0:0:0:0:
309,369,95427,1,0,0:0:0:0:
309,369,95524,6,0,B|283:335|283:335|312:129,1,240.000009155274,4|4,0:0|0:3,0:0:0:0:
403,26,95961,2,0,P|350:60|272:49,1,133.333333333333,0|0,0:0|3:0,0:0:0:0:
112,118,96301,1,0,0:0:0:0:
112,118,96398,2,0,P|159:141|213:131,1,106.666666666667,0|0,0:0|0:0,0:0:0:0:
95,351,96689,5,6,0:0:0:0:
142,217,96835,1,0,0:0:0:0:
253,307,96981,2,0,B|278:331|278:331|232:328|203:332,1,106.666666666667,4|0,0:2|0:0,0:0:0:0:
265,201,97272,2,0,L|394:204,1,127.99999609375,8|0,0:0|0:0,0:0:0:0:
472,244,97563,1,0,0:0:0:0:
406,44,97757,5,0,0:0:0:0:
329,62,97855,1,4,0:0:0:0:
329,62,98049,1,0,0:0:0:0:
252,44,98147,1,4,0:3:0:0:
252,44,98340,1,0,0:0:0:0:
175,62,98437,2,0,P|159:108|168:168,1,106.666666666667,8|0,0:0|0:0,0:0:0:0:
251,197,98728,2,0,L|364:188,1,106.666666666667,4|0,0:3|0:0,0:0:0:0:
439,152,99020,6,0,P|465:212|411:321,1,192,6|0,0:0|3:0,0:0:0:0:
335,342,99529,1,4,0:3:0:0:
335,342,99602,1,8,0:0:0:0:
219,328,100185,5,4,0:0:0:0:
103,314,100767,1,8,0:0:0:0:
58,81,101350,6,0,B|112:100|112:100|182:83,1,127.99999609375,6|0,0:0|0:0,0:0:0:0:
267,26,101641,1,4,0:3:0:0:
267,74,101738,1,0,0:0:0:0:
267,122,101835,1,0,0:0:0:0:
321,179,101932,6,0,B|375:160|375:160|444:177,1,127.99999609375,8|0,0:0|0:0,0:0:0:0:
474,252,102224,1,0,0:0:0:0:
426,252,102321,1,0,0:0:0:0:
378,252,102418,1,0,0:0:0:0:
308,292,102515,5,4,0:3:0:0:
41,203,102709,1,0,0:0:0:0:
41,203,102806,2,0,B|27:222|27:222|72:222,1,63.9999980468751,4|0,0:3|0:0,0:0:0:0:
209,46,103097,1,10,0:0:0:0:
375,249,103680,6,0,B|457:249|457:249|438:277,1,106.666666666667,6|0,0:0|0:0,0:0:0:0:
326,342,103971,2,0,P|272:342|229:312,1,106.666666666667,4|0,0:3|0:0,0:0:0:0:
247,226,104262,1,8,0:0:0:0:
158,248,104456,1,0,0:0:0:0:
158,248,104554,1,0,0:0:0:0:
69,270,104748,1,0,0:0:0:0:
69,270,105039,5,0,0:0:0:0:
158,248,105136,1,4,0:3:0:0:
158,248,105427,2,0,B|129:203|129:203|130:148,1,106.666666666667,8|0,0:0|0:0,0:0:0:0:
247,226,105719,2,0,P|246:275|215:325,1,106.666666666667,0|0,0:0|0:0,0:0:0:0:
219,141,106010,6,0,B|301:141|301:141|282:113,1,106.666666666667,6|0,0:0|0:0,0:0:0:0:
217,40,106301,2,0,L|111:40,1,106.666666666667,4|0,0:3|0:0,0:0:0:0:
352,207,106592,1,8,0:0:0:0:
377,120,106787,1,0,0:0:0:0:
377,120,106884,1,0,0:0:0:0:
402,33,107078,1,0,0:0:0:0:
402,33,107369,5,0,0:0:0:0:
377,120,107466,2,0,B|415:124|415:124|417:161|400:190,1,106.666666666667,4|0,0:3|0:0,0:0:0:0:
333,246,107757,2,0,B|320:279|320:279|332:354,1,106.666666666667,8|0,0:0|0:0,0:0:0:0:
241,325,108049,2,0,L|134:325,1,106.666666666667,0|0,0:0|0:0,0:0:0:0:
331,349,108340,6,0,B|344:316|344:316|332:245,1,106.666666666667,6|0,0:0|0:0,0:0:0:0:
248,231,108631,2,0,L|141:231,1,106.666666666667,4|0,0:3|0:0,0:0:0:0:
54,200,108922,1,8,0:0:0:0:
131,148,109117,1,0,0:0:0:0:
131,148,109214,1,0,0:0:0:0:
208,96,109408,1,0,0:0:0:0:
208,96,109699,5,0,0:0:0:0:
131,148,109796,1,4,0:3:0:0:
131,148,110088,2,0,B|49:148|49:148|62:120,1,106.666666666667,8|0,0:0|0:0,0:0:0:0:
315,96,110379,2,0,L|208:96,1,106.666666666667
334,292,110670,5,6,0:0:0:0:
361,172,110864,1,8,0:0:0:0:
388,52,111058,1,8,0:0:0:0:
418,41,111253,5,4,0:0:0:0:
391,161,111447,1,8,0:0:0:0:
364,281,111641,1,8,0:0:0:0:
394,270,111738,1,0,0:0:0:0:
424,259,111835,5,4,0:0:0:0:
228,177,112029,1,0,0:0:0:0:
191,177,112126,1,4,0:3:0:0:
144,286,112321,1,0,0:0:0:0:
67,286,112418,1,8,0:0:0:0:
368,357,112612,1,0,0:0:0:0:
275,357,112709,2,0,P|266:322|268:292,1,63.9999980468751
329,212,113000,6,0,B|345:150|345:150|335:86,1,127.99999609375,6|0,0:0|0:0,0:0:0:0:
177,86,113291,2,0,B|167:150|167:150|183:212,1,127.99999609375,4|0,0:3|0:0,0:0:0:0:
182,211,113583,2,0,P|119:232|91:284,1,127.99999609375,8|0,0:0|0:0,0:0:0:0:
91,282,113874,2,0,L|209:344,1,127.99999609375,0|0,0:0|0:0,0:0:0:0:
307,341,114165,6,0,L|420:282,1,127.99999609375,8|0,0:3|0:0,0:0:0:0:
420,282,114456,2,0,P|389:228|329:211,1,127.99999609375,4|0,0:3|0:0,0:0:0:0:
329,212,114748,2,0,B|345:150|345:150|335:86,1,127.99999609375,8|0,0:0|0:0,0:0:0:0:
177,86,115039,2,0,B|167:150|167:150|183:212,1,127.99999609375,0|0,0:0|0:0,0:0:0:0:
256,360,115330,6,0,B|256:275|256:275|285:310,1,127.99999609375,6|0,0:0|0:0,0:0:0:0:
357,343,115622,2,0,P|420:321|446:262,1,127.99999609375,4|0,0:3|0:0,0:0:0:0:
363,213,115913,2,0,B|303:192|303:192|363:171,1,127.99999609375,8|0,0:0|0:0,0:0:0:0:
445,115,116204,2,0,P|416:59|357:41,1,127.99999609375,0|0,0:0|0:0,0:0:0:0:
256,24,116495,6,0,B|256:109|256:109|227:74,1,127.99999609375,8|0,0:3|0:0,0:0:0:0:
155,41,116787,2,0,P|92:63|66:122,1,127.99999609375,4|0,0:3|0:0,0:0:0:0:
149,171,117078,2,0,B|209:192|209:192|149:213,1,127.99999609375,8|4,0:0|0:3,0:0:0:0:
66,268,117369,2,0,P|95:324|155:343,1,127.99999609375,0|0,0:0|0:0,0:0:0:0:
327,118,117660,6,0,L|193:118,1,127.99999609375,6|0,0:0|0:0,0:0:0:0:
108,53,117952,2,0,B|90:30|90:30|147:30,1,85.3333333333333,4|0,0:3|0:0,0:0:0:0:
379,206,118243,6,0,L|245:206,1,127.99999609375,8|0,0:0|0:0,0:0:0:0:
160,141,118535,2,0,B|142:118|142:118|199:118,1,85.3333333333333
431,294,118825,6,0,L|297:294,1,127.99999609375,8|0,0:3|0:0,0:0:0:0:
212,229,119117,2,0,B|194:206|194:206|251:206,1,85.3333333333333,4|0,0:3|0:0,0:0:0:0:
483,382,119408,6,0,L|349:382,1,127.99999609375,8|0,0:0|0:0,0:0:0:0:
264,317,119700,2,0,B|246:294|246:294|303:294,1,85.3333333333333
410,331,119990,6,0,L|410:268,1,63.9999980468751
376,150,120282,1,4,0:3:0:0:
419,159,120379,1,8,0:0:0:0:
452,129,120476,1,8,0:0:0:0:
445,84,120573,1,8,0:0:0:0:
136,150,120864,5,4,0:3:0:0:
93,159,120961,1,8,0:0:0:0:
60,129,121058,1,8,0:0:0:0:
67,84,121155,1,12,0:0:0:0:
256,80,121350,5,0,2:0:0:0:
256,48,121447,1,4,0:3:0:0:
256,336,121641,1,0,0:0:0:0:
256,304,121738,2,0,L|256:208,1,95.9999970703126,8|0,0:0|0:0,0:0:0:0:
48,320,122321,5,2,0:0:0:0:
48,304,123486,5,4,0:3:0:0:
48,288,124651,5,4,0:0:0:0:
464,64,126981,1,2,0:0:0:0:
464,80,128146,5,4,0:3:0:0:
464,96,129311,5,4,0:0:0:0:
388,160,129505,1,8,0:0:0:0:
290,148,129699,1,8,0:0:0:0:
421,256,129893,5,6,0:0:0:0:
300,287,130088,1,8,0:0:0:0:
266,167,130282,1,8,0:0:0:0:
69,337,130476,5,4,0:0:0:0:
170,235,130670,1,8,0:0:0:0:
311,257,130864,1,8,0:0:0:0:
106,121,131058,5,6,0:0:0:0:
296,149,131253,1,8,0:0:0:0:
405,306,131447,1,4,0:0:0:0:
393,62,131641,6,0,L|288:66,1,95.9999970703126,14|0,0:0|0:0,0:0:0:0:
119,322,132223,2,0,L|224:318,1,95.9999970703126,8|0,0:0|0:0,0:0:0:0:
126,55,132806,2,0,L|129:150,1,95.9999970703126,8|4,0:0|0:3,0:0:0:0:
386,329,133291,1,0,0:0:0:0:
386,329,133389,2,0,L|382:233,1,95.9999970703126,8|0,0:0|0:0,0:0:0:0:
129,150,133971,6,0,B|95:172|95:172|86:222|128:248,1,128,6|4,0:0|0:3,0:0:0:0:
383,234,134554,2,0,B|417:212|417:212|426:162|385:136,1,128,8|0,0:0|0:0,0:0:0:0:
214,319,135136,2,0,B|236:353|236:353|286:362|312:320,1,128,8|4,0:0|0:3,0:0:0:0:
298,65,135622,1,0,0:0:0:0:
298,65,135719,2,0,B|276:31|276:31|226:22|200:62,1,128,8|0,0:0|0:0,0:0:0:0:
386,137,136010,2,0,L|436:68,1,85.3333333333333,8|0,0:0|0:0,0:0:0:0:
162,184,136301,6,0,L|199:184,1,32,6|0,0:0|3:0,0:0:0:0:
350,200,136592,2,0,L|313:200,1,32,4|0,0:3|3:0,0:0:0:0:
152,140,136884,6,0,P|149:160|162:184,1,47.9999985351563,8|0,0:0|3:0,0:0:0:0:
360,244,137175,2,0,P|363:224|350:200,1,47.9999985351563,4|0,0:3|3:0,0:0:0:0:
90,149,137466,6,0,B|117:142|117:142|131:146|131:146|154:139,1,64,8|0,0:0|3:0,0:0:0:0:
422,235,137757,2,0,B|395:242|395:242|381:238|381:238|358:245,1,64,4|0,0:3|3:0,0:0:0:0:
102,75,138049,6,0,B|83:99|83:99|90:154,1,80,8|0,0:0|3:0,0:0:0:0:
410,309,138340,2,0,B|428:284|428:284|422:230,1,80,0|0,0:0|3:0,0:0:0:0:
41,81,138631,5,6,0:0:0:0:
71,78,138728,1,8,0:3:0:0:
102,75,138825,1,8,0:3:0:0:
102,148,138922,5,4,0:3:0:0:
143,144,139019,1,8,0:3:0:0:
185,141,139116,1,8,0:3:0:0:
202,213,139214,5,8,0:3:0:0:
255,209,139311,1,8,0:3:0:0:
307,204,139408,1,8,0:3:0:0:
303,277,139505,5,8,0:3:0:0:
367,271,139602,1,8,0:3:0:0:
430,266,139699,1,8,0:3:0:0:
494,260,139796,6,0,B|477:242|473:224|471:201|484:175|484:175|495:158|489:134|466:125|438:130|433:162,1,191.999994140625,6|0,0:0|3:0,0:0:0:0:
433,161,140864,1,0,0:0:0:0:
433,161,140961,6,0,L|429:226,1,63.9999980468751,4|0,0:0|0:0,0:0:0:0:
256,354,141253,2,0,L|259:290,1,63.9999980468751,4|0,0:3|0:0,0:0:0:0:
256,30,141544,1,8,0:0:0:0:
79,223,141738,1,0,0:0:0:0:
79,223,141835,2,0,L|83:158,1,63.9999980468751,0|0,0:0|3:0,0:0:0:0:
420,88,142126,6,0,B|436:98|440:118|428:138|428:138|398:121|363:115|326:123,1,160.000006103516,6|0,0:0|0:0,0:0:0:0:
258,290,142418,2,0,B|242:280|238:260|250:240|250:240|280:257|315:263|352:255,1,160.000006103516,4|0,0:3|0:0,0:0:0:0:
420,88,142709,2,0,L|414:171,1,80.0000030517579,8|0,0:0|3:0,0:0:0:0:
255,338,142903,1,0,0:0:0:0:
258,290,143000,2,0,L|263:210,1,80.0000030517579,0|0,0:0|3:0,0:0:0:0:
423,40,143194,1,0,0:0:0:0:
420,88,143291,6,0,B|379:98|337:83|337:83|296:66|259:76,1,160.000006103516,4|0,0:0|0:0,0:0:0:0:
40,198,143583,2,0,P|78:207|122:198,1,80.0000030517579,4|0,0:3|3:0,0:0:0:0:
184,151,143777,1,0,0:0:0:0:
184,151,143874,2,0,L|165:312,1,160.000006103516,8|0,0:0|0:0,0:0:0:0:
300,307,144165,2,0,B|280:301|258:285|258:285|236:299|224:323|224:323|201:310|164:309,1,160.000006103516
325,227,144456,6,0,B|366:204|366:204|382:144|340:99,1,160.000006103516,6|0,0:0|0:0,0:0:0:0:
110,231,144748,2,0,B|93:275|93:275|153:291|197:250,1,160.000006103516,4|0,0:3|0:0,0:0:0:0:
300,307,145039,1,8,0:0:0:0:
104,182,145233,1,0,0:0:0:0:
110,231,145330,1,0,0:0:0:0:
371,58,145524,1,0,0:0:0:0:
367,132,145622,6,0,B|478:121|478:121|460:168,1,160.000006103516,4|0,0:0|0:0,0:0:0:0:
300,307,145913,2,0,P|283:282|284:234,1,80.0000030517579,4|0,0:3|3:0,0:0:0:0:
365,344,146107,1,0,0:0:0:0:
300,307,146204,2,0,L|137:317,1,160.000006103516,8|0,0:0|0:0,0:0:0:0:
69,190,146495,2,0,P|9:212|74:231,1,160.000006103516
284,233,146787,6,0,P|205:178|205:121,1,160.000006103516,6|0,0:0|0:0,0:0:0:0:
387,343,147078,2,0,B|441:330|441:330|416:314,1,85.3333333333333,4|0,0:3|0:0,0:0:0:0:
284,151,147369,2,0,P|205:206|205:263,1,160.000006103516,8|0,0:0|0:0,0:0:0:0:
387,40,147660,2,0,B|441:52|441:52|416:68,1,85.3333333333333,0|0,0:0|0:0,0:0:0:0:
107,192,147952,5,4,0:0:0:0:
107,192,148146,1,0,0:0:0:0:
190,175,148243,1,4,0:3:0:0:
190,175,148437,1,0,0:0:0:0:
263,218,148534,2,0,B|323:231|323:231|384:203,1,127.99999609375,8|0,0:0|0:0,0:0:0:0:
465,225,148825,1,0,0:0:0:0:
183,291,149020,1,0,0:0:0:0:
186,258,149117,5,6,0:0:0:0:
325,80,149311,1,0,0:0:0:0:
327,126,149408,1,4,0:3:0:0:
140,304,149602,1,0,0:0:0:0:
144,241,149699,1,8,0:0:0:0:
367,66,149893,1,0,0:0:0:0:
369,139,149990,1,0,0:0:0:0:
97,317,150185,1,0,0:0:0:0:
102,224,150282,6,0,L|305:243,1,191.999994140625,4|4,0:0|0:3,0:0:0:0:
454,142,150767,1,0,0:0:0:0:
420,209,150864,2,0,B|408:238|423:269|423:269|438:252,1,85.3333333333333,8|0,0:0|0:0,0:0:0:0:
434,68,151155,2,0,B|451:53|451:53|420:38|391:50,1,85.3333333333333,8|0,0:0|0:0,0:0:0:0:
276,71,151447,6,0,B|213:53|213:53|185:97|212:143,1,160.000006103516,6|0,0:0|0:0,0:0:0:0:
350,269,151738,2,0,B|397:224|397:224|373:178|320:178,1,160.000006103516,4|0,0:3|0:0,0:0:0:0:
141,235,152030,2,0,B|157:298|157:298|209:300|235:254,1,160.000006103516,8|0,0:0|0:0,0:0:0:0:
276,71,152321,1,0,0:0:0:0:
118,122,152466,1,0,0:0:0:0:
445,169,152612,6,0,B|376:150|376:150|291:193|291:193|221:175,1,240.000009155274,4|4,0:0|0:3,0:0:0:0:
33,271,153049,6,0,P|126:320|142:256,1,200.000007629395,0|0,0:0|3:0,0:0:0:0:
118,122,153389,1,0,0:0:0:0:
118,122,153486,2,0,B|130:171|130:171|20:171,1,160.000006103516,0|0,0:0|0:0,0:0:0:0:
279,344,153777,6,0,B|259:259|259:259|297:266|331:260,1,160.000006103516,6|0,0:0|0:0,0:0:0:0:
461,116,154068,2,0,B|481:201|481:201|443:194|408:199,1,160.000006103516,4|0,0:3|0:0,0:0:0:0:
121,342,154359,2,0,B|162:329|199:342|199:342|239:355|278:344,1,160.000006103516,8|0,0:0|0:0,0:0:0:0:
461,116,154651,2,0,B|420:129|383:116|383:116|343:103|304:114,1,160.000006103516,0|0,0:0|0:0,0:0:0:0:
78,266,154942,5,4,0:0:0:0:
78,266,155136,1,0,0:0:0:0:
38,192,155233,1,4,0:3:0:0:
38,192,155427,1,0,0:0:0:0:
78,118,155524,1,8,0:0:0:0:
78,118,155719,1,0,0:0:0:0:
118,192,155816,2,0,B|157:206|196:190|196:190|235:177|274:191,1,160.000006103516,4|0,0:3|0:0,0:0:0:0:
280,298,156107,6,0,L|274:188,1,106.666666666667,6|4,0:0|0:0,0:0:0:0:
392,100,156398,2,0,B|419:84|419:84|364:78,1,85.3333333333333,4|0,0:3|0:0,0:0:0:0:
261,184,156689,2,0,L|268:327,1,127.99999609375,8|0,0:0|0:0,0:0:0:0:
356,62,156981,2,0,B|417:68|417:68|391:84,1,85.3333333333333,0|0,0:0|0:0,0:0:0:0:
109,151,157272,5,4,0:0:0:0:
403,151,157466,2,0,P|415:192|399:242,1,95.9999970703126,4|0,0:3|0:0,0:0:0:0:
138,338,157855,2,0,L|146:231,1,106.666666666667,8|0,0:0|0:0,0:0:0:0:
98,164,158146,1,0,0:0:0:0:
177,139,158340,5,0,0:0:0:0:
98,164,158437,1,6,0:0:0:0:
256,164,158631,1,0,0:0:0:0:
177,139,158728,1,4,0:3:0:0:
335,139,158922,1,0,0:0:0:0:
256,164,159019,1,8,0:0:0:0:
414,164,159214,1,0,0:0:0:0:
335,139,159311,1,0,0:0:0:0:
79,76,159505,5,0,0:0:0:0:
98,164,159602,1,4,0:0:0:0:
433,76,159796,1,0,0:0:0:0:
414,164,159893,1,4,0:3:0:0:
256,364,160088,1,0,0:0:0:0:
256,364,160185,5,8,0:0:0:0:
231,317,160282,1,0,0:0:0:0:
235,264,160379,1,0,0:0:0:0:
263,219,160476,1,8,0:0:0:0:
288,172,160573,1,0,0:0:0:0:
297,120,160670,1,0,0:0:0:0:
287,68,160767,6,0,B|214:94|137:79|137:79|154:123|154:178|127:226|127:226|182:210|255:204|337:230,2,512,6|0|0,0:0|0:0|0:0,0:0:0:0:
287,68,163291,5,0,0:0:0:0:
287,68,163389,2,0,L|282:140,1,63.9999980468751,0|0,0:0|3:0,0:0:0:0:
331,228,163680,2,0,L|326:291,1,63.9999980468751,8|0,0:0|3:0,0:0:0:0:
205,67,163971,2,0,L|200:130,1,63.9999980468751,0|0,0:0|3:0,0:0:0:0:
242,312,164262,6,0,L|249:227,1,85.3333333333333,6|0,0:0|3:0,0:0:0:0:
118,129,164554,2,0,L|127:19,1,106.666666666667,4|0,0:3|0:0,0:0:0:0:
156,353,164845,2,0,L|167:226,1,127.99999609375,8|0,0:0|0:0,0:0:0:0:
44,20,165136,1,0,0:0:0:0:
41,56,165233,1,0,0:0:0:0:
38,91,165330,1,0,0:0:0:0:
36,127,165427,1,4,0:0:0:0:
256,192,165524,12,0,169214,0:0:0:0:
418,289,169408,5,0,0:0:0:0:
428,332,169505,2,0,P|373:342|322:326,1,106.666666666667,8|0,0:0|0:0,0:0:0:0:
256,284,169796,2,0,P|219:241|208:189,1,106.666666666667,0|0,0:0|0:0,0:0:0:0:
238,98,170088,6,0,L|123:112,1,106.666666666667,4|0,0:0|0:0,0:0:0:0:
55,123,170379,1,4,0:3:0:0:
238,98,170573,1,0,0:0:0:0:
301,42,170670,2,0,B|320:82|320:82|313:143,1,106.666666666667,8|0,0:0|0:0,0:0:0:0:
313,221,170961,2,0,P|359:228|417:210,1,106.666666666667,0|0,0:0|0:0,0:0:0:0:
322,309,171253,6,0,P|277:299|231:253,1,106.666666666667,6|0,0:0|0:0,0:0:0:0:
189,192,171544,2,0,P|175:148|191:85,1,106.666666666667,4|0,0:3|0:0,0:0:0:0:
359,49,171835,2,0,B|324:43|324:43|302:50|302:50|265:44,1,95.9999970703126,8|0,0:0|0:0,0:0:0:0:
274,286,172418,6,0,L|389:272,1,106.666666666667,4|0,0:0|0:0,0:0:0:0:
457,261,172709,1,4,0:3:0:0:
274,286,172903,1,0,0:0:0:0:
211,342,173000,2,0,B|192:302|192:302|199:241,1,106.666666666667,8|0,0:0|0:0,0:0:0:0:
199,163,173291,2,0,P|153:156|95:174,1,106.666666666667,0|0,0:0|0:0,0:0:0:0:
190,75,173583,6,0,P|235:85|281:131,1,106.666666666667,6|0,0:0|0:0,0:0:0:0:
323,192,173874,2,0,P|337:236|321:299,1,106.666666666667,4|0,0:3|0:0,0:0:0:0:
153,335,174165,1,8,0:0:0:0:
96,173,174359,1,0,0:0:0:0:
101,217,174456,1,0,0:0:0:0:
416,173,174651,1,0,0:0:0:0:
411,217,174748,5,4,0:0:0:0:
227,238,174942,2,0,P|249:268|286:238,1,95.9999970703126,0|0,0:0|0:0,0:0:0:0:
203,60,175330,2,0,P|175:78|155:102,1,63.9999980468751,8|0,0:0|0:0,0:0:0:0:
356,101,175622,2,0,P|335:77|309:60,1,63.9999980468751,0|0,0:0|0:0,0:0:0:0:
256,121,175913,5,6,0:0:0:0:
226,343,176107,1,0,0:0:0:0:
226,343,176204,2,0,P|256:348|289:342,1,63.9999980468751,4|0,0:3|0:0,0:0:0:0:
285,238,176495,2,0,P|263:268|226:238,1,95.9999970703126,8|0,0:0|0:0,0:0:0:0:
405,189,176981,1,0,0:0:0:0:
405,189,177078,6,0,B|416:213|416:213|406:254,1,63.9999980468751,4|0,0:0|0:0,0:0:0:0:
259,91,177369,2,0,L|376:81,1,106.666666666667,4|0,0:3|0:0,0:0:0:0:
155,109,177660,2,0,B|144:85|144:85|154:44,1,63.9999980468751,8|0,0:0|0:0,0:0:0:0:
198,205,177952,2,0,L|91:195,1,106.666666666667,0|0,0:0|0:0,0:0:0:0:
326,285,178243,5,6,0:0:0:0:
240,201,178437,1,0,0:0:0:0:
198,205,178534,1,4,0:3:0:0:
142,351,178728,1,0,0:0:0:0:
137,302,178825,1,8,0:0:0:0:
384,279,179020,1,0,0:0:0:0:
326,285,179117,1,0,0:0:0:0:
346,64,179311,1,0,0:0:0:0:
351,135,179408,5,4,0:0:0:0:
99,93,179893,1,0,0:0:0:0:
225,114,180282,1,0,0:0:0:0:
102,302,180573,2,0,P|143:265|213:259,1,127.99999609375,6|0,0:0|3:0,0:0:0:0:
374,312,181058,2,0,P|328:324|284:308,1,95.9999970703126,0|0,0:0|3:0,0:0:0:0:
323,177,181447,2,0,P|320:208|329:239,1,63.9999980468751,0|0,0:0|3:0,0:0:0:0:
374,312,181738,5,4,0:0:0:0:
323,177,181932,2,0,L|327:81,1,95.9999970703126,0|0,0:0|0:0,0:0:0:0:
235,54,182321,2,0,L|233:118,1,63.9999980468751,8|0,0:0|0:0,0:0:0:0:
232,150,182612,1,0,0:0:0:0:
137,308,182903,6,0,P|70:269|151:243,1,191.999994140625,6|0,0:0|3:0,0:0:0:0:
