osu file format v14

[General]
AudioFilename: audio.mp3
AudioLeadIn: 0
PreviewTime: 141529
Countdown: 0
SampleSet: None
StackLeniency: 0.3
Mode: 0
LetterboxInBreaks: 0
EpilepsyWarning: 1
WidescreenStoryboard: 1

[Editor]
DistanceSpacing: 1
BeatDivisor: 3
GridSize: 8
TimelineZoom: 1.7

[Metadata]
Title:Aun no Beats
TitleUnicode:阿吽のビーツ
Artist:isubokuro
ArtistUnicode:いすぼくろ
Creator:Beren
Version:Normal
Source:
Tags:cover lobelia buhei SUNRISE vivicat japanese novelty utaite v flower 羽生まゐご 羽生迷子 maigo hanyuu
BeatmapID:2444030
BeatmapSetID:1153984

[Difficulty]
HPDrainRate:3
CircleSize:3
OverallDifficulty:3
ApproachRate:5
SliderMultiplier:1
SliderTickRate:1

[Events]
//Background and Video events
0,0,"IMG_9841(20200419-094607).jpg",0,0
//Break Periods
2,57078,62868
2,103680,111800
//Storyboard Layer 0 (Background)
//Storyboard Layer 1 (Fail)
//Storyboard Layer 2 (Pass)
//Storyboard Layer 3 (Foreground)
Sprite,Foreground,Centre,"SB\bg.jpg",320,240 F,0,559,1141,0,1 S,0,1141,,0.6944515 F,0,1141,10170,1
Sprite,Foreground,Centre,"SB\bg.jpg",320,240 F,0,160753,181238,1
Sprite,Foreground,Centre,"SB\IMG_9830(20200419-094321).JPG",320,240 M,0,9879,,295.2258,247.4322 S,0,9879,,0.513 F,0,9879,10170,0,1 F,0,10170,,1 M,0,19782,19976,295.2258,249.0838,-630.5033,249.0838
Sprite,Foreground,Centre,"SB\1.JPG",320,240 S,0,19782,,0.6118709 M,0,19782,19976,1266.374,325.058,346.6242,325.058 M,0,19976,38423,346.6242,325.058,286.9678,325.058 F,0,38423,,1 M,0,38423,38617,286.9678,325.058,-570.2194,326.7097
Sprite,Foreground,Centre,"SB\1.png",320,240 M,0,1141,,295.2258,291.2 F,0,1141,1432,1,0 S,0,1141,1432,1,1.057
Sprite,Foreground,Centre,"SB\1.png",320,240 M,0,1432,,295.2258,291.2 F,0,1432,1723,1,0 S,0,1432,1723,1,1.057
Sprite,Foreground,Centre,"SB\1.png",320,240 M,0,3471,,295.2258,291.2 F,0,3471,3762,1,0 S,0,3471,3762,1,1.057
Sprite,Foreground,Centre,"SB\1.png",320,240 M,0,3762,,295.2258,291.2 F,0,3762,4053,1,0 S,0,3762,4053,1,1.057
Sprite,Foreground,Centre,"SB\1.png",320,240 M,0,5801,,295.2258,291.2 F,0,5801,6092,1,0 S,0,5801,6092,1,1.057
Sprite,Foreground,Centre,"SB\1.png",320,240 M,0,6092,,295.2258,291.2 F,0,6092,6383,1,0 S,0,6092,6383,1,1.057
Sprite,Foreground,Centre,"SB\1.png",320,240 M,0,8325,,295.2258,291.2 F,0,8325,8520,1,0 S,0,8325,8520,1,1.057
Sprite,Foreground,Centre,"SB\1.png",320,240 M,0,8131,,295.2258,291.2 F,0,8131,8326,1,0 S,0,8131,8326,1,1.057
Sprite,Foreground,Centre,"SB\1.png",320,240 M,0,8520,,295.2258,291.2 F,0,8520,8715,1,0 S,0,8520,8715,1,1.057
Sprite,Foreground,Centre,"SB\1.png",320,240 M,0,8714,,295.2258,291.2 F,0,8714,8909,1,0 S,0,8714,8909,1,1.057
Sprite,Foreground,Centre,"SB\1.png",320,240 M,0,8908,,295.2258,291.2 F,0,8908,9103,1,0 S,0,8908,9103,1,1.057
Sprite,Foreground,Centre,"SB\1.png",320,240 M,0,9102,,295.2258,291.2 F,0,9102,9297,1,0 S,0,9102,9297,1,1.057
Sprite,Foreground,Centre,"SB\1.png",320,240 M,0,9296,,295.2258,291.2 F,0,9296,9491,1,0 S,0,9296,9491,1,1.057
Sprite,Foreground,Centre,"SB\1.png",320,240 M,0,9491,,295.2258,291.2 F,0,9491,9686,1,0 S,0,9491,9686,1,1.057
Sprite,Foreground,Centre,"SB\1.png",320,240 M,0,9685,,295.2258,291.2 F,0,9685,9880,1,0 S,0,9685,9880,1,1.057
Sprite,Foreground,Centre,"SB\1.png",320,240 M,0,9879,,295.2258,291.2 F,0,9879,10074,1,0 S,0,9879,10074,1,1.057
Sprite,Foreground,Centre,"SB\1.png",320,240 M,0,17452,,408.3613,233.3936 F,0,17452,17647,1,0 S,0,17452,17647,1,1.057
Sprite,Foreground,Centre,"SB\1.png",320,240 M,0,17646,,408.3613,233.3936 F,0,17646,17841,1,0 S,0,17646,17841,1,1.057
Sprite,Foreground,Centre,"SB\1.png",320,240 M,0,17840,,408.3613,233.3936 F,0,17840,18035,1,0 S,0,17840,18035,1,1.057
Sprite,Foreground,Centre,"SB\1.png",320,240 M,0,18034,,408.3613,233.3936 F,0,18034,18229,1,0 S,0,18034,18229,1,1.057
Sprite,Foreground,Centre,"SB\1.png",320,240 M,0,18228,,408.3613,233.3936 F,0,18228,18423,1,0 S,0,18228,18423,1,1.057
Sprite,Foreground,Centre,"SB\1.png",320,240 M,0,18423,,408.3613,233.3936 F,0,18423,18618,1,0 S,0,18423,18618,1,1.057
Sprite,Foreground,Centre,"SB\1.png",320,240 M,0,18617,,408.3613,233.3936 F,0,18617,18812,1,0 S,0,18617,18812,1,1.057
Sprite,Foreground,Centre,"SB\1.png",320,240 M,0,18811,,408.3613,233.3936 F,0,18811,19006,1,0 S,0,18811,19006,1,1.057
Sprite,Foreground,Centre,"SB\1.png",320,240 M,0,19005,,408.3613,233.3936 F,0,19005,19200,1,0 S,0,19005,19200,1,1.057
Sprite,Foreground,Centre,"SB\1.png",320,240 M,0,19199,,408.3613,233.3936 F,0,19199,19394,1,0 S,0,19199,19394,1,1.057
Sprite,Foreground,Centre,"SB\1.png",320,240 M,0,19393,,408.3613,233.3936 F,0,19393,19588,1,0 S,0,19393,19588,1,1.057
Sprite,Foreground,Centre,"SB\1.png",320,240 M,0,19588,,408.3613,233.3936 F,0,19588,19783,1,0 S,0,19588,19783,1,1.057
Sprite,Foreground,Centre,"SB\4.JPG",320,240 M,0,66384,66578,1237.471,372.9548,335.6903,375.4323 M,0,66578,,335.6903,375.4323 S,0,66578,,0.5045162 M,0,66578,85025,335.6903,375.4323,285.3161,374.6064 F,0,85025,,1 M,0,85025,85219,285.3161,374.6064,-596.6451,373.7806
Sprite,Foreground,Centre,"SB\8.JPG",320,240 F,0,122306,,1 M,0,122306,122500,1246.555,318.4516,335.6904,320.929 S,0,122500,,0.5292903 M,0,122500,142112,335.6904,320.929,272.1033,321.7548 M,0,142112,142306,272.1033,321.7548,-612.3354,321.7548
Sprite,Foreground,Centre,"SB\1.png",320,240 R,0,1141,,0 F,0,1141,1238,0,1 F,0,1238,9879,1 M,0,8423,,295.2258,291.2 F,0,9879,10170,1,0 M,0,17452,,408.3613,233.3936 F,0,17452,19782,1
Sprite,Foreground,Centre,"SB\2.png",320,240 M,0,17452,17646,435.6129,185.4968
Sprite,Foreground,Centre,"SB\3.png",320,240 M,0,17646,17840,435.6129,186.3226
Sprite,Foreground,Centre,"SB\4.png",320,240 M,0,17840,18034,437.2645,184.671
Sprite,Foreground,Centre,"SB\5.png",320,240 M,0,18034,18228,436.4388,184.671
Sprite,Foreground,Centre,"SB\6.png",320,240 M,0,18228,18423,435.6129,183.8452
Sprite,Foreground,Centre,"SB\7.png",320,240 M,0,18423,18617,435.6129,181.3678
Sprite,Foreground,Centre,"SB\8.png",320,240 M,0,18617,18811,434.7871,181.3678
Sprite,Foreground,Centre,"SB\9.png",320,240 M,0,18811,19005,433.9613,180.542
Sprite,Foreground,Centre,"SB\11.png",320,240 M,0,19005,19199,433.1355,180.5419
Sprite,Foreground,Centre,"SB\12.png",320,240 M,0,19199,19393,433.1355,183.0193
Sprite,Foreground,Centre,"SB\13.png",320,240 M,0,19393,19588,430,182 S,0,19491,,0.727
Sprite,Foreground,Centre,"SB\14.png",320,240 S,0,19588,,0.727 M,0,19588,19782,430,182
Sprite,Foreground,Centre,"SB\15.png",320,240 F,0,1141,1238,0,1 F,0,1238,3180,1 F,0,3180,3471,1,0
Sprite,Foreground,Centre,"SB\16.png",320,240 F,0,3471,3568,0,1 F,0,3568,5219,1 F,0,5219,5510,1,0
Sprite,Foreground,Centre,"SB\17.png",320,240 F,0,5801,5898,0,1 F,0,5898,7840,1 F,0,7840,8131,1,0
Sprite,Foreground,Centre,"SB\IMG_9830(20200419-094321).JPG",320,240 M,0,10461,,295.2258,247.4322 F,0,10461,10753,1,0 S,0,10461,10753,0.513,0.525
Sprite,Foreground,Centre,"SB\IMG_9830(20200419-094321).JPG",320,240 M,0,10753,,295.2258,247.4322 F,0,10753,11045,1,0 S,0,10753,11045,0.513,0.525
Sprite,Foreground,Centre,"SB\IMG_9830(20200419-094321).JPG",320,240 M,0,12792,,295.2258,247.4322 F,0,12792,13084,1,0 S,0,12792,13084,0.513,0.525
Sprite,Foreground,Centre,"SB\IMG_9830(20200419-094321).JPG",320,240 M,0,13083,,295.2258,247.4322 F,0,13083,13375,1,0 S,0,13083,13375,0.513,0.525
Sprite,Foreground,Centre,"SB\IMG_9830(20200419-094321).JPG",320,240 M,0,15122,,295.2258,247.4322 F,0,15122,15414,1,0 S,0,15122,15414,0.513,0.525
Sprite,Foreground,Centre,"SB\IMG_9830(20200419-094321).JPG",320,240 M,0,15413,,295.2258,247.4322 F,0,15413,15705,1,0 S,0,15413,15705,0.513,0.525
Sprite,Foreground,Centre,"SB\2.png",320,240 F,0,8131,8325,1
Sprite,Foreground,Centre,"SB\4.png",320,240 F,0,8520,8714,1
Sprite,Foreground,Centre,"SB\6.png",320,240 F,0,8908,9102,1
Sprite,Foreground,Centre,"SB\7.png",320,240 F,0,9102,9296,1
Sprite,Foreground,Centre,"SB\9.png",320,240 F,0,9491,9685,1
Sprite,Foreground,Centre,"SB\11.png",320,240 F,0,9685,9879,1
Sprite,Foreground,Centre,"SB\12.png",320,240 F,0,9879,10170,1,0
Sprite,Foreground,Centre,"SB\3.JPG",320,240 M,0,93762,93957,1259.342,244.129,314.6189,244.9548 M,0,93957,103083,314.6189,244.9548,274.1544,244.129 S,0,94054,,0.5127741 M,0,103083,103277,274.1544,244.129,-625.9746,243.3032
Sprite,Foreground,Centre,"IMG_9841(20200419-094607).jpg",320,240 M,0,142112,142306,1270.503,262.2968,381.9355,256.5161 S,0,142306,,0.5045161 M,0,142306,163665,381.9355,256.5161,270.4516,257.3419 F,0,160753,163665,1,0
Sprite,Foreground,Centre,"SB\9.jpg",320,240 M,0,56481,56675,1234.994,274.6839,320.0001,273.8581 S,0,56675,,0.4054193 M,0,56675,66384,320.0001,273.8581,282.013,273.0323 F,0,66384,,1 M,0,66384,66578,282.013,273.0323,-588.3871,273.0323
Sprite,Foreground,Centre,"SB\11.JPG",320,240 M,0,103083,103277,1247.38,295.329,342.2968,298.6323 S,0,103277,,0.5127742 M,0,103277,112986,342.2968,298.6323,309.2645,299.4581 M,0,112986,113180,309.2645,299.4581,-605.7291,299.4581
Sprite,Foreground,Centre,"SB\6.jpg",320,240 M,0,112986,113180,1251.51,245.7806,348.0774,246.6064 M,0,113180,122306,348.0774,246.6064,311.7419,247.4323 S,0,113568,,0.4962581 M,0,122306,122500,311.7419,247.4323,-590.0387,249.9097
Sprite,Foreground,Centre,"SB\7.jpg",320,240 S,0,38423,,0.4962581 M,0,38423,38617,1238.607,241.2482,340.955,238.7708 M,0,38617,47160,340.955,238.7708,295.5357,239.5966 M,0,47160,47355,295.5357,239.5966,-550.9159,241.2482
Sprite,Foreground,Centre,"SB\2.jpg",320,240 M,0,47160,47355,1255.152,304.4786,357.5,302.0012 S,0,47355,,0.5127742 M,0,47355,56481,357.5,302.0012,303.8226,302.0012 M,0,56481,56675,303.8226,302.0012,-574.8355,302.0012
Sprite,Foreground,Centre,"SB\12.jpg",320,240 M,0,85025,85219,1252.059,285.4377,322.2012,286.2635 S,0,85219,,0.4384515 M,0,85219,93762,322.2012,286.2635,289.9948,287.9151 M,0,93762,93957,289.9948,287.9151,-660.5047,287.9149
Sprite,Foreground,Centre,"SB\19.png",320,240 F,0,19782,19879,0,1 F,0,19879,21626,1 M,0,19976,,167.2258,381.213 F,0,21626,21821,1,0
Sprite,Foreground,Centre,"SB\21.png",320,240 F,0,22015,22112,0,1 F,0,22112,23859,1 M,0,22694,,464.5161,332.4903 F,0,23859,24054,1,0
Sprite,Foreground,Centre,"SB\22.png",320,240 F,0,24345,24442,0,1 F,0,24442,28228,1 M,0,25025,,157.3161,226.7871 F,0,28228,28423,1,0.02141937
Sprite,Foreground,Centre,"SB\23.png",320,240 F,0,29102,29199,0.009032135,1 F,0,29199,30947,1 M,0,29685,,152.3613,391.1226 F,0,30947,31141,1,0
Sprite,Foreground,Centre,"SB\24.png",320,240 F,0,31432,31529,0,1 F,0,31529,33180,1 M,0,31724,,485.9871,303.5871 F,0,33180,33374,1,0
Sprite,Foreground,Centre,"SB\25.png",320,240 F,0,33665,33762,0.04619354,1 F,0,33762,36675,1 F,0,36675,36869,1,0
Sprite,Foreground,Centre,"SB\1.png",320,240 M,0,37743,,70.60646,369.6516 S,0,37743,,0.7770321 F,0,38423,,1
Sprite,Foreground,Centre,"SB\4.png",320,240 M,0,37743,37937,86.29679,330.0129
Sprite,Foreground,Centre,"SB\3.png",320,240 M,0,37937,38131,87.9484,334.9677
Sprite,Foreground,Centre,"SB\26.png",320,240 M,0,38131,38423,87.94839,333.3161
Sprite,Foreground,Centre,"SB\27.png",320,240 F,0,38423,38520,0.000774231,1 F,0,38520,40461,1 M,0,38714,,208.5161,214.4 F,0,40461,40656,1,0.004903183
Sprite,Foreground,Centre,"SB\28.png",320,240 F,0,40753,40850,0,1 F,0,40850,42792,1 M,0,41335,,144.1033,383.6903 F,0,42792,42986,1,0.004903183
Sprite,Foreground,Centre,"SB\29.png",320,240 F,0,43083,43180,0,1 F,0,43180,43957,1 M,0,43665,,545.4452,214.4 F,0,43957,44151,1,0
Sprite,Foreground,Centre,"SB\31.png",320,240 F,0,44248,44345,0,1 F,0,44345,44830,1 M,0,44539,,87.94839,218.529 F,0,44830,45025,1,0
Sprite,Foreground,Centre,"SB\32.png",320,240 F,0,45316,45413,0,1 F,0,45413,46869,1 M,0,45704,,530.5807,215.2258 F,0,46869,47063,1,0
Sprite,Foreground,Centre,"SB\1.png",320,240 F,0,47160,47258,0,1 F,0,47258,47549,1 M,0,47549,,73.90966,362.2194 S,0,47549,,0.7027097 F,0,47549,47743,1,0
Sprite,Foreground,Centre,"SB\33.png",320,240 F,0,47160,47258,0,1 F,0,47258,47549,1 M,0,47549,,88.77418,325.8839 F,0,47549,47743,1,0
Sprite,Foreground,Centre,"SB\34.png",320,240 F,0,47743,47840,0,1 F,0,47840,49491,1 M,0,48034,,243.2,104.5677 F,0,49491,49685,1,0
Sprite,Foreground,Centre,"SB\35.png",320,240 F,0,49976,50073,0,1 F,0,50073,52112,1 M,0,50364,,458.7355,337.4452 F,0,52112,52306,1,0
Sprite,Foreground,Centre,"SB\1.png",320,240 F,0,53180,53277,0,1 F,0,53277,56190,1 M,0,53859,,59.04514,344.8774 F,0,56190,56481,1,0
Sprite,Foreground,Centre,"SB\36.png",320,240 F,0,53180,53277,0,1 F,0,53277,53859,1 M,0,53859,,84.64516,301.9354 F,0,53859,54054,1,0
Sprite,Foreground,Centre,"SB\37.png",320,240 F,0,54151,54248,0,1 F,0,54248,56190,1 M,0,54345,,86.29677,299.4581 F,0,56190,56481,1,0
Sprite,Foreground,Centre,"SB\1.png",320,240 M,0,64054,,483.5097,257.342 F,0,66384,,1
Sprite,Foreground,Centre,"SB\1.png",320,240 M,0,64054,,483.5097,257.342 F,0,64054,64249,1,0 S,0,64054,64249,1,1.057
Sprite,Foreground,Centre,"SB\1.png",320,240 M,0,64248,,483.5097,257.342 F,0,64248,64443,1,0 S,0,64248,64443,1,1.057
Sprite,Foreground,Centre,"SB\1.png",320,240 M,0,64442,,483.5097,257.342 F,0,64442,64637,1,0 S,0,64442,64637,1,1.057
Sprite,Foreground,Centre,"SB\1.png",320,240 M,0,64636,,483.5097,257.342 F,0,64636,64831,1,0 S,0,64636,64831,1,1.057
Sprite,Foreground,Centre,"SB\1.png",320,240 M,0,64830,,483.5097,257.342 F,0,64830,65025,1,0 S,0,64830,65025,1,1.057
Sprite,Foreground,Centre,"SB\1.png",320,240 M,0,65025,,483.5097,257.342 F,0,65025,65220,1,0 S,0,65025,65220,1,1.057
Sprite,Foreground,Centre,"SB\1.png",320,240 M,0,65219,,483.5097,257.342 F,0,65219,65414,1,0 S,0,65219,65414,1,1.057
Sprite,Foreground,Centre,"SB\1.png",320,240 M,0,65413,,483.5097,257.342 F,0,65413,65608,1,0 S,0,65413,65608,1,1.057
Sprite,Foreground,Centre,"SB\1.png",320,240 M,0,65607,,483.5097,257.342 F,0,65607,65802,1,0 S,0,65607,65802,1,1.057
Sprite,Foreground,Centre,"SB\1.png",320,240 M,0,65801,,483.5097,257.342 F,0,65801,65996,1,0 S,0,65801,65996,1,1.057
Sprite,Foreground,Centre,"SB\1.png",320,240 M,0,65995,,483.5097,257.342 F,0,65995,66190,1,0 S,0,65995,66190,1,1.057
Sprite,Foreground,Centre,"SB\1.png",320,240 M,0,66190,,483.5097,257.342 F,0,66190,66385,1,0 S,0,66190,66385,1,1.057
Sprite,Foreground,Centre,"SB\2.png",320,240 M,0,64054,64248,508.2839,208.6194
Sprite,Foreground,Centre,"SB\3.png",320,240 M,0,64248,64442,508.2839,208.6194
Sprite,Foreground,Centre,"SB\4.png",320,240 M,0,64442,64636,509.1097,209.4452
Sprite,Foreground,Centre,"SB\5.png",320,240 M,0,64636,64830,508.2838,209.4452
Sprite,Foreground,Centre,"SB\6.png",320,240 M,0,64830,65025,507.4581,209.4452
Sprite,Foreground,Centre,"SB\7.png",320,240 M,0,65025,65219,507.4581,208.6194
Sprite,Foreground,Centre,"SB\8.png",320,240 M,0,65219,65413,505.8065,208.6194
Sprite,Foreground,Centre,"SB\9.png",320,240 M,0,65413,65607,506.6323,208.6194
Sprite,Foreground,Centre,"SB\11.png",320,240 M,0,65607,65801,506.6323,208.6194
Sprite,Foreground,Centre,"SB\12.png",320,240 M,0,65801,65995,506.6323,210.271
Sprite,Foreground,Centre,"SB\13.png",320,240 M,0,65995,66190,505,206 S,0,66190,,0.727
Sprite,Foreground,Centre,"SB\14.png",320,240 M,0,66190,66384,505,206 S,0,66384,,0.727
Sprite,Foreground,Centre,"SB\5.png",320,240 M,0,8714,8908,320,240
Sprite,Foreground,Centre,"SB\3.png",320,240 M,0,8325,8520,320,240
Sprite,Foreground,Centre,"SB\8.png",320,240 M,0,9296,9491,320,240
Sprite,Foreground,Centre,"SB\bg.jpg",320,240 S,0,76772,,0.6531613 F,0,76772,76869,0,1 F,0,76869,77743,1 F,0,77743,77937,1,0
Sprite,Foreground,Centre,"SB\bg.jpg",320,240 M,0,79102,,320,240 F,0,79102,79199,0,1 F,0,79199,80073,1 F,0,80073,80267,1,0
Sprite,Foreground,Centre,"SB\38.png",320,240 F,0,66384,66481,0,1 F,0,66481,69588,1 M,0,66578,,462.0387,254.8645 F,0,69588,69782,1,0
Sprite,Foreground,Centre,"SB\39.png",320,240 M,0,71044,,55.74194,253.2129 F,0,71044,71141,0,1 F,0,71141,73957,1 F,0,73957,74151,1,0
Sprite,Foreground,Centre,"SB\41.png",320,240 M,0,75122,,532.2323,325.8839 F,0,75122,75219,0.05445145,1 F,0,75219,76578,1 F,0,76578,76772,1,0
Sprite,Foreground,Centre,"SB\42.png",320,240 F,0,76772,76869,0,1 F,0,76869,77355,1 F,0,77355,77452,1,0
Sprite,Foreground,Centre,"SB\43.png",320,240 M,0,77937,,116.0258,168.1548 F,0,77937,78034,0,1 F,0,78034,78908,1 F,0,78908,79102,1,0
Sprite,Foreground,Centre,"SB\1.png",320,240 F,0,79102,79199,0,1 F,0,79199,79782,1 M,0,79491,,295.2258,290.3742 F,0,79782,79976,1,0
Sprite,Foreground,Centre,"SB\44.png",320,240 F,0,79102,79199,0,1 F,0,79199,79782,1 F,0,79782,79976,1,0
Sprite,Foreground,Centre,"SB\45.png",320,240 M,0,80267,,353.0323,268.0774 S,0,80267,,0.603613 F,0,80267,80364,0,1 F,0,80364,83568,1 F,0,83568,83762,1,0
Sprite,Foreground,Centre,"SB\4.png",320,240 S,0,84345,,0.8100644 M,0,84345,84539,545.4452,132.6452
Sprite,Foreground,Centre,"SB\3.png",320,240 S,0,84539,,0.7274841 M,0,84539,84733,543.7936,133.4709
Sprite,Foreground,Centre,"SB\46.png",320,240 S,0,84733,,0.6944513 M,0,84733,85025,538.0129,133.471
Sprite,Foreground,Centre,"SB\47.png",320,240 F,0,85025,85122,0,1 F,0,85122,87063,1 M,0,85219,,492.5936,342.4 F,0,87063,87258,1,0
Sprite,Foreground,Centre,"SB\48.png",320,240 M,0,87355,,163.0968,133.471 F,0,87355,87452,0,1 F,0,87452,89393,1 F,0,89393,89588,1,0
Sprite,Foreground,Centre,"SB\49.png",320,240 F,0,89685,89782,0,1 M,0,89782,,538.8387,177.2387 F,0,89782,90558,1 F,0,90558,90753,1,0
Sprite,Foreground,Centre,"SB\51.png",320,240 M,0,90850,,44.18063,322.5806 F,0,90850,90947,0,1 F,0,90947,91432,1 F,0,91432,91626,1,0
Sprite,Foreground,Centre,"SB\52.png",320,240 M,0,91918,,510.7613,216.8774 S,0,91918,,0.7605162 F,0,91918,92015,0,1 F,0,92015,93471,1 F,0,93471,93665,1,0
Sprite,Foreground,Centre,"SB\1.png",320,240 F,0,93762,93859,0,1 F,0,93859,94054,1 M,0,93957,,6.193552,381.213 S,0,93957,,0.5870969 F,0,94054,94248,1,0
Sprite,Foreground,Centre,"SB\33.png",320,240 F,0,93762,93859,0.0007740784,1 F,0,93859,94054,1 M,0,93957,,19.40644,349.8322 F,0,94054,94248,1,0
Sprite,Foreground,Centre,"SB\53.png",320,240 M,0,94345,,445.5226,273.0323 F,0,94345,94442,0,1 F,0,94442,96384,1 F,0,96384,96578,1,0
Sprite,Foreground,Centre,"SB\54.png",320,240 F,0,96675,96772,0,1 F,0,96772,98714,1 M,0,96966,,132.5419,390.2968 F,0,98714,98908,1,0
Sprite,Foreground,Centre,"SB\1.png",320,240 F,0,99879,99976,0,1 M,0,99976,,503.329,289.5485 F,0,99976,102792,1 F,0,102792,103083,1,0
Sprite,Foreground,Centre,"SB\36.png",320,240 F,0,99879,99976,0,1 M,0,99976,,528.1033,248.2581 F,0,99976,100461,1 F,0,100461,100656,1,0
Sprite,Foreground,Centre,"SB\55.png",320,240 F,0,100753,100850,0,1 F,0,100850,102792,1 M,0,101044,,530.5807,237.5226 S,0,101044,,0.9009032 F,0,102792,103083,1,0
Sprite,Foreground,Centre,"SB\heart.png",320,240 F,0,122306,122403,0,0.8 F,0,122403,125801,0.8,1 M,0,122597,,113.5484,378.7355 S,0,122597,,1.132129 R,0,122597,,-0.2807739 F,0,125801,125995,1,0
Sprite,Foreground,Centre,"SB\56.png",320,240 F,0,122306,122403,0,1 F,0,122403,125801,1 M,0,123180,,113.5484,244.9548 S,0,123180,,0.7522584 F,0,125801,125995,1,0
Sprite,Foreground,Centre,"SB\57.png",320,240 M,0,126092,,611.5097,145.858 S,0,126092,,0.8183226 F,0,126092,126190,0,1 F,0,126190,127840,1 F,0,127840,128034,1,0
Sprite,Foreground,Centre,"SB\58.png",320,240 M,0,128423,,99.50968,187.9742 S,0,128423,,0.7027097 F,0,128423,128520,0,1 F,0,128520,130461,1 F,0,130461,130656,1,0
Sprite,Foreground,Centre,"SB\59.png",320,240 M,0,131626,,602.4258,220.1806 S,0,131626,,0.6201291 F,0,131626,131724,0,1 F,0,131724,135122,1 F,0,135122,135316,1,0
Sprite,Foreground,Centre,"SB\61.png",320,240 M,0,135413,,51.61292,206.1419 S,0,135413,,0.5045161 F,0,135413,135510,0,1 F,0,135510,138908,1 F,0,138908,139102,1,0
Sprite,Foreground,Centre,"SB\1.png",320,240 F,0,141529,141626,0,1 F,0,141626,141821,1 M,0,141821,,69.78064,180.542 S,0,141821,,0.4632259 F,0,141821,142112,1,0
Sprite,Foreground,Centre,"SB\62.png",320,240 F,0,141529,141626,0,1 F,0,141626,141821,1 M,0,141821,,79.69034,155.7677 F,0,141821,142112,1,0
Sprite,Foreground,Centre,"SB\63.png",320,240 F,0,142112,142209,0,1 F,0,142209,146481,1 M,0,142403,,192,372.9548 F,0,146481,146675,1,0
Sprite,Foreground,Centre,"SB\29.png",320,240 M,0,146772,,92.90324,268.0774 F,0,146772,146869,0,1 F,0,146869,147646,1 F,0,147646,147840,1,0
Sprite,Foreground,Centre,"SB\64.png",320,240 M,0,147937,,591.6903,283.7678 F,0,147937,148034,0,1 F,0,148034,148520,1 F,0,148520,148714,1,0
Sprite,Foreground,Centre,"SB\65.png",320,240 F,0,149005,149102,0,1 M,0,149102,,78.03871,261.4709 F,0,149102,150558,1 F,0,150558,150753,1,0
Sprite,Foreground,Centre,"SB\1.png",320,240 M,0,150850,,548.7484,321.7549 S,0,150850,,0.6036127 F,0,150850,150947,0,1 F,0,150947,151141,1 F,0,151141,151432,1,0
Sprite,Foreground,Centre,"SB\33.png",320,240 F,0,150850,150947,0,1 F,0,150947,151141,1 M,0,151141,,562.7871,289.5484 F,0,151141,151432,1,0
Sprite,Foreground,Centre,"SB\34.png",320,240 F,0,151432,151529,0.03380631,1 F,0,151529,153180,1 M,0,152015,,165.5742,398.5548 F,0,153180,153374,1,0
Sprite,Foreground,Centre,"SB\66.png",320,240 M,0,153665,,462.0387,349.0065 F,0,153665,153762,0,1 F,0,153762,155801,1 F,0,155801,155995,1,0
Sprite,Foreground,Centre,"SB\1.png",320,240 F,0,156869,156966,0,1 F,0,156966,157549,1 M,0,157549,,484.3355,265.6 S,0,157549,,0.7935482 F,0,157549,157743,1,0
Sprite,Foreground,Centre,"SB\67.png",320,240 F,0,156869,156966,0,1 F,0,156966,157549,1 M,0,157549,,505.8065,225.1355 F,0,157549,157743,1,0
Sprite,Foreground,Centre,"SB\68.png",320,240 M,0,157840,,192,372.1291 F,0,157840,157937,0,1 F,0,157937,160753,1 F,0,160753,163374,1,0
Sprite,Foreground,Centre,"SB\69.png",320,240 M,0,165413,,320,240 F,0,165413,165510,0,1 F,0,165510,169782,1 F,0,169782,169976,1,0
Sprite,Foreground,Centre,"SB\1.png",320,240 F,0,174345,174442,0,1 F,0,174442,177646,1 F,0,177646,177840,1,0 M,0,177840,,296.0516,293.6774
Sprite,Foreground,Centre,"SB\bg.jpg",320,240 F,0,182889,184054,1 F,0,184054,184636,1,0
Sprite,Foreground,Centre,"SB\67.png",320,240 F,0,174345,174442,0,1 F,0,174442,177646,1 F,0,177646,177840,1,0
Sprite,Foreground,Centre,"SB\14.jpg",320,240 F,0,181141,181238,0,1 M,0,181141,183083,342.0452,268.0737,337.0082,267.9996 F,0,181238,182889,1 S,0,181432,,0.488 F,0,182889,183083,1,0
Sprite,Foreground,Centre,"SB\71.png",320,240 F,0,181141,181238,0,1 M,0,181238,,133.3678,257.3419 F,0,181238,182889,1 F,0,182889,183083,1,0
Sprite,Foreground,Centre,"SB\1111.png",320,240 F,0,1141,1238,0,1 S,0,1238,,0.4797419 F,0,1238,141529,1 F,0,141529,,1 F,0,141529,184054,1 F,0,184054,184636,1,0
Sprite,Foreground,Centre,"SB\72.png",320,240 F,0,182889,183083,0,1 F,0,183083,184054,1 F,0,184054,184636,1,0
//Storyboard Layer 4 (Overlay)
//Storyboard Sound Samples

[TimingPoints]
1156,291.26213592233,4,2,1,50,1,0
1737,-100,4,2,3,50,0,0
2028,-100,4,2,1,50,0,0
2902,-100,4,2,2,50,0,0
3388,-100,4,2,1,50,0,0
4067,-100,4,2,3,50,0,0
4358,-100,4,2,1,50,0,0
5232,-100,4,2,2,50,0,0
5718,-100,4,2,1,50,0,0
6397,-100,4,2,3,50,0,0
6688,-100,4,2,1,50,0,0
7562,-100,4,2,2,50,0,0
8048,-100,4,2,1,50,0,0
38437,-100,4,1,1,50,0,0
47465,-100,4,2,2,50,0,0
47756,-100,4,1,1,50,0,0
64068,-100,4,2,1,50,0,0
66980,-100,4,2,2,50,0,0
67271,-100,4,2,1,50,0,0
68145,-100,4,2,2,50,0,0
68436,-100,4,2,1,50,0,0
69310,-100,4,2,2,50,0,0
69601,-100,4,2,1,50,0,0
70475,-100,4,2,2,50,0,0
71057,-100,4,2,1,50,0,0
71640,-100,4,2,2,50,0,0
71931,-100,4,2,1,50,0,0
72805,-100,4,2,2,50,0,0
73096,-100,4,2,1,50,0,0
73970,-100,4,2,2,50,0,0
74261,-100,4,2,1,50,0,0
75135,-100,4,2,2,50,0,0
75718,-100,4,1,1,50,0,0
76786,-100,4,2,1,50,0,0
77466,-100,4,2,1,10,0,0
77757,-100,4,1,1,50,0,0
79116,-100,4,2,1,50,0,0
79796,-100,4,2,1,10,0,0
80087,-100,4,2,1,70,0,0
83776,-100,4,1,1,50,0,0
94067,-100,4,1,2,50,0,0
94358,-100,4,1,1,50,0,0
113000,-100,4,2,1,50,0,0
120281,-100,4,1,1,50,0,0
122320,-100,4,2,1,40,0,0
129310,-100,4,2,1,50,0,0
138631,-100,4,1,1,50,0,0
139796,-100,4,2,1,50,0,0
140670,-100,4,1,1,50,0,0
151154,-100,4,1,2,50,0,0
151446,-100,4,1,1,50,0,0
179892,-100,4,2,2,50,0,0
180572,-100,4,2,1,50,0,0
182611,-100,4,2,2,50,0,0

[Colours]
Combo1 : 171,205,239
Combo2 : 130,171,193
Combo3 : 141,206,211
Combo4 : 175,175,216
SliderTrackOverride : 235,235,235

[HitObjects]
64,128,1156,6,0,L|184:112,1,100,6|0,0:0|0:0,0:0:0:0:
264,96,1738,1,2,0:0:0:0:
320,288,2321,2,0,L|440:304,2,100,0|4|8,0:0|0:3|0:0,0:0:0:0:
448,128,3486,6,0,L|328:112,1,100,6|0,0:0|0:0,0:0:0:0:
248,96,4068,1,2,0:0:0:0:
192,288,4651,2,0,L|72:304,2,100,0|4|8,0:0|0:3|0:0,0:0:0:0:
392,320,5816,6,0,P|408:280|400:216,2,100,6|0|2,0:0|0:0|0:0,0:0:0:0:
264,168,6981,2,0,P|248:128|256:64,2,100,0|4|8,0:0|0:3|0:0,0:0:0:0:
128,312,8146,6,0,L|48:304,2,66.6666666666667,6|8|8,0:0|0:0|0:0,0:0:0:0:
176,264,8728,2,0,L|256:256,2,66.6666666666667,4|8|8,0:0|0:0|0:0,0:0:0:0:
128,216,9311,2,0,L|48:208,2,66.6666666666667,6|8|4,0:0|0:0|0:0,0:0:0:0:
176,168,9893,1,6,0:0:0:0:
336,56,10476,5,2,0:0:0:0:
352,152,10767,1,4,0:3:0:0:
440,96,11058,1,8,0:0:0:0:
352,272,11641,2,0,L|472:288,2,100,4|4|8,0:0|0:3|0:0,0:0:0:0:
176,328,12806,5,2,0:0:0:0:
160,232,13097,1,4,0:3:0:0:
72,288,13389,1,8,0:0:0:0:
160,112,13971,2,0,L|40:96,2,100,4|4|8,0:0|0:3|0:0,0:0:0:0:
336,56,15136,5,2,0:0:0:0:
352,152,15427,1,4,0:3:0:0:
440,96,15719,1,8,0:0:0:0:
352,272,16301,2,0,L|472:288,2,100,4|4|8,0:0|0:3|0:0,0:0:0:0:
288,80,17466,6,0,L|364:60,2,66.6666666666667,6|8|8,0:0|0:0|0:0,0:0:0:0:
300,147,18049,2,0,L|319:223,2,66.6666666666667,4|8|8,0:0|0:0|0:0,0:0:0:0:
233,159,18631,2,0,L|156:178,2,66.6666666666667,6|8|8,0:0|0:0|0:0,0:0:0:0:
220,92,19214,2,0,L|200:15,2,66.6666666666667,6|8|4,0:0|0:0|0:0,0:0:0:0:
288,80,19796,6,0,P|336:64|384:72,1,100,6|4,0:0|0:3,0:0:0:0:
416,168,20379,2,0,L|408:288,1,100,8|0,0:0|0:0,0:0:0:0:
352,344,20961,1,8,0:3:0:0:
352,344,21253,2,0,P|304:360|256:352,1,100,4|8,0:3|0:0,0:0:0:0:
56,320,22126,6,0,P|40:272|56:216,1,100,6|4,0:0|0:3,0:0:0:0:
152,224,22709,2,0,L|272:216,1,100,8|0,0:0|0:0,0:0:0:0:
296,312,23291,1,8,0:3:0:0:
296,312,23583,2,0,L|416:320,1,100,4|8,0:3|0:0,0:0:0:0:
464,128,24456,6,0,L|448:248,1,100,6|4,0:0|0:3,0:0:0:0:
360,192,25039,2,0,L|360:88,1,100,8|0,0:0|0:0,0:0:0:0:
264,64,25622,1,8,0:3:0:0:
264,64,25913,2,0,P|200:56|152:72,1,100,4|8,0:3|0:0,0:0:0:0:
72,104,26495,5,0,0:0:0:0:
72,104,26787,2,0,P|48:200|96:296,2,200,6|8|6,0:0|0:0|0:0,0:0:0:0:
152,168,28243,1,4,0:3:0:0:
152,168,28534,2,0,L|280:184,1,100,8|0,0:0|0:0,0:0:0:0:
192,256,29117,6,0,P|184:312|200:360,1,100,6|4,0:0|0:3,0:0:0:0:
288,320,29699,2,0,L|408:336,1,100,8|0,0:0|0:0,0:0:0:0:
488,312,30282,1,8,0:3:0:0:
488,312,30573,2,0,L|480:208,1,100,4|8,0:3|0:0,0:0:0:0:
352,48,31447,6,0,P|336:112|344:152,1,100,6|4,0:0|0:3,0:0:0:0:
256,200,32029,2,0,P|184:216|160:208,1,100,8|0,0:0|0:0,0:0:0:0:
72,160,32612,1,8,0:3:0:0:
72,160,32903,2,0,L|64:272,1,100,4|8,0:3|0:0,0:0:0:0:
248,336,33777,6,0,L|264:224,1,100,6|4,0:0|0:3,0:0:0:0:
352,288,34359,2,0,P|400:288|456:272,1,100,8|0,0:0|0:0,0:0:0:0:
456,176,34942,1,8,0:3:0:0:
456,176,35233,2,0,L|432:56,1,100,4|8,0:3|0:0,0:0:0:0:
344,96,35816,5,0,0:0:0:0:
344,96,36107,2,0,P|256:120|160:72,2,200,6|8|4,0:0|0:0|0:0,0:0:0:0:
320,200,37563,1,4,0:3:0:0:
320,200,37855,2,0,L|328:304,1,100,8|10,0:0|0:0,0:0:0:0:
232,320,38437,6,0,P|160:344|136:336,1,100,6|4,0:0|0:3,0:0:0:0:
40,344,39020,2,0,L|48:224,1,100,8|0,0:0|0:0,0:0:0:0:
48,144,39602,1,4,0:0:0:0:
48,144,39893,2,0,L|32:16,2,100,4|8|0,0:3|0:0|0:0,0:0:0:0:
136,184,40767,6,0,P|192:192|240:176,1,100,6|4,0:0|0:3,0:0:0:0:
272,88,41350,2,0,P|352:80|384:96,1,100,8|0,0:0|0:0,0:0:0:0:
440,160,41932,1,4,0:0:0:0:
440,160,42223,2,0,L|472:48,2,100,4|8|0,0:3|0:0|0:0,0:0:0:0:
432,256,43097,5,6,0:0:0:0:
432,256,43389,1,4,0:3:0:0:
368,328,43680,1,8,0:0:0:0:
368,328,43971,1,0,0:0:0:0:
280,280,44262,2,0,P|216:288|168:312,2,100,4|4|8,0:0|0:3|0:0,0:0:0:0:
296,184,45136,5,0,0:0:0:0:
296,184,45427,2,0,P|312:128|296:80,1,100,6|4,0:0|0:3,0:0:0:0:
208,64,46010,2,0,L|96:56,2,100,8|0|4,0:0|0:0|0:0,0:0:0:0:
40,176,47175,5,8,0:0:0:0:
40,176,47466,1,8,0:0:0:0:
128,224,47757,2,0,P|128:296|120:328,1,100,6|4,0:0|0:3,0:0:0:0:
224,312,48340,2,0,P|224:256|240:208,1,100,8|0,0:0|0:0,0:0:0:0:
240,112,48922,1,4,0:0:0:0:
240,112,49214,2,0,P|224:56|232:0,2,100,4|8|0,0:3|0:0|0:0,0:0:0:0:
344,112,50088,6,0,P|352:168|344:216,1,100,6|4,0:0|0:3,0:0:0:0:
360,312,50670,2,0,P|304:312|264:296,1,100,8|0,0:0|0:0,0:0:0:0:
192,232,51253,1,4,0:0:0:0:
136,320,51544,1,4,0:3:0:0:
136,320,51835,2,0,L|32:336,1,100,8|4,0:0|0:3,0:0:0:0:
8,240,52418,5,6,0:0:0:0:
216,208,53000,1,8,0:0:0:0:
216,208,53291,2,0,P|208:144|192:80,1,100,0|4,0:0|0:0,0:0:0:0:
392,48,54165,2,0,P|328:56|288:48,1,100,8|0,0:0|0:0,0:0:0:0:
200,32,54748,1,6,0:0:0:0:
200,32,55039,2,0,P|152:16|96:24,1,100,4|8,0:3|0:0,0:0:0:0:
32,88,55622,2,0,P|40:128|24:208,1,100,8|4,0:0|0:3,0:0:0:0:
32,288,56204,1,4,0:3:0:0:
120,336,56495,1,10,0:0:0:0:
133,76,64068,6,0,L|69:28,2,66.6666666666667,6|8|8,0:0|0:0|0:0,0:0:0:0:
111,139,64651,2,0,L|14:142,2,66.6666666666667,4|8|8,0:0|0:0|0:0,0:0:0:0:
130,202,65233,2,0,L|74:250,2,66.6666666666667,6|8|8,0:0|0:0|0:0,0:0:0:0:
184,240,65816,2,0,L|176:328,2,66.6666666666667,6|8|4,0:0|0:0|0:0,0:0:0:0:
249,253,66398,6,0,P|297:269|361:293,1,100,8|4,0:3|0:3,0:0:0:0:
440,256,66981,1,8,0:0:0:0:
440,256,67272,1,0,0:0:0:0:
472,160,67563,2,0,L|368:152,1,100,8|4,0:3|0:3,0:0:0:0:
296,96,68146,1,8,0:0:0:0:
296,96,68437,1,0,0:0:0:0:
200,72,68728,6,0,L|192:176,1,100,8|4,0:3|0:3,0:0:0:0:
120,240,69311,1,8,0:0:0:0:
120,240,69602,1,0,0:0:0:0:
144,336,69893,2,0,L|256:352,1,100,8|4,0:3|0:3,0:0:0:0:
336,288,70476,1,8,0:0:0:0:
336,288,70767,1,8,0:0:0:0:
400,216,71058,6,0,L|416:96,1,100,8|4,0:3|0:3,0:0:0:0:
320,80,71641,1,8,0:0:0:0:
320,80,71932,1,0,0:0:0:0:
232,128,72223,2,0,L|128:112,1,100,8|4,0:3|0:3,0:0:0:0:
128,216,72806,1,8,0:0:0:0:
128,216,73097,1,0,0:0:0:0:
224,248,73389,6,0,L|264:352,1,100,8|4,0:3|0:3,0:0:0:0:
352,296,73971,1,8,0:0:0:0:
352,296,74262,1,0,0:0:0:0:
376,200,74554,2,0,L|496:192,1,100,8|4,0:3|0:3,0:0:0:0:
448,96,75136,1,8,0:0:0:0:
448,96,75427,1,8,0:0:0:0:
344,96,75719,6,0,P|315:106|276:106,1,66.6666666666667,6|0,1:0|3:0,0:0:0:0:
152,136,76301,2,0,L|161:234,1,66.6666666666667,8|0,1:0|1:0,0:0:0:0:
144,304,76787,2,0,P|250:344|356:302,1,233.333333333333,2|0,1:0|3:0,0:0:0:0:
482,147,78049,6,0,L|463:70,1,66.6666666666667,6|0,1:0|3:0,0:0:0:0:
333,68,78631,2,0,P|269:60|260:58,1,66.6666666666667,8|0,1:0|0:0,0:0:0:0:
178,105,79117,2,0,P|90:185|178:217,1,233.333333333333,2|0,1:0|3:0,0:0:0:0:
317,338,80379,5,4,0:0:0:0:
317,338,80670,2,0,P|365:354|437:338,1,100,4|8,0:3|0:0,0:0:0:0:
492,165,81544,1,4,0:0:0:0:
492,165,81835,2,0,P|500:53|500:53,1,100,4|8,0:3|0:0,0:0:0:0:
399,79,82418,5,0,0:0:0:0:
399,79,82709,2,0,P|279:55|199:95,2,200,6|8|4,0:0|0:0|0:0,0:0:0:0:
359,170,84165,1,4,0:3:0:0:
359,170,84456,2,0,L|367:274,1,100,8|0,0:0|0:0,0:0:0:0:
267,284,85039,6,0,P|195:308|171:300,1,100,6|4,0:0|0:3,0:0:0:0:
78,330,85622,2,0,L|86:210,1,100,8|0,0:0|0:0,0:0:0:0:
111,136,86204,1,4,0:0:0:0:
111,136,86495,2,0,L|95:8,2,100,4|8|0,0:2|0:0|0:0,0:0:0:0:
205,168,87369,6,0,P|261:176|309:160,1,100,6|4,0:0|0:3,0:0:0:0:
347,74,87952,2,0,P|427:66|459:82,1,100,8|0,0:0|0:0,0:0:0:0:
440,176,88534,1,4,0:0:0:0:
440,176,88825,2,0,L|472:288,2,100,4|8|0,0:3|0:0|0:0,0:0:0:0:
360,232,89699,5,6,0:0:0:0:
360,232,89990,1,4,0:3:0:0:
328,328,90282,1,8,0:0:0:0:
328,328,90573,1,0,0:0:0:0:
240,288,90864,2,0,P|176:296|120:272,2,100,4|4|8,0:0|0:3|0:0,0:0:0:0:
288,200,91738,5,0,0:0:0:0:
288,200,92029,2,0,P|304:144|288:96,1,100,6|4,0:0|0:3,0:0:0:0:
208,64,92612,2,0,L|96:56,2,100,8|0|4,0:0|0:0|0:0,0:0:0:0:
40,176,93777,5,8,0:0:0:0:
40,176,94068,1,8,0:0:0:0:
128,224,94359,2,0,P|128:296|120:328,1,100,6|4,0:0|0:3,0:0:0:0:
216,296,94942,2,0,P|272:296|320:312,1,100,8|0,0:0|0:0,0:0:0:0:
416,320,95524,1,4,0:0:0:0:
400,224,95816,2,0,P|456:208|512:216,2,100,4|8|0,0:3|0:0|0:0,0:0:0:0:
304,200,96689,6,0,P|310:150|302:101,1,100,6|4,0:0|0:2,0:0:0:0:
200,120,97272,2,0,P|144:120|104:104,1,100,8|0,0:0|0:0,0:0:0:0:
8,80,97855,1,4,0:0:0:0:
24,176,98146,2,0,L|39:274,2,100,4|8|4,0:3|0:0|0:3,0:0:0:0:
120,208,99020,5,6,0:0:0:0:
264,352,99602,1,8,0:0:0:0:
264,352,99893,2,0,P|256:288|240:224,1,100,0|4,0:0|0:0,0:0:0:0:
440,184,100767,2,0,P|376:192|336:184,1,100,8|0,0:0|0:0,0:0:0:0:
248,152,101350,1,6,0:0:0:0:
152,128,101641,2,0,P|136:176|144:232,1,100,4|8,0:3|0:0,0:0:0:0:
104,312,102223,2,0,P|56:328|5:312,1,100,8|4,0:0|0:3,0:0:0:0:
0,216,102806,1,4,0:3:0:0:
32,120,103097,1,10,0:0:0:0:
80,216,113000,6,0,P|152:216|184:240,1,100,6|4,0:0|0:3,0:0:0:0:
248,296,113583,1,8,0:0:0:0:
248,296,113874,1,0,0:0:0:0:
344,320,114165,6,0,P|368:256|368:208,1,100,8|4,0:3|0:3,0:0:0:0:
360,128,114748,1,8,0:0:0:0:
360,128,115039,1,0,0:0:0:0:
272,80,115330,6,0,L|144:88,1,100,6|4,0:0|0:3,0:0:0:0:
80,128,115913,1,8,0:0:0:0:
80,128,116204,1,0,0:0:0:0:
48,224,116495,6,0,P|40:304|48:336,1,100,8|0,0:3|0:0,0:0:0:0:
144,296,117078,1,8,0:0:0:0:
144,296,117369,1,0,0:0:0:0:
232,240,117660,6,0,P|288:232|344:248,1,100,6|4,0:0|0:3,0:0:0:0:
416,288,118243,1,8,0:0:0:0:
416,288,118534,1,0,0:0:0:0:
408,192,118825,6,0,L|416:88,1,100,8|4,0:3|0:3,0:0:0:0:
320,64,119408,1,8,0:0:0:0:
320,64,119699,1,0,0:0:0:0:
232,104,119990,6,0,L|232:216,2,100,6|4|8,0:0|0:3|0:0,0:0:0:0:
136,88,120864,1,4,0:3:0:0:
136,88,121155,2,0,P|88:80|32:96,2,100,4|4|8,0:0|0:3|0:0,0:0:0:0:
40,264,122321,5,2,0:0:0:0:
40,264,123486,1,4,0:3:0:0:
40,264,124651,1,4,0:0:0:0:
40,264,126981,1,2,0:0:0:0:
40,264,128146,5,4,0:3:0:0:
440,240,129311,6,0,L|480:296,2,66.6666666666667,4|8|8,0:0|0:0|0:0,0:0:0:0:
456,176,129893,2,0,L|511:136,2,66.6666666666667,6|8|8,0:0|0:0|0:0,0:0:0:0:
392,168,130476,2,0,L|352:112,2,66.6666666666667,4|8|8,0:0|0:0|0:0,0:0:0:0:
376,232,131058,2,0,L|320:272,2,66.6666666666667,6|8|4,0:0|0:0|0:0,0:0:0:0:
440,240,131641,5,14,0:0:0:0:
248,288,132223,1,8,0:0:0:0:
96,160,132806,1,8,0:0:0:0:
288,104,133389,1,8,0:0:0:0:
376,280,133971,5,6,0:0:0:0:
176,304,134554,1,8,0:0:0:0:
104,120,135136,1,8,0:0:0:0:
288,48,135719,6,0,L|400:40,1,100,8|8,0:0|0:0,0:0:0:0:
440,128,136301,2,0,P|464:176|448:232,1,100,6|4,0:0|0:3,0:0:0:0:
400,304,136884,2,0,P|336:304|300:311,1,100,8|4,0:0|0:3,0:0:0:0:
280,216,137466,2,0,L|168:232,1,100,8|4,0:0|0:3,0:0:0:0:
128,312,138049,2,0,P|80:320|32:288,1,100,8|0,0:0|0:0,0:0:0:0:
256,192,138631,12,0,139796,0:0:0:0:
80,128,140961,5,4,0:0:0:0:
80,128,141253,1,4,0:3:0:0:
168,184,141544,2,0,L|160:288,1,100,8|0,0:0|0:0,0:0:0:0:
264,280,142126,6,0,P|336:304|360:296,1,100,6|4,0:0|0:3,0:0:0:0:
472,344,142709,2,0,L|464:224,1,100,8|0,0:0|0:0,0:0:0:0:
392,176,143291,1,4,0:0:0:0:
392,176,143583,2,0,L|408:48,2,100,4|8|0,0:3|0:0|0:0,0:0:0:0:
288,176,144456,6,0,P|232:184|184:168,1,100,6|4,0:0|0:3,0:0:0:0:
152,80,145039,2,0,P|72:72|40:88,1,100,8|0,0:0|0:0,0:0:0:0:
72,176,145622,1,4,0:0:0:0:
72,176,145913,2,0,L|40:288,2,100,4|8|0,0:3|0:0|0:0,0:0:0:0:
152,232,146787,5,6,0:0:0:0:
152,232,147078,1,4,0:3:0:0:
184,328,147369,1,8,0:0:0:0:
184,328,147660,1,0,0:0:0:0:
272,288,147952,2,0,P|336:296|392:272,2,100,4|4|8,0:0|0:3|0:0,0:0:0:0:
224,200,148825,5,0,0:0:0:0:
224,200,149117,2,0,P|208:144|224:96,1,100,6|4,0:0|0:3,0:0:0:0:
304,64,149699,2,0,L|416:56,2,100,8|0|4,0:0|0:0|0:0,0:0:0:0:
472,176,150864,5,8,0:0:0:0:
472,176,151155,1,8,0:0:0:0:
384,224,151447,2,0,P|384:296|392:328,1,100,6|4,0:0|0:3,0:0:0:0:
296,296,152029,2,0,P|240:296|192:312,1,100,8|0,0:0|0:0,0:0:0:0:
96,320,152612,1,4,0:0:0:0:
112,224,152903,2,0,P|56:208|0:216,2,100,4|8|0,0:3|0:0|0:0,0:0:0:0:
208,200,153777,6,0,P|202:150|210:101,1,100,6|4,0:0|0:3,0:0:0:0:
312,120,154359,2,0,P|368:120|408:104,1,100,8|0,0:0|0:0,0:0:0:0:
504,80,154942,1,4,0:0:0:0:
488,176,155233,2,0,L|473:274,2,100,4|8|4,0:3|0:0|0:3,0:0:0:0:
392,208,156107,5,6,0:0:0:0:
248,352,156689,1,8,0:0:0:0:
248,352,156981,2,0,P|199:341|149:336,1,100,0|4,0:0|0:0,0:0:0:0:
120,136,157855,2,0,P|184:144|224:136,1,100,8|0,0:0|0:0,0:0:0:0:
320,120,158437,5,6,0:0:0:0:
320,120,158728,2,0,P|336:168|328:224,1,100,4|8,0:3|0:0,0:0:0:0:
416,264,159311,2,0,P|464:248|515:264,1,100,8|4,0:0|0:0,0:0:0:0:
472,352,159893,1,4,0:3:0:0:
376,344,160185,2,0,P|272:320|264:224,1,200,8|6,0:0|0:0,0:0:0:0:
256,192,160864,12,0,163680,0:0:0:0:
240,160,165427,6,0,P|176:176|120:176,1,100,4|4,0:0|0:3,0:0:0:0:
40,184,166010,2,0,L|47:84,2,100,8|0|6,0:0|0:0|0:0,0:0:0:0:
32,280,166884,1,4,0:3:0:0:
32,280,167175,2,0,P|96:312|136:312,1,100,8|0,0:0|0:0,0:0:0:0:
216,280,167757,6,0,P|272:272|328:288,1,100,4|4,0:0|0:3,0:0:0:0:
400,232,168340,1,4,0:0:0:0:
400,232,168631,2,0,P|464:240|504:232,2,100,0|6|4,0:0|0:0|0:3,0:0:0:0:
312,192,169505,2,0,P|320:136|304:88,1,100,8|0,0:0|0:0,0:0:0:0:
216,48,170088,6,0,L|112:56,1,100,4|4,0:0|0:3,0:0:0:0:
80,152,170670,1,8,0:0:0:0:
80,152,170961,2,0,P|136:160|184:144,2,100,0|6|4,0:0|0:0|0:3,0:0:0:0:
56,248,171835,2,0,P|48:312|72:352,1,100,8|0,0:0|0:0,0:0:0:0:
160,320,172418,6,0,P|224:304|272:312,1,100,4|4,0:0|0:3,0:0:0:0:
352,352,173000,1,8,0:0:0:0:
352,352,173291,2,0,P|360:304|344:248,1,100,0|6,0:0|0:0,0:0:0:0:
416,184,173874,2,0,P|488:192|520:176,1,100,4|8,0:3|0:0,0:0:0:0:
464,96,174456,5,0,0:0:0:0:
464,96,174748,2,0,P|400:80|360:104,1,100,4|4,0:0|0:3,0:0:0:0:
176,80,175622,1,0,0:0:0:0:
176,80,175913,2,0,P|112:80|64:96,1,100,6|4,0:0|0:3,0:0:0:0:
64,296,176787,5,0,0:0:0:0:
64,296,177078,2,0,P|104:304|176:296,1,100,4|4,0:0|0:3,0:0:0:0:
344,208,177952,1,0,0:0:0:0:
344,208,178243,2,0,P|240:216|152:176,1,200,6|8,0:0|0:0,0:0:0:0:
328,80,179408,6,0,P|416:72|480:128,1,166.666666666667,4|0,0:0|0:0,0:0:0:0:
472,248,180282,2,0,P|474:297|458:344,1,100,0|6,0:0|0:0,0:0:0:0:
304,296,181058,2,0,P|238:303|176:280,1,133.333333333333,0|0,0:0|0:0,0:0:0:0:
168,184,181738,2,0,P|247:163|304:104,1,166.666666666667,4|0,0:0|0:0,0:0:0:0:
432,72,182612,1,0,0:0:0:0:
432,72,182903,1,6,0:0:0:0:
