osu file format v14

[General]
AudioFilename: audio.mp3
AudioLeadIn: 0
PreviewTime: 141529
Countdown: 0
SampleSet: Normal
StackLeniency: 0.3
Mode: 0
LetterboxInBreaks: 0
EpilepsyWarning: 1
WidescreenStoryboard: 1

[Editor]
Bookmarks: 139602
DistanceSpacing: 1.2
BeatDivisor: 3
GridSize: 8
TimelineZoom: 1.7

[Metadata]
Title:Aun no Beats
TitleUnicode:阿吽のビーツ
Artist:isubokuro
ArtistUnicode:いすぼくろ
Creator:Beren
Version:Lobelia's Hard
Source:
Tags:cover lobelia buhei SUNRISE vivicat japanese novelty utaite v flower 羽生まゐご 羽生迷子 maigo hanyuu
BeatmapID:2409755
BeatmapSetID:1153984

[Difficulty]
HPDrainRate:5
CircleSize:3.6
OverallDifficulty:6
ApproachRate:8
SliderMultiplier:1.2
SliderTickRate:1

[Events]
//Background and Video events
0,0,"IMG_9841(20200419-094607).jpg",0,0
//Break Periods
2,57078,63221
2,103680,112250
//Storyboard Layer 0 (Background)
//Storyboard Layer 1 (Fail)
//Storyboard Layer 2 (Pass)
//Storyboard Layer 3 (Foreground)
Sprite,Foreground,Centre,"SB\bg.jpg",320,240 F,0,559,1141,0,1 S,0,1141,,0.6944515 F,0,1141,10170,1
Sprite,Foreground,Centre,"SB\bg.jpg",320,240 F,0,160753,181238,1
Sprite,Foreground,Centre,"SB\IMG_9830(20200419-094321).JPG",320,240 M,0,9879,,295.2258,247.4322 S,0,9879,,0.513 F,0,9879,10170,0,1 F,0,10170,,1 M,0,19782,19976,295.2258,249.0838,-630.5033,249.0838
Sprite,Foreground,Centre,"SB\1.JPG",320,240 S,0,19782,,0.6118709 M,0,19782,19976,1266.374,325.058,346.6242,325.058 M,0,19976,38423,346.6242,325.058,286.9678,325.058 F,0,38423,,1 M,0,38423,38617,286.9678,325.058,-570.2194,326.7097
Sprite,Foreground,Centre,"SB\1.png",320,240 M,0,1141,,295.2258,291.2 F,0,1141,1432,1,0 S,0,1141,1432,1,1.057
Sprite,Foreground,Centre,"SB\1.png",320,240 M,0,1432,,295.2258,291.2 F,0,1432,1723,1,0 S,0,1432,1723,1,1.057
Sprite,Foreground,Centre,"SB\1.png",320,240 M,0,3471,,295.2258,291.2 F,0,3471,3762,1,0 S,0,3471,3762,1,1.057
Sprite,Foreground,Centre,"SB\1.png",320,240 M,0,3762,,295.2258,291.2 F,0,3762,4053,1,0 S,0,3762,4053,1,1.057
Sprite,Foreground,Centre,"SB\1.png",320,240 M,0,5801,,295.2258,291.2 F,0,5801,6092,1,0 S,0,5801,6092,1,1.057
Sprite,Foreground,Centre,"SB\1.png",320,240 M,0,6092,,295.2258,291.2 F,0,6092,6383,1,0 S,0,6092,6383,1,1.057
Sprite,Foreground,Centre,"SB\1.png",320,240 M,0,8325,,295.2258,291.2 F,0,8325,8520,1,0 S,0,8325,8520,1,1.057
Sprite,Foreground,Centre,"SB\1.png",320,240 M,0,8131,,295.2258,291.2 F,0,8131,8326,1,0 S,0,8131,8326,1,1.057
Sprite,Foreground,Centre,"SB\1.png",320,240 M,0,8520,,295.2258,291.2 F,0,8520,8715,1,0 S,0,8520,8715,1,1.057
Sprite,Foreground,Centre,"SB\1.png",320,240 M,0,8714,,295.2258,291.2 F,0,8714,8909,1,0 S,0,8714,8909,1,1.057
Sprite,Foreground,Centre,"SB\1.png",320,240 M,0,8908,,295.2258,291.2 F,0,8908,9103,1,0 S,0,8908,9103,1,1.057
Sprite,Foreground,Centre,"SB\1.png",320,240 M,0,9102,,295.2258,291.2 F,0,9102,9297,1,0 S,0,9102,9297,1,1.057
Sprite,Foreground,Centre,"SB\1.png",320,240 M,0,9296,,295.2258,291.2 F,0,9296,9491,1,0 S,0,9296,9491,1,1.057
Sprite,Foreground,Centre,"SB\1.png",320,240 M,0,9491,,295.2258,291.2 F,0,9491,9686,1,0 S,0,9491,9686,1,1.057
Sprite,Foreground,Centre,"SB\1.png",320,240 M,0,9685,,295.2258,291.2 F,0,9685,9880,1,0 S,0,9685,9880,1,1.057
Sprite,Foreground,Centre,"SB\1.png",320,240 M,0,9879,,295.2258,291.2 F,0,9879,10074,1,0 S,0,9879,10074,1,1.057
Sprite,Foreground,Centre,"SB\1.png",320,240 M,0,17452,,408.3613,233.3936 F,0,17452,17647,1,0 S,0,17452,17647,1,1.057
Sprite,Foreground,Centre,"SB\1.png",320,240 M,0,17646,,408.3613,233.3936 F,0,17646,17841,1,0 S,0,17646,17841,1,1.057
Sprite,Foreground,Centre,"SB\1.png",320,240 M,0,17840,,408.3613,233.3936 F,0,17840,18035,1,0 S,0,17840,18035,1,1.057
Sprite,Foreground,Centre,"SB\1.png",320,240 M,0,18034,,408.3613,233.3936 F,0,18034,18229,1,0 S,0,18034,18229,1,1.057
Sprite,Foreground,Centre,"SB\1.png",320,240 M,0,18228,,408.3613,233.3936 F,0,18228,18423,1,0 S,0,18228,18423,1,1.057
Sprite,Foreground,Centre,"SB\1.png",320,240 M,0,18423,,408.3613,233.3936 F,0,18423,18618,1,0 S,0,18423,18618,1,1.057
Sprite,Foreground,Centre,"SB\1.png",320,240 M,0,18617,,408.3613,233.3936 F,0,18617,18812,1,0 S,0,18617,18812,1,1.057
Sprite,Foreground,Centre,"SB\1.png",320,240 M,0,18811,,408.3613,233.3936 F,0,18811,19006,1,0 S,0,18811,19006,1,1.057
Sprite,Foreground,Centre,"SB\1.png",320,240 M,0,19005,,408.3613,233.3936 F,0,19005,19200,1,0 S,0,19005,19200,1,1.057
Sprite,Foreground,Centre,"SB\1.png",320,240 M,0,19199,,408.3613,233.3936 F,0,19199,19394,1,0 S,0,19199,19394,1,1.057
Sprite,Foreground,Centre,"SB\1.png",320,240 M,0,19393,,408.3613,233.3936 F,0,19393,19588,1,0 S,0,19393,19588,1,1.057
Sprite,Foreground,Centre,"SB\1.png",320,240 M,0,19588,,408.3613,233.3936 F,0,19588,19783,1,0 S,0,19588,19783,1,1.057
Sprite,Foreground,Centre,"SB\4.JPG",320,240 M,0,66384,66578,1237.471,372.9548,335.6903,375.4323 M,0,66578,,335.6903,375.4323 S,0,66578,,0.5045162 M,0,66578,85025,335.6903,375.4323,285.3161,374.6064 F,0,85025,,1 M,0,85025,85219,285.3161,374.6064,-596.6451,373.7806
Sprite,Foreground,Centre,"SB\8.JPG",320,240 F,0,122306,,1 M,0,122306,122500,1246.555,318.4516,335.6904,320.929 S,0,122500,,0.5292903 M,0,122500,142112,335.6904,320.929,272.1033,321.7548 M,0,142112,142306,272.1033,321.7548,-612.3354,321.7548
Sprite,Foreground,Centre,"SB\1.png",320,240 R,0,1141,,0 F,0,1141,1238,0,1 F,0,1238,9879,1 M,0,8423,,295.2258,291.2 F,0,9879,10170,1,0 M,0,17452,,408.3613,233.3936 F,0,17452,19782,1
Sprite,Foreground,Centre,"SB\2.png",320,240 M,0,17452,17646,435.6129,185.4968
Sprite,Foreground,Centre,"SB\3.png",320,240 M,0,17646,17840,435.6129,186.3226
Sprite,Foreground,Centre,"SB\4.png",320,240 M,0,17840,18034,437.2645,184.671
Sprite,Foreground,Centre,"SB\5.png",320,240 M,0,18034,18228,436.4388,184.671
Sprite,Foreground,Centre,"SB\6.png",320,240 M,0,18228,18423,435.6129,183.8452
Sprite,Foreground,Centre,"SB\7.png",320,240 M,0,18423,18617,435.6129,181.3678
Sprite,Foreground,Centre,"SB\8.png",320,240 M,0,18617,18811,434.7871,181.3678
Sprite,Foreground,Centre,"SB\9.png",320,240 M,0,18811,19005,433.9613,180.542
Sprite,Foreground,Centre,"SB\11.png",320,240 M,0,19005,19199,433.1355,180.5419
Sprite,Foreground,Centre,"SB\12.png",320,240 M,0,19199,19393,433.1355,183.0193
Sprite,Foreground,Centre,"SB\13.png",320,240 M,0,19393,19588,430,182 S,0,19491,,0.727
Sprite,Foreground,Centre,"SB\14.png",320,240 S,0,19588,,0.727 M,0,19588,19782,430,182
Sprite,Foreground,Centre,"SB\15.png",320,240 F,0,1141,1238,0,1 F,0,1238,3180,1 F,0,3180,3471,1,0
Sprite,Foreground,Centre,"SB\16.png",320,240 F,0,3471,3568,0,1 F,0,3568,5219,1 F,0,5219,5510,1,0
Sprite,Foreground,Centre,"SB\73.png",320,240 F,0,5801,5898,0,1 F,0,5898,7840,1 F,0,7840,8131,1,0
Sprite,Foreground,Centre,"SB\IMG_9830(20200419-094321).JPG",320,240 M,0,10461,,295.2258,247.4322 F,0,10461,10753,1,0 S,0,10461,10753,0.513,0.525
Sprite,Foreground,Centre,"SB\IMG_9830(20200419-094321).JPG",320,240 M,0,10753,,295.2258,247.4322 F,0,10753,11045,1,0 S,0,10753,11045,0.513,0.525
Sprite,Foreground,Centre,"SB\IMG_9830(20200419-094321).JPG",320,240 M,0,12792,,295.2258,247.4322 F,0,12792,13084,1,0 S,0,12792,13084,0.513,0.525
Sprite,Foreground,Centre,"SB\IMG_9830(20200419-094321).JPG",320,240 M,0,13083,,295.2258,247.4322 F,0,13083,13375,1,0 S,0,13083,13375,0.513,0.525
Sprite,Foreground,Centre,"SB\IMG_9830(20200419-094321).JPG",320,240 M,0,15122,,295.2258,247.4322 F,0,15122,15414,1,0 S,0,15122,15414,0.513,0.525
Sprite,Foreground,Centre,"SB\IMG_9830(20200419-094321).JPG",320,240 M,0,15413,,295.2258,247.4322 F,0,15413,15705,1,0 S,0,15413,15705,0.513,0.525
Sprite,Foreground,Centre,"SB\2.png",320,240 F,0,8131,8325,1
Sprite,Foreground,Centre,"SB\4.png",320,240 F,0,8520,8714,1
Sprite,Foreground,Centre,"SB\6.png",320,240 F,0,8908,9102,1
Sprite,Foreground,Centre,"SB\7.png",320,240 F,0,9102,9296,1
Sprite,Foreground,Centre,"SB\9.png",320,240 F,0,9491,9685,1
Sprite,Foreground,Centre,"SB\11.png",320,240 F,0,9685,9879,1
Sprite,Foreground,Centre,"SB\12.png",320,240 F,0,9879,10170,1,0
Sprite,Foreground,Centre,"SB\3.JPG",320,240 M,0,93762,93957,1259.342,244.129,314.6189,244.9548 M,0,93957,103083,314.6189,244.9548,274.1544,244.129 S,0,94054,,0.5127741 M,0,103083,103277,274.1544,244.129,-625.9746,243.3032
Sprite,Foreground,Centre,"IMG_9841(20200419-094607).jpg",320,240 M,0,142112,142306,1270.503,262.2968,381.9355,256.5161 S,0,142306,,0.5045161 M,0,142306,163665,381.9355,256.5161,270.4516,257.3419 F,0,160753,163665,1,0
Sprite,Foreground,Centre,"SB\9.jpg",320,240 M,0,56481,56675,1234.994,274.6839,320.0001,273.8581 S,0,56675,,0.4054193 M,0,56675,66384,320.0001,273.8581,282.013,273.0323 F,0,66384,,1 M,0,66384,66578,282.013,273.0323,-588.3871,273.0323
Sprite,Foreground,Centre,"SB\11.JPG",320,240 M,0,103083,103277,1247.38,295.329,342.2968,298.6323 S,0,103277,,0.5127742 M,0,103277,112986,342.2968,298.6323,309.2645,299.4581 M,0,112986,113180,309.2645,299.4581,-605.7291,299.4581
Sprite,Foreground,Centre,"SB\6.jpg",320,240 M,0,112986,113180,1251.51,245.7806,348.0774,246.6064 M,0,113180,122306,348.0774,246.6064,311.7419,247.4323 S,0,113568,,0.4962581 M,0,122306,122500,311.7419,247.4323,-590.0387,249.9097
Sprite,Foreground,Centre,"SB\7.jpg",320,240 S,0,38423,,0.4962581 M,0,38423,38617,1238.607,241.2482,340.955,238.7708 M,0,38617,47160,340.955,238.7708,295.5357,239.5966 M,0,47160,47355,295.5357,239.5966,-550.9159,241.2482
Sprite,Foreground,Centre,"SB\2.jpg",320,240 M,0,47160,47355,1255.152,304.4786,357.5,302.0012 S,0,47355,,0.5127742 M,0,47355,56481,357.5,302.0012,303.8226,302.0012 M,0,56481,56675,303.8226,302.0012,-574.8355,302.0012
Sprite,Foreground,Centre,"SB\12.jpg",320,240 M,0,85025,85219,1252.059,285.4377,322.2012,286.2635 S,0,85219,,0.4384515 M,0,85219,93762,322.2012,286.2635,289.9948,287.9151 M,0,93762,93957,289.9948,287.9151,-660.5047,287.9149
Sprite,Foreground,Centre,"SB\19.png",320,240 F,0,19782,19879,0,1 F,0,19879,21626,1 M,0,19976,,167.2258,381.213 F,0,21626,21821,1,0
Sprite,Foreground,Centre,"SB\21.png",320,240 F,0,22015,22112,0,1 F,0,22112,23859,1 M,0,22694,,464.5161,332.4903 F,0,23859,24054,1,0
Sprite,Foreground,Centre,"SB\22.png",320,240 F,0,24345,24442,0,1 F,0,24442,28228,1 M,0,25025,,157.3161,226.7871 F,0,28228,28423,1,0.02141937
Sprite,Foreground,Centre,"SB\23.png",320,240 F,0,29102,29199,0.009032135,1 F,0,29199,30947,1 M,0,29685,,152.3613,391.1226 F,0,30947,31141,1,0
Sprite,Foreground,Centre,"SB\24.png",320,240 F,0,31432,31529,0,1 F,0,31529,33180,1 M,0,31724,,485.9871,303.5871 F,0,33180,33374,1,0
Sprite,Foreground,Centre,"SB\25.png",320,240 F,0,33665,33762,0.04619354,1 F,0,33762,36675,1 F,0,36675,36869,1,0
Sprite,Foreground,Centre,"SB\1.png",320,240 M,0,37743,,70.60646,369.6516 S,0,37743,,0.7770321 F,0,38423,,1
Sprite,Foreground,Centre,"SB\4.png",320,240 M,0,37743,37937,86.29679,330.0129
Sprite,Foreground,Centre,"SB\3.png",320,240 M,0,37937,38131,87.9484,334.9677
Sprite,Foreground,Centre,"SB\26.png",320,240 M,0,38131,38423,87.94839,333.3161
Sprite,Foreground,Centre,"SB\27.png",320,240 F,0,38423,38520,0.000774231,1 F,0,38520,40461,1 M,0,38714,,208.5161,214.4 F,0,40461,40656,1,0.004903183
Sprite,Foreground,Centre,"SB\28.png",320,240 F,0,40753,40850,0,1 F,0,40850,42792,1 M,0,41335,,144.1033,383.6903 F,0,42792,42986,1,0.004903183
Sprite,Foreground,Centre,"SB\29.png",320,240 F,0,43083,43180,0,1 F,0,43180,43957,1 M,0,43665,,545.4452,214.4 F,0,43957,44151,1,0
Sprite,Foreground,Centre,"SB\31.png",320,240 F,0,44248,44345,0,1 F,0,44345,44830,1 M,0,44539,,87.94839,218.529 F,0,44830,45025,1,0
Sprite,Foreground,Centre,"SB\32.png",320,240 F,0,45316,45413,0,1 F,0,45413,46869,1 M,0,45704,,530.5807,215.2258 F,0,46869,47063,1,0
Sprite,Foreground,Centre,"SB\1.png",320,240 F,0,47160,47258,0,1 F,0,47258,47549,1 M,0,47549,,73.90966,362.2194 S,0,47549,,0.7027097 F,0,47549,47743,1,0
Sprite,Foreground,Centre,"SB\33.png",320,240 F,0,47160,47258,0,1 F,0,47258,47549,1 M,0,47549,,88.77418,325.8839 F,0,47549,47743,1,0
Sprite,Foreground,Centre,"SB\34.png",320,240 F,0,47743,47840,0,1 F,0,47840,49491,1 M,0,48034,,243.2,104.5677 F,0,49491,49685,1,0
Sprite,Foreground,Centre,"SB\35.png",320,240 F,0,49976,50073,0,1 F,0,50073,52112,1 M,0,50364,,458.7355,337.4452 F,0,52112,52306,1,0
Sprite,Foreground,Centre,"SB\1.png",320,240 F,0,53180,53277,0,1 F,0,53277,56190,1 M,0,53859,,59.04514,344.8774 F,0,56190,56481,1,0
Sprite,Foreground,Centre,"SB\36.png",320,240 F,0,53180,53277,0,1 F,0,53277,53859,1 M,0,53859,,84.64516,301.9354 F,0,53859,54054,1,0
Sprite,Foreground,Centre,"SB\37.png",320,240 F,0,54151,54248,0,1 F,0,54248,56190,1 M,0,54345,,86.29677,299.4581 F,0,56190,56481,1,0
Sprite,Foreground,Centre,"SB\1.png",320,240 M,0,64054,,483.5097,257.342 F,0,66384,,1
Sprite,Foreground,Centre,"SB\1.png",320,240 M,0,64054,,483.5097,257.342 F,0,64054,64249,1,0 S,0,64054,64249,1,1.057
Sprite,Foreground,Centre,"SB\1.png",320,240 M,0,64248,,483.5097,257.342 F,0,64248,64443,1,0 S,0,64248,64443,1,1.057
Sprite,Foreground,Centre,"SB\1.png",320,240 M,0,64442,,483.5097,257.342 F,0,64442,64637,1,0 S,0,64442,64637,1,1.057
Sprite,Foreground,Centre,"SB\1.png",320,240 M,0,64636,,483.5097,257.342 F,0,64636,64831,1,0 S,0,64636,64831,1,1.057
Sprite,Foreground,Centre,"SB\1.png",320,240 M,0,64830,,483.5097,257.342 F,0,64830,65025,1,0 S,0,64830,65025,1,1.057
Sprite,Foreground,Centre,"SB\1.png",320,240 M,0,65025,,483.5097,257.342 F,0,65025,65220,1,0 S,0,65025,65220,1,1.057
Sprite,Foreground,Centre,"SB\1.png",320,240 M,0,65219,,483.5097,257.342 F,0,65219,65414,1,0 S,0,65219,65414,1,1.057
Sprite,Foreground,Centre,"SB\1.png",320,240 M,0,65413,,483.5097,257.342 F,0,65413,65608,1,0 S,0,65413,65608,1,1.057
Sprite,Foreground,Centre,"SB\1.png",320,240 M,0,65607,,483.5097,257.342 F,0,65607,65802,1,0 S,0,65607,65802,1,1.057
Sprite,Foreground,Centre,"SB\1.png",320,240 M,0,65801,,483.5097,257.342 F,0,65801,65996,1,0 S,0,65801,65996,1,1.057
Sprite,Foreground,Centre,"SB\1.png",320,240 M,0,65995,,483.5097,257.342 F,0,65995,66190,1,0 S,0,65995,66190,1,1.057
Sprite,Foreground,Centre,"SB\1.png",320,240 M,0,66190,,483.5097,257.342 F,0,66190,66385,1,0 S,0,66190,66385,1,1.057
Sprite,Foreground,Centre,"SB\2.png",320,240 M,0,64054,64248,508.2839,208.6194
Sprite,Foreground,Centre,"SB\3.png",320,240 M,0,64248,64442,508.2839,208.6194
Sprite,Foreground,Centre,"SB\4.png",320,240 M,0,64442,64636,509.1097,209.4452
Sprite,Foreground,Centre,"SB\5.png",320,240 M,0,64636,64830,508.2838,209.4452
Sprite,Foreground,Centre,"SB\6.png",320,240 M,0,64830,65025,507.4581,209.4452
Sprite,Foreground,Centre,"SB\7.png",320,240 M,0,65025,65219,507.4581,208.6194
Sprite,Foreground,Centre,"SB\8.png",320,240 M,0,65219,65413,505.8065,208.6194
Sprite,Foreground,Centre,"SB\9.png",320,240 M,0,65413,65607,506.6323,208.6194
Sprite,Foreground,Centre,"SB\11.png",320,240 M,0,65607,65801,506.6323,208.6194
Sprite,Foreground,Centre,"SB\12.png",320,240 M,0,65801,65995,506.6323,210.271
Sprite,Foreground,Centre,"SB\13.png",320,240 M,0,65995,66190,505,206 S,0,66190,,0.727
Sprite,Foreground,Centre,"SB\14.png",320,240 M,0,66190,66384,505,206 S,0,66384,,0.727
Sprite,Foreground,Centre,"SB\5.png",320,240 M,0,8714,8908,320,240
Sprite,Foreground,Centre,"SB\3.png",320,240 M,0,8325,8520,320,240
Sprite,Foreground,Centre,"SB\8.png",320,240 M,0,9296,9491,320,240
Sprite,Foreground,Centre,"SB\bg.jpg",320,240 S,0,76772,,0.6531613 F,0,76772,76869,0,1 F,0,76869,77743,1 F,0,77743,77937,1,0
Sprite,Foreground,Centre,"SB\bg.jpg",320,240 M,0,79102,,320,240 F,0,79102,79199,0,1 F,0,79199,80073,1 F,0,80073,80267,1,0
Sprite,Foreground,Centre,"SB\38.png",320,240 F,0,66384,66481,0,1 F,0,66481,69588,1 M,0,66578,,462.0387,254.8645 F,0,69588,69782,1,0
Sprite,Foreground,Centre,"SB\39.png",320,240 M,0,71044,,55.74194,253.2129 F,0,71044,71141,0,1 F,0,71141,73957,1 F,0,73957,74151,1,0
Sprite,Foreground,Centre,"SB\41.png",320,240 M,0,75122,,532.2323,325.8839 F,0,75122,75219,0.05445145,1 F,0,75219,76578,1 F,0,76578,76772,1,0
Sprite,Foreground,Centre,"SB\42.png",320,240 F,0,76772,76869,0,1 F,0,76869,77355,1 F,0,77355,77452,1,0
Sprite,Foreground,Centre,"SB\43.png",320,240 M,0,77937,,116.0258,168.1548 F,0,77937,78034,0,1 F,0,78034,78908,1 F,0,78908,79102,1,0
Sprite,Foreground,Centre,"SB\1.png",320,240 F,0,79102,79199,0,1 F,0,79199,79782,1 M,0,79491,,295.2258,290.3742 F,0,79782,79976,1,0
Sprite,Foreground,Centre,"SB\44.png",320,240 F,0,79102,79199,0,1 F,0,79199,79782,1 F,0,79782,79976,1,0
Sprite,Foreground,Centre,"SB\45.png",320,240 M,0,80267,,353.0323,268.0774 S,0,80267,,0.603613 F,0,80267,80364,0,1 F,0,80364,83568,1 F,0,83568,83762,1,0
Sprite,Foreground,Centre,"SB\4.png",320,240 S,0,84345,,0.8100644 M,0,84345,84539,545.4452,132.6452
Sprite,Foreground,Centre,"SB\3.png",320,240 S,0,84539,,0.7274841 M,0,84539,84733,543.7936,133.4709
Sprite,Foreground,Centre,"SB\46.png",320,240 S,0,84733,,0.6944513 M,0,84733,85025,538.0129,133.471
Sprite,Foreground,Centre,"SB\47.png",320,240 F,0,85025,85122,0,1 F,0,85122,87063,1 M,0,85219,,492.5936,342.4 F,0,87063,87258,1,0
Sprite,Foreground,Centre,"SB\48.png",320,240 M,0,87355,,163.0968,133.471 F,0,87355,87452,0,1 F,0,87452,89393,1 F,0,89393,89588,1,0
Sprite,Foreground,Centre,"SB\49.png",320,240 F,0,89685,89782,0,1 M,0,89782,,538.8387,177.2387 F,0,89782,90558,1 F,0,90558,90753,1,0
Sprite,Foreground,Centre,"SB\51.png",320,240 M,0,90850,,44.18063,322.5806 F,0,90850,90947,0,1 F,0,90947,91432,1 F,0,91432,91626,1,0
Sprite,Foreground,Centre,"SB\52.png",320,240 M,0,91918,,510.7613,216.8774 S,0,91918,,0.7605162 F,0,91918,92015,0,1 F,0,92015,93471,1 F,0,93471,93665,1,0
Sprite,Foreground,Centre,"SB\1.png",320,240 F,0,93762,93859,0,1 F,0,93859,94054,1 M,0,93957,,6.193552,381.213 S,0,93957,,0.5870969 F,0,94054,94248,1,0
Sprite,Foreground,Centre,"SB\33.png",320,240 F,0,93762,93859,0.0007740784,1 F,0,93859,94054,1 M,0,93957,,19.40644,349.8322 F,0,94054,94248,1,0
Sprite,Foreground,Centre,"SB\53.png",320,240 M,0,94345,,445.5226,273.0323 F,0,94345,94442,0,1 F,0,94442,96384,1 F,0,96384,96578,1,0
Sprite,Foreground,Centre,"SB\54.png",320,240 F,0,96675,96772,0,1 F,0,96772,98714,1 M,0,96966,,132.5419,390.2968 F,0,98714,98908,1,0
Sprite,Foreground,Centre,"SB\1.png",320,240 F,0,99879,99976,0,1 M,0,99976,,503.329,289.5485 F,0,99976,102792,1 F,0,102792,103083,1,0
Sprite,Foreground,Centre,"SB\36.png",320,240 F,0,99879,99976,0,1 M,0,99976,,528.1033,248.2581 F,0,99976,100461,1 F,0,100461,100656,1,0
Sprite,Foreground,Centre,"SB\55.png",320,240 F,0,100753,100850,0,1 F,0,100850,102792,1 M,0,101044,,530.5807,237.5226 S,0,101044,,0.9009032 F,0,102792,103083,1,0
Sprite,Foreground,Centre,"SB\heart.png",320,240 F,0,122306,122403,0,0.8 F,0,122403,125801,0.8,1 M,0,122597,,113.5484,378.7355 S,0,122597,,1.132129 R,0,122597,,-0.2807739 F,0,125801,125995,1,0
Sprite,Foreground,Centre,"SB\56.png",320,240 F,0,122306,122403,0,1 F,0,122403,125801,1 M,0,123180,,113.5484,244.9548 S,0,123180,,0.7522584 F,0,125801,125995,1,0
Sprite,Foreground,Centre,"SB\57.png",320,240 M,0,126092,,611.5097,145.858 S,0,126092,,0.8183226 F,0,126092,126190,0,1 F,0,126190,127840,1 F,0,127840,128034,1,0
Sprite,Foreground,Centre,"SB\58.png",320,240 M,0,128423,,99.50968,187.9742 S,0,128423,,0.7027097 F,0,128423,128520,0,1 F,0,128520,130461,1 F,0,130461,130656,1,0
Sprite,Foreground,Centre,"SB\59.png",320,240 M,0,131626,,602.4258,220.1806 S,0,131626,,0.6201291 F,0,131626,131724,0,1 F,0,131724,135122,1 F,0,135122,135316,1,0
Sprite,Foreground,Centre,"SB\61.png",320,240 M,0,135413,,51.61292,206.1419 S,0,135413,,0.5045161 F,0,135413,135510,0,1 F,0,135510,138908,1 F,0,138908,139102,1,0
Sprite,Foreground,Centre,"SB\1.png",320,240 F,0,141529,141626,0,1 F,0,141626,141821,1 M,0,141821,,69.78064,180.542 S,0,141821,,0.4632259 F,0,141821,142112,1,0
Sprite,Foreground,Centre,"SB\62.png",320,240 F,0,141529,141626,0,1 F,0,141626,141821,1 M,0,141821,,79.69034,155.7677 F,0,141821,142112,1,0
Sprite,Foreground,Centre,"SB\63.png",320,240 F,0,142112,142209,0,1 F,0,142209,146481,1 M,0,142403,,192,372.9548 F,0,146481,146675,1,0
Sprite,Foreground,Centre,"SB\29.png",320,240 M,0,146772,,92.90324,268.0774 F,0,146772,146869,0,1 F,0,146869,147646,1 F,0,147646,147840,1,0
Sprite,Foreground,Centre,"SB\64.png",320,240 M,0,147937,,591.6903,283.7678 F,0,147937,148034,0,1 F,0,148034,148520,1 F,0,148520,148714,1,0
Sprite,Foreground,Centre,"SB\65.png",320,240 F,0,149005,149102,0,1 M,0,149102,,78.03871,261.4709 F,0,149102,150558,1 F,0,150558,150753,1,0
Sprite,Foreground,Centre,"SB\1.png",320,240 M,0,150850,,548.7484,321.7549 S,0,150850,,0.6036127 F,0,150850,150947,0,1 F,0,150947,151141,1 F,0,151141,151432,1,0
Sprite,Foreground,Centre,"SB\33.png",320,240 F,0,150850,150947,0,1 F,0,150947,151141,1 M,0,151141,,562.7871,289.5484 F,0,151141,151432,1,0
Sprite,Foreground,Centre,"SB\34.png",320,240 F,0,151432,151529,0.03380631,1 F,0,151529,153180,1 M,0,152015,,165.5742,398.5548 F,0,153180,153374,1,0
Sprite,Foreground,Centre,"SB\66.png",320,240 M,0,153665,,462.0387,349.0065 F,0,153665,153762,0,1 F,0,153762,155801,1 F,0,155801,155995,1,0
Sprite,Foreground,Centre,"SB\1.png",320,240 F,0,156869,156966,0,1 F,0,156966,157549,1 M,0,157549,,484.3355,265.6 S,0,157549,,0.7935482 F,0,157549,157743,1,0
Sprite,Foreground,Centre,"SB\67.png",320,240 F,0,156869,156966,0,1 F,0,156966,157549,1 M,0,157549,,505.8065,225.1355 F,0,157549,157743,1,0
Sprite,Foreground,Centre,"SB\68.png",320,240 M,0,157840,,192,372.1291 F,0,157840,157937,0,1 F,0,157937,160753,1 F,0,160753,163374,1,0
Sprite,Foreground,Centre,"SB\69.png",320,240 M,0,165413,,320,240 F,0,165413,165510,0,1 F,0,165510,169782,1 F,0,169782,169976,1,0
Sprite,Foreground,Centre,"SB\1.png",320,240 F,0,174345,174442,0,1 F,0,174442,177646,1 F,0,177646,177840,1,0 M,0,177840,,296.0516,293.6774
Sprite,Foreground,Centre,"SB\bg.jpg",320,240 F,0,182889,184054,1 F,0,184054,184636,1,0
Sprite,Foreground,Centre,"SB\67.png",320,240 F,0,174345,174442,0,1 F,0,174442,177646,1 F,0,177646,177840,1,0
Sprite,Foreground,Centre,"SB\14.jpg",320,240 F,0,181141,181238,0,1 M,0,181141,183083,342.0452,268.0737,337.0082,267.9996 F,0,181238,182889,1 S,0,181432,,0.488 F,0,182889,183083,1,0
Sprite,Foreground,Centre,"SB\71.png",320,240 F,0,181141,181238,0,1 M,0,181238,,133.3678,257.3419 F,0,181238,182889,1 F,0,182889,183083,1,0
Sprite,Foreground,Centre,"SB\1111.png",320,240 F,0,1141,1238,0,1 S,0,1238,,0.4797419 F,0,1238,141529,1 F,0,141529,,1 F,0,141529,184054,1 F,0,184054,184636,1,0
Sprite,Foreground,Centre,"SB\72.png",320,240 F,0,182889,183083,0,1 F,0,183083,184054,1 F,0,184054,184636,1,0
//Storyboard Layer 4 (Overlay)
//Storyboard Sound Samples

[TimingPoints]
1156,291.26213592233,4,2,1,50,1,0
1737,-100,4,2,3,50,0,0
2028,-100,4,2,1,50,0,0
2902,-100,4,2,2,50,0,0
3388,-100,4,2,1,50,0,0
4067,-100,4,2,3,50,0,0
4358,-100,4,2,1,50,0,0
5232,-100,4,2,2,50,0,0
5718,-100,4,2,1,50,0,0
6397,-100,4,2,3,50,0,0
6688,-100,4,2,1,50,0,0
7562,-100,4,2,2,50,0,0
8048,-100,4,2,1,50,0,0
12514,-100,4,2,1,10,0,0
12708,-100,4,2,1,50,0,0
14844,-100,4,2,1,10,0,0
15039,-100,4,2,1,50,0,0
17174,-100,4,2,1,10,0,0
17369,-100,4,2,1,50,0,0
38436,-83.3333333333333,4,1,1,50,0,0
47465,-83.3333333333333,4,1,2,50,0,0
47659,-83.3333333333333,4,1,1,50,0,0
64067,-100,4,2,1,50,0,0
66980,-100,4,2,2,50,0,0
67174,-100,4,2,1,50,0,0
68145,-100,4,2,2,50,0,0
68339,-100,4,2,1,50,0,0
69310,-100,4,2,2,50,0,0
69504,-100,4,2,1,50,0,0
70475,-100,4,2,2,50,0,0
71057,-100,4,2,1,50,0,0
71640,-100,4,2,2,50,0,0
71834,-100,4,2,1,50,0,0
72805,-100,4,2,2,50,0,0
72999,-100,4,2,1,50,0,0
73970,-100,4,2,2,50,0,0
74164,-100,4,2,1,50,0,0
75135,-100,4,2,2,50,0,0
75718,-100,4,1,1,50,0,0
76786,-100,4,2,1,50,0,0
77466,-100,4,2,1,10,0,0
77757,-100,4,1,1,50,0,0
79116,-100,4,2,1,50,0,0
79796,-100,4,2,1,10,0,0
80087,-100,4,2,1,50,0,0
83776,-100,4,1,1,50,0,0
85038,-83.3333333333333,4,1,1,50,0,0
94067,-83.3333333333333,4,1,2,50,0,0
94261,-83.3333333333333,4,1,1,50,0,0
113000,-100,4,2,1,50,0,0
120281,-100,4,1,1,50,0,0
122320,-100,4,2,1,40,0,0
129310,-100,4,2,1,50,0,0
138631,-100,4,1,1,50,0,0
139796,-100,4,2,1,50,0,0
140087,-100,4,2,1,10,0,0
140670,-100,4,1,1,50,0,0
142125,-83.3333333333333,4,1,1,50,0,0
151154,-83.3333333333333,4,1,2,50,0,0
151349,-83.3333333333333,4,1,1,50,0,0
164165,-83.3333333333333,4,2,1,50,0,0
164845,-83.3333333333333,4,1,1,50,0,0
169989,-100,4,1,1,50,0,0
179892,-100,4,2,2,50,0,0
180572,-100,4,2,1,50,0,0

[Colours]
Combo1 : 171,205,239
Combo2 : 130,171,193
Combo3 : 141,206,211
Combo4 : 175,175,216
SliderTrackOverride : 235,235,235

[HitObjects]
69,53,1156,5,6,0:0:0:0:
156,91,1350,2,0,P|164:65|164:35,1,40,0|0,0:0|0:0,0:0:0:0:
46,133,1738,2,0,B|82:179|82:179|166:171,1,120,2|0,0:0|0:0,0:0:0:0:
234,203,2223,2,0,L|288:201,1,40,0|0,0:0|0:0,0:0:0:0:
369,213,2515,5,0,0:0:0:0:
369,213,2806,2,0,L|419:211,1,40,0|8,0:0|0:0,0:0:0:0:
197,322,3389,5,0,0:0:0:0:
197,322,3486,2,0,P|151:327|113:294,1,80,6|0,0:0|0:0,0:0:0:0:
111,285,3777,1,0,0:0:0:0:
94,141,4068,2,0,P|157:133|214:176,1,120,2|0,0:0|0:0,0:0:0:0:
242,249,4554,2,0,P|263:241|281:217,1,40,0|0,0:0|0:0,0:0:0:0:
296,135,4845,5,0,0:0:0:0:
296,135,5136,2,0,L|291:79,1,40,0|8,0:0|0:0,0:0:0:0:
488,307,5816,5,6,0:0:0:0:
399,334,6010,2,0,P|394:306|399:282,1,40,0|0,0:0|0:0,0:0:0:0:
492,188,6398,2,0,B|430:178|430:215|353:201,1,120,2|0,0:0|0:0,0:0:0:0:
280,225,6884,2,0,P|277:202|282:176,1,40,0|0,0:0|0:0,0:0:0:0:
219,110,7175,5,0,0:0:0:0:
219,110,7466,2,0,P|222:87|218:61,1,40,0|8,0:0|0:0,0:0:0:0:
81,265,8049,1,0,0:0:0:0:
100,244,8146,6,0,P|114:294|157:321,2,80,6|8|8,0:0|0:0|0:0,0:0:0:0:
100,140,8728,2,0,P|114:90|155:63,2,80,4|8|8,0:0|0:0|0:0,0:0:0:0:
193,144,9311,5,6,0:0:0:0:
272,192,9505,1,8,0:0:0:0:
193,240,9699,1,4,0:0:0:0:
193,144,9893,5,6,0:0:0:0:
382,280,10379,1,0,0:0:0:0:
406,294,10476,6,0,L|399:186,1,80,2|0,0:0|0:0,0:0:0:0:
400,186,10767,1,4,0:3:0:0:
488,64,11058,2,0,B|421:56|433:97|351:88,1,120,8|0,0:0|0:0,0:0:0:0:
286,45,11544,2,0,P|268:52|240:54,1,40,0|4,0:0|0:0,0:0:0:0:
152,39,11835,5,0,0:0:0:0:
152,39,12126,1,0,0:0:0:0:
125,31,12223,2,0,P|89:70|135:138,1,120,8|0,0:0|0:0,0:0:0:0:
204,145,12709,1,0,0:0:0:0:
227,129,12806,6,0,L|227:223,1,80,2|0,0:0|0:0,0:0:0:0:
229,237,13097,1,4,0:3:0:0:
136,334,13389,2,0,B|174:327|174:327|219:343|219:343|268:337,1,120,8|0,0:0|0:0,0:0:0:0:
341,303,13874,2,0,L|394:307,1,40,0|4,0:0|0:0,0:0:0:0:
476,318,14165,5,0,0:0:0:0:
476,318,14456,1,0,0:0:0:0:
480,290,14554,2,0,B|453:227|453:227|382:223,1,120,8|0,0:0|0:0,0:0:0:0:
331,158,15039,1,0,0:0:0:0:
309,176,15136,6,0,P|298:132|318:80,1,80,2|0,0:0|0:0,0:0:0:0:
315,73,15427,1,4,0:3:0:0:
449,23,15719,2,0,P|459:75|389:96,1,120,8|0,0:0|0:0,0:0:0:0:
315,73,16204,1,0,0:0:0:0:
294,41,16301,6,0,P|248:45|200:68,1,80,4|0,0:0|0:0,0:0:0:0:
216,57,16787,1,0,0:0:0:0:
193,42,16884,2,0,L|209:182,1,120,8|0,0:0|0:0,0:0:0:0:
216,257,17369,1,0,0:0:0:0:
209,284,17466,6,0,P|169:280|125:312,2,80,6|8|8,0:0|0:0|0:0,0:0:0:0:
308,292,18049,2,0,P|348:288|391:319,2,80,4|8|8,0:0|0:0|0:0,0:0:0:0:
256,208,18631,5,6,0:0:0:0:
209,127,18825,1,8,0:0:0:0:
302,128,19020,1,8,0:0:0:0:
342,104,19117,1,8,0:0:0:0:
382,127,19214,2,0,P|385:177|362:210,1,80,6|8,0:0|0:0,0:0:0:0:
256,208,19602,1,4,0:0:0:0:
209,127,19796,6,0,P|165:145|117:110,1,80,6|0,0:0|0:0,0:0:0:0:
117,114,20088,1,4,0:3:0:0:
32,228,20379,2,0,P|87:258|151:244,1,120,8|0,0:0|0:0,0:0:0:0:
235,226,20864,1,0,0:0:0:0:
257,209,20961,6,0,L|249:320,1,80,8|0,0:3|0:0,0:0:0:0:
248,317,21253,1,4,0:3:0:0:
337,352,21447,1,0,0:0:0:0:
363,341,21544,2,0,L|345:197,1,120,8|0,0:0|0:0,0:0:0:0:
341,127,22029,1,0,0:0:0:0:
350,100,22126,6,0,P|397:92|444:116,1,80,6|0,0:0|0:0,0:0:0:0:
450,119,22418,1,4,0:3:0:0:
348,221,22709,2,0,P|282:204|248:149,1,120,8|0,0:0|0:0,0:0:0:0:
221,73,23194,1,0,0:0:0:0:
194,63,23291,6,0,P|160:107|149:147,1,80,8|0,0:3|0:0,0:0:0:0:
125,139,23583,2,0,P|126:197|146:239,1,80,4|0,0:3|0:0,0:0:0:0:
121,242,23874,2,0,P|135:299|190:290,1,120,8|0,0:0|0:0,0:0:0:0:
283,297,24359,1,0,0:0:0:0:
286,269,24456,6,0,P|315:308|368:316,1,80,6|0,0:0|0:0,0:0:0:0:
372,317,24748,2,0,L|368:221,1,80,4|0,0:3|0:0,0:0:0:0:
365,209,25039,1,8,0:0:0:0:
452,93,25330,2,0,B|429:110|429:110|396:91|358:96,1,80,0|0,0:0|0:0,0:0:0:0:
352,97,25622,5,8,0:3:0:0:
257,117,25816,1,0,0:0:0:0:
243,141,25913,2,0,P|225:97|224:50,1,80,4|0,0:3|0:0,0:0:0:0:
225,37,26204,1,8,0:0:0:0:
114,127,26495,2,0,P|83:90|79:45,1,80,0|0,0:0|0:0,0:0:0:0:
64,35,26787,6,0,L|53:142,1,80,6|0,0:0|0:0,0:0:0:0:
54,143,27078,1,4,0:3:0:0:
54,143,27369,1,8,0:0:0:0:
47,286,27660,2,0,B|91:283|98:317|151:310,1,80,0|0,0:0|0:0,0:0:0:0:
151,310,27952,5,6,0:0:0:0:
225,250,28146,2,0,B|248:277|246:314|246:314|268:283|313:279,1,120,0|0,0:0|0:0,0:0:0:0:
314,280,28534,1,8,0:0:0:0:
401,322,28728,1,4,0:3:0:0:
425,335,28825,2,0,L|417:232,1,80,0|0,0:0|0:0,0:0:0:0:
418,227,29117,5,6,0:0:0:0:
412,132,29311,1,0,0:0:0:0:
387,145,29408,2,0,P|381:100|387:50,1,80,4|0,0:3|0:0,0:0:0:0:
387,38,29699,2,0,B|312:36|330:72|254:73,1,120,8|0,0:0|0:0,0:0:0:0:
181,43,30185,1,0,0:0:0:0:
153,39,30282,6,0,P|139:93|141:137,1,80,8|0,0:3|0:0,0:0:0:0:
128,143,30573,2,0,P|165:140|215:158,1,80,4|0,0:3|0:0,0:0:0:0:
232,161,30864,1,8,0:0:0:0:
242,304,31155,1,0,0:0:0:0:
145,304,31350,1,0,0:0:0:0:
117,310,31447,5,6,0:0:0:0:
50,241,31641,1,0,0:0:0:0:
76,230,31738,2,0,P|66:163|75:116,1,80,4|0,0:3|0:0,0:0:0:0:
74,124,32029,2,0,B|139:126|138:164|205:164,1,120,8|0,0:0|0:0,0:0:0:0:
269,116,32515,1,4,0:3:0:0:
283,91,32612,6,0,P|312:76|373:101,1,80,8|0,0:3|0:0,0:0:0:0:
385,83,32903,2,0,P|403:121|378:168,1,80,4|0,0:3|0:0,0:0:0:0:
410,177,33194,1,8,0:0:0:0:
502,288,33486,1,0,0:0:0:0:
405,298,33680,1,0,0:0:0:0:
382,314,33777,6,0,P|331:314|288:298,1,80,6|0,0:0|0:0,0:0:0:0:
278,295,34068,2,0,B|231:308|208:345|208:345|188:318|146:318,1,120,4|8,0:3|0:0,0:0:0:0:
44,359,34651,1,0,0:0:0:0:
73,269,34845,1,0,0:0:0:0:
86,244,34942,6,0,P|90:190|67:157,1,80,8|0,0:3|0:0,0:0:0:0:
62,146,35233,2,0,P|111:159|154:137,1,80,4|0,0:3|0:0,0:0:0:0:
154,127,35524,2,0,B|194:146|232:128|232:128|270:129|294:153,1,120,8|0,0:0|0:0,0:0:0:0:
242,228,36010,1,0,0:0:0:0:
215,218,36107,6,0,L|224:308,1,80,6|0,0:0|0:0,0:0:0:0:
227,325,36398,1,4,0:3:0:0:
363,368,36689,1,8,0:0:0:0:
449,322,36884,2,0,L|454:277,1,40,0|0,0:0|0:0,0:0:0:0:
456,187,37175,1,0,0:0:0:0:
462,159,37272,6,0,P|414:159|368:202,1,80,4|0,0:0|0:0,0:0:0:0:
371,198,37563,2,0,P|331:211|266:178,1,80,4|0,0:3|0:0,0:0:0:0:
270,190,37855,1,8,0:0:0:0:
174,178,38049,1,0,0:0:0:0:
158,201,38146,2,0,L|150:117,1,80,10|0,0:0|0:0,0:0:0:0:
90,55,38437,6,0,P|140:32|191:44,1,95.9999970703126,6|0,0:0|0:0,0:0:0:0:
213,32,38728,2,0,P|246:69|308:59,1,95.9999970703126,4|0,0:3|0:0,0:0:0:0:
317,50,39020,2,0,P|367:40|414:73,1,95.9999970703126,8|0,0:0|0:0,0:0:0:0:
434,76,39311,1,0,0:0:0:0:
474,184,39505,1,0,0:0:0:0:
481,216,39602,6,0,L|358:202,1,95.9999970703126,4|0,0:0|0:0,0:0:0:0:
352,203,39893,1,4,0:3:0:0:
254,265,40088,1,0,0:0:0:0:
281,283,40185,2,0,P|294:209|209:201,1,143.999995605469,8|0,0:0|0:0,0:0:0:0:
146,252,40670,1,0,0:0:0:0:
126,279,40767,6,0,P|105:229|108:166,1,95.9999970703126,6|0,0:0|0:0,0:0:0:0:
72,177,41058,2,0,P|76:129|122:81,1,95.9999970703126,4|0,0:3|0:0,0:0:0:0:
92,60,41350,2,0,P|166:53|195:93,1,95.9999970703126,8|0,0:0|0:0,0:0:0:0:
206,84,41641,1,0,0:0:0:0:
304,144,41835,1,0,0:0:0:0:
333,161,41932,6,0,B|357:133|402:140|402:140|414:151|417:187,1,95.9999970703126,4|0,0:0|0:0,0:0:0:0:
422,189,42223,1,4,0:3:0:0:
481,289,42418,1,0,0:0:0:0:
493,320,42515,2,0,B|422:341|417:289|334:307,1,143.999995605469,8|0,0:0|0:0,0:0:0:0:
181,331,43097,6,0,P|133:342|73:328,1,95.9999970703126,6|0,0:0|0:0,0:0:0:0:
64,311,43389,2,0,P|65:251|96:204,1,95.9999970703126,4|0,0:3|0:0,0:0:0:0:
176,229,43680,6,0,P|189:187|171:118,1,95.9999970703126,8|0,0:0|0:0,0:0:0:0:
158,112,43971,2,0,P|97:112|53:142,1,95.9999970703126,0|0,0:0|0:0,0:0:0:0:
81,219,44262,5,4,0:0:0:0:
181,331,44456,1,0,0:0:0:0:
207,309,44554,2,0,B|266:313|257:345|313:347,1,95.9999970703126,4|0,0:3|0:0,0:0:0:0:
333,303,44845,2,0,B|343:343|374:361|374:361|433:337|435:292,1,143.999995605469,8|0,0:0|0:0,0:0:0:0:
501,227,45330,1,0,0:0:0:0:
503,193,45427,6,0,P|446:175|386:185,1,95.9999970703126,6|0,0:0|0:0,0:0:0:0:
377,179,45719,2,0,P|323:194|267:173,1,95.9999970703126,4|0,0:3|0:0,0:0:0:0:
262,160,46010,2,0,P|208:140|152:160,1,95.9999970703126,8|0,0:0|0:0,0:0:0:0:
138,148,46301,1,0,0:0:0:0:
40,208,46495,1,0,0:0:0:0:
37,174,46592,6,0,P|84:242|171:242,1,143.999995605469,4|4,0:0|0:3,0:0:0:0:
276,230,47078,1,0,0:0:0:0:
299,206,47175,2,0,B|316:226|316:226|301:317,1,95.9999970703126,8|0,0:0|0:0,0:0:0:0:
384,338,47466,2,0,B|393:261|393:261|427:240,1,95.9999970703126,8|0,0:0|0:0,0:0:0:0:
491,252,47757,6,0,P|470:189|411:168,1,95.9999970703126,6|0,0:0|0:0,0:0:0:0:
414,170,48049,1,4,0:3:0:0:
329,93,48243,1,0,0:0:0:0:
331,59,48340,1,8,0:0:0:0:
226,107,48534,1,0,0:0:0:0:
233,139,48631,2,0,P|186:157|125:141,1,95.9999970703126,0|0,0:0|0:0,0:0:0:0:
115,131,48922,6,0,P|132:187|91:224,1,95.9999970703126,4|0,0:0|0:0,0:0:0:0:
88,237,49214,1,4,0:3:0:0:
28,334,49408,1,0,0:0:0:0:
9,306,49505,2,0,B|95:304|92:351|179:348,1,143.999995605469,8|0,0:0|0:0,0:0:0:0:
280,236,50088,6,0,P|329:249|318:319,1,95.9999970703126,6|0,0:0|0:0,0:0:0:0:
334,322,50379,1,4,0:3:0:0:
223,290,50573,1,0,0:0:0:0:
191,279,50670,2,0,L|196:165,1,95.9999970703126,8|0,0:0|0:0,0:0:0:0:
197,149,50961,1,0,0:0:0:0:
119,64,51155,1,0,0:0:0:0:
89,47,51253,6,0,B|74:104|74:104|83:152,1,95.9999970703126,4|0,0:0|0:0,0:0:0:0:
89,173,51544,1,4,0:3:0:0:
172,252,51738,1,0,0:0:0:0:
191,279,51835,2,0,B|134:272|134:272|89:306|15:275,1,143.999995605469,8|4,0:0|0:3,0:0:0:0:
271,234,52418,5,6,0:0:0:0:
271,234,52927,5,4,0:3:0:0:
304,230,53000,1,8,0:0:0:0:
447,325,53291,2,0,P|394:334|345:293,1,95.9999970703126,0|0,0:0|0:0,0:0:0:0:
411,251,53583,6,0,L|432:139,1,95.9999970703126,4|0,0:0|0:0,0:0:0:0:
428,156,54165,2,0,P|377:111|327:126,1,95.9999970703126,8|0,0:0|0:0,0:0:0:0:
322,98,54456,2,0,P|280:136|226:121,1,95.9999970703126,0|0,0:0|0:0,0:0:0:0:
211,123,54748,5,6,0:0:0:0:
211,123,55039,2,0,L|201:60,2,47.9999985351563,4|8|8,0:3|0:0|0:0,0:0:0:0:
221,206,55330,2,0,P|167:198|132:156,1,95.9999970703126,8|0,0:0|0:0,0:0:0:0:
85,110,55622,2,0,L|99:56,2,47.9999985351563,8|8|8,0:0|0:0|0:0,0:0:0:0:
58,191,55913,5,4,0:3:0:0:
22,303,56107,1,0,0:0:0:0:
42,329,56204,2,0,L|156:319,1,95.9999970703126,4|0,0:3|0:0,0:0:0:0:
171,318,56495,1,10,0:0:0:0:
219,130,63971,5,0,0:0:0:0:
194,143,64068,6,0,B|169:125|169:125|150:54,2,80,6|8|8,0:0|0:0|0:0,0:0:0:0:
318,143,64651,2,0,B|343:125|343:125|362:58,2,80,4|8|8,0:0|0:0|0:0,0:0:0:0:
256,216,65233,5,6,0:0:0:0:
208,297,65427,1,8,0:0:0:0:
303,296,65622,1,8,0:0:0:0:
341,322,65719,1,8,0:0:0:0:
380,297,65816,2,0,P|372:255|349:223,1,80,6|8,0:0|0:0,0:0:0:0:
256,216,66204,1,4,0:0:0:0:
208,297,66398,5,8,0:3:0:0:
132,349,66592,2,0,P|107:349|81:355,1,40,0|4,0:0|0:3,0:0:0:0:
36,223,66981,1,8,0:0:0:0:
111,163,67175,1,0,0:0:0:0:
137,172,67272,1,0,0:0:0:0:
245,77,67563,6,0,P|181:84|141:98,1,80,8|0,0:3|0:0,0:0:0:0:
319,17,68049,1,0,0:0:0:0:
345,7,68146,2,0,P|355:48|360:118,1,80,8|0,0:0|0:0,0:0:0:0:
375,109,68437,1,0,0:0:0:0:
455,229,68728,5,8,0:3:0:0:
370,282,68922,2,0,P|371:258|375:224,1,40,0|4,0:0|0:3,0:0:0:0:
236,195,69311,1,8,0:0:0:0:
253,289,69505,1,0,0:0:0:0:
280,286,69602,1,0,0:0:0:0:
147,342,69893,6,0,P|104:326|40:323,1,80,8|0,0:3|0:0,0:0:0:0:
17,189,70379,1,0,0:0:0:0:
22,161,70476,2,0,P|67:178|121:176,1,80,8|0,0:0|0:0,0:0:0:0:
126,175,70767,1,8,0:0:0:0:
249,102,71058,5,8,0:3:0:0:
339,63,71253,2,0,L|336:16,1,40,0|4,0:0|0:3,0:0:0:0:
471,69,71641,1,8,0:0:0:0:
409,142,71835,1,0,0:0:0:0:
405,169,71932,1,0,0:0:0:0:
494,281,72223,6,0,P|450:269|393:282,1,80,8|0,0:3|0:0,0:0:0:0:
291,346,72709,1,0,0:0:0:0:
270,326,72806,2,0,P|325:329|368:346,1,80,8|0,0:0|0:0,0:0:0:0:
372,352,73097,1,0,0:0:0:0:
321,218,73389,5,8,0:3:0:0:
235,180,73583,2,0,P|208:188|184:200,1,40,0|4,0:0|0:3,0:0:0:0:
66,138,73971,1,8,0:0:0:0:
149,90,74165,1,0,0:0:0:0:
140,63,74262,1,0,0:0:0:0:
274,12,74554,6,0,P|283:53|268:103,1,80,8|0,0:3|0:0,0:0:0:0:
409,35,75039,1,0,0:0:0:0:
434,22,75136,2,0,P|430:75|447:114,1,80,8|0,0:0|0:0,0:0:0:0:
451,125,75427,1,8,0:0:0:0:
489,266,75719,5,6,1:0:0:0:
403,309,75913,2,0,L|404:257,1,40,0|4,3:0|0:3,0:0:0:0:
317,230,76204,1,0,0:0:0:0:
290,222,76301,2,0,P|241:238|213:266,1,80,8|0,1:0|1:0,0:0:0:0:
175,121,76787,6,0,P|112:234|225:252,1,280,2|0,1:0|3:0,0:0:0:0:
239,37,77952,5,0,0:0:0:0:
266,39,78049,1,6,1:0:0:0:
329,110,78243,2,0,P|372:101|423:77,1,80
431,76,78534,1,0,0:0:0:0:
453,59,78631,1,8,1:0:0:0:
474,150,78825,2,0,P|431:172|397:208,1,80,0|0,0:0|0:0,0:0:0:0:
417,272,79117,6,0,B|390:243|408:193|408:193|319:277|192:224,1,280,2|0,1:0|3:0,0:0:0:0:
58,159,80088,1,2,0:0:0:0:
22,244,80282,1,0,0:0:0:0:
21,271,80379,6,0,P|62:268|114:291,1,80,4|0,0:0|0:0,0:0:0:0:
110,306,80670,2,0,P|154:291|216:301,1,80,4|0,0:3|0:0,0:0:0:0:
207,312,80961,1,8,0:0:0:0:
299,342,81155,2,0,L|293:299,1,40,0|0,0:0|0:0,0:0:0:0:
383,269,81447,1,0,0:0:0:0:
407,283,81544,6,0,L|417:189,1,80,4|0,0:0|0:0,0:0:0:0:
447,194,81835,2,0,L|440:89,1,80,4|0,0:3|0:0,0:0:0:0:
460,93,82126,1,8,0:0:0:0:
384,34,82321,2,0,P|365:48|345:80,1,40,0|0,0:0|0:0,0:0:0:0:
315,147,82612,1,0,0:0:0:0:
288,137,82709,6,0,P|245:239|144:258,1,200,6|0,0:0|0:0,0:0:0:0:
136,162,83291,2,0,P|205:177|177:109,1,160,8|0,0:0|0:0,0:0:0:0:
114,82,83777,1,0,0:0:0:0:
96,57,83874,6,0,P|66:33|15:38,1,80,4|0,0:0|0:0,0:0:0:0:
131,56,84165,2,0,P|166:34|218:37,1,80,4|0,0:3|0:0,0:0:0:0:
298,93,84456,6,0,P|307:45|271:-6,1,80,8|0,0:0|0:0,0:0:0:0:
305,121,84748,2,0,P|333:72|377:63,1,80,0|0,0:0|0:0,0:0:0:0:
389,140,85039,6,0,P|421:186|420:259,1,95.9999970703126,6|0,0:0|0:0,0:0:0:0:
455,244,85330,2,0,P|429:295|367:314,1,95.9999970703126,4|0,0:3|0:0,0:0:0:0:
377,340,85622,2,0,P|319:336|283:247,1,143.999995605469,8|0,0:0|0:0,0:0:0:0:
265,153,86107,1,0,0:0:0:0:
297,146,86204,6,0,P|307:66|275:47,1,95.9999970703126,4|0,0:0|0:0,0:0:0:0:
274,45,86495,1,4,0:2:0:0:
167,88,86689,1,0,0:0:0:0:
143,64,86787,2,0,B|120:152|160:151|141:227,1,143.999995605469,8|0,0:0|0:0,0:0:0:0:
79,301,87272,1,0,0:0:0:0:
56,276,87369,6,0,P|120:296|175:295,1,95.9999970703126,6|0,0:0|0:0,0:0:0:0:
174,320,87660,2,0,P|237:317|278:294,1,95.9999970703126,4|0,0:3|0:0,0:0:0:0:
299,310,87952,2,0,L|285:195,1,95.9999970703126,8|0,0:0|0:0,0:0:0:0:
299,183,88243,1,0,0:0:0:0:
409,148,88437,1,0,0:0:0:0:
419,116,88534,6,0,P|369:110|334:58,1,95.9999970703126,4|0,0:0|0:0,0:0:0:0:
331,45,88825,1,4,0:3:0:0:
218,23,89020,1,0,0:0:0:0:
234,52,89117,2,0,P|203:91|126:49,1,143.999995605469,8|0,0:0|0:0,0:0:0:0:
65,218,89699,6,0,P|48:245|52:325,1,95.9999970703126,6|0,0:0|0:0,0:0:0:0:
73,327,89990,2,0,P|127:318|165:279,1,95.9999970703126,4|0,0:3|0:0,0:0:0:0:
158,204,90282,6,0,P|196:164|249:156,1,95.9999970703126,8|0,0:0|0:0,0:0:0:0:
261,175,90573,2,0,P|268:229|236:278,1,95.9999970703126,0|0,0:0|0:0,0:0:0:0:
157,291,90864,5,4,0:0:0:0:
299,324,91058,1,0,0:0:0:0:
289,356,91155,2,0,P|337:346|409:349,1,95.9999970703126,4|0,0:3|0:0,0:0:0:0:
430,359,91447,2,0,P|403:306|476:312,1,143.999995605469,8|0,0:0|0:0,0:0:0:0:
487,181,91932,1,0,0:0:0:0:
459,161,92029,6,0,P|410:162|349:180,1,95.9999970703126,6|0,0:0|0:0,0:0:0:0:
338,194,92321,2,0,P|282:195|227:179,1,95.9999970703126,4|0,0:3|0:0,0:0:0:0:
217,167,92612,2,0,P|172:156|100:165,1,95.9999970703126,8|0,0:0|0:0,0:0:0:0:
96,178,92903,1,0,0:0:0:0:
58,288,93097,1,0,0:0:0:0:
62,321,93194,6,0,B|100:327|124:302|124:302|151:328|197:322,1,143.999995605469,4|4,0:0|0:3,0:0:0:0:
302,279,93680,1,0,0:0:0:0:
305,312,93777,2,0,B|377:329|377:329|420:312,1,95.9999970703126,8|0,0:0|0:0,0:0:0:0:
377,244,94068,2,0,L|369:131,1,95.9999970703126,8|0,0:0|0:0,0:0:0:0:
419,79,94359,6,0,P|362:64|305:93,1,95.9999970703126,6|0,0:0|0:0,0:0:0:0:
303,98,94651,1,4,0:3:0:0:
209,163,94845,1,0,0:0:0:0:
175,168,94942,1,8,0:0:0:0:
62,146,95136,1,0,0:0:0:0:
79,117,95233,2,0,P|85:174|81:229,1,95.9999970703126,0|0,0:0|0:0,0:0:0:0:
85,246,95524,6,0,P|130:261|153:328,1,95.9999970703126,4|0,0:0|0:0,0:0:0:0:
161,334,95816,1,4,0:3:0:0:
276,328,96010,1,0,0:0:0:0:
270,294,96107,2,0,B|353:300|347:337|415:342,1,143.999995605469,8|0,0:0|0:0,0:0:0:0:
488,188,96689,6,0,P|450:200|368:203,1,95.9999970703126,6|0,0:0|0:0,0:0:0:0:
360,204,96981,1,4,0:2:0:0:
293,111,97175,1,0,0:0:0:0:
286,78,97272,2,0,P|254:110|182:123,1,95.9999970703126,8|0,0:0|0:0,0:0:0:0:
178,107,97563,2,0,P|133:83|81:87,1,95.9999970703126,0|0,0:0|0:0,0:0:0:0:
59,101,97855,6,0,L|69:208,1,95.9999970703126,4|0,0:0|0:0,0:0:0:0:
72,230,98146,1,4,0:3:0:0:
132,328,98340,1,0,0:0:0:0:
137,294,98437,2,0,B|193:306|193:306|230:299|230:299|297:309,1,143.999995605469,8|4,0:0|0:3,0:0:0:0:
448,266,99020,5,6,0:0:0:0:
448,266,99529,1,4,0:3:0:0:
442,232,99602,1,8,0:0:0:0:
294,145,99893,2,0,P|294:83|319:33,1,95.9999970703126,0|0,0:0|0:0,0:0:0:0:
334,32,100185,6,0,P|268:59|202:48,1,95.9999970703126,4|0,0:0|0:0,0:0:0:0:
245,60,100767,2,0,P|178:37|139:45,1,95.9999970703126,8|0,0:0|0:0,0:0:0:0:
124,54,101058,2,0,L|134:167,1,95.9999970703126,0|0,0:0|0:0,0:0:0:0:
137,183,101350,5,6,0:0:0:0:
135,298,101544,1,0,0:0:0:0:
108,318,101641,2,0,L|48:306,2,47.9999985351563,4|8|8,0:3|0:0|0:0,0:0:0:0:
185,366,101932,2,0,P|231:363|284:334,1,95.9999970703126,8|0,0:0|0:0,0:0:0:0:
327,270,102223,2,0,L|314:208,2,47.9999985351563,8|8|8,0:0|0:0|0:0,0:0:0:0:
366,345,102515,5,4,0:3:0:0:
476,309,102709,1,0,0:0:0:0:
482,275,102806,1,4,0:3:0:0:
440,86,103097,1,10,0:0:0:0:
99,46,113000,5,6,0:0:0:0:
119,189,113291,1,4,0:3:0:0:
234,104,113583,2,0,P|272:107|328:125,1,80,8|0,0:0|0:0,0:0:0:0:
336,133,113874,1,0,0:0:0:0:
424,92,114068,1,0,0:0:0:0:
447,95,114165,6,0,L|444:189,1,80,8|0,0:3|0:0,0:0:0:0:
445,203,114456,1,4,0:3:0:0:
375,329,114748,2,0,P|394:306|476:349,1,120,8|0,0:0|0:0,0:0:0:0:
291,285,115330,5,6,0:0:0:0:
156,330,115622,1,4,0:3:0:0:
40,251,115913,2,0,P|78:226|127:220,1,80,8|0,0:0|0:0,0:0:0:0:
139,217,116204,1,0,0:0:0:0:
227,176,116398,1,0,0:0:0:0:
253,186,116495,6,0,L|242:84,1,80,8|0,0:3|0:0,0:0:0:0:
241,79,116787,1,0,0:0:0:0:
383,88,117078,2,0,P|381:133|458:115,1,120,8|0,0:0|0:0,0:0:0:0:
329,16,117660,5,6,0:0:0:0:
191,47,117952,1,4,0:3:0:0:
51,28,118243,2,0,P|74:78|84:135,1,80,8|0,0:0|0:0,0:0:0:0:
85,129,118534,1,0,0:0:0:0:
163,187,118728,1,0,0:0:0:0:
189,178,118825,6,0,P|203:222|198:276,1,80,8|0,0:3|0:0,0:0:0:0:
199,284,119117,1,4,0:3:0:0:
326,354,119408,2,0,P|300:313|368:307,1,120,8|0,0:0|0:0,0:0:0:0:
487,224,119990,5,6,0:0:0:0:
394,115,120282,5,4,0:3:0:0:
375,135,120379,1,0,0:0:0:0:
355,115,120476,1,0,0:0:0:0:
375,95,120573,1,8,0:0:0:0:
238,71,120864,5,4,0:3:0:0:
218,91,120961,1,0,0:0:0:0:
199,71,121058,1,0,0:0:0:0:
218,51,121155,1,4,0:0:0:0:
120,110,121350,5,0,2:0:0:0:
97,93,121447,2,0,L|110:232,1,120,4|8,0:3|0:0,0:0:0:0:
381,317,122321,5,2,0:0:0:0:
381,317,123486,5,4,0:3:0:0:
381,317,124651,5,4,0:0:0:0:
256,64,126981,5,2,0:0:0:0:
256,64,128146,5,4,0:3:0:0:
256,64,129311,6,0,P|206:80|179:123,2,80,4|8|8,0:0|0:0|0:0,0:0:0:0:
263,157,129893,2,0,P|278:200|266:242,2,80,6|8|8,0:0|0:0|0:0,0:0:0:0:
182,205,130476,2,0,P|136:196|105:166,2,80,4|8|8,0:0|0:0|0:0,0:0:0:0:
182,111,131058,5,6,0:0:0:0:
263,157,131253,1,8,0:0:0:0:
182,205,131447,1,4,0:0:0:0:
182,111,131641,5,14,0:0:0:0:
265,250,132223,1,8,0:0:0:0:
102,254,132806,1,8,0:0:0:0:
102,254,133291,5,0,0:0:0:0:
78,238,133389,2,0,P|80:293|157:332,1,120,8|0,0:0|0:0,0:0:0:0:
272,328,133971,6,0,L|260:180,1,120,6|4,0:0|0:3,0:0:0:0:
365,106,134554,2,0,L|376:248,1,120,8|4,0:0|0:3,0:0:0:0:
387,321,135039,1,0,0:0:0:0:
390,348,135136,5,8,0:0:0:0:
249,370,135427,1,4,0:3:0:0:
175,309,135622,1,0,0:0:0:0:
168,281,135719,2,0,P|124:301|41:253,1,120,8|8,0:0|0:0,0:0:0:0:
26,105,136301,5,6,0:0:0:0:
118,214,136592,1,4,0:3:0:0:
210,191,136787,1,0,0:0:0:0:
223,166,136884,2,0,B|262:167|262:167|298:193|298:193|347:194,1,120,8|4,0:0|0:3,0:0:0:0:
419,146,137369,1,0,0:0:0:0:
419,118,137466,5,8,0:0:0:0:
480,248,137757,1,4,0:3:0:0:
416,316,137952,1,0,0:0:0:0:
389,324,138049,2,0,B|341:327|341:327|318:350|318:350|252:356,1,120,8|0,0:0|0:0,0:0:0:0:
96,312,138631,6,0,L|43:321,2,40,6|8|8,0:0|0:3|0:3,0:0:0:0:
64,216,138922,2,0,L|8:200,2,40,4|8|8,0:3|0:3|0:3,0:0:0:0:
112,128,139214,6,0,L|96:72,2,40,8|8|8,0:3|0:3|0:3,0:0:0:0:
208,120,139505,2,0,L|224:72,2,40,8|8|8,0:3|0:3|0:3,0:0:0:0:
283,171,139796,6,0,B|340:168|366:244|366:244|400:173|460:184,1,240,6|0,0:0|3:0,0:0:0:0:
459,183,140864,5,0,0:0:0:0:
456,155,140961,1,4,0:0:0:0:
352,78,141253,1,4,0:3:0:0:
218,119,141544,2,0,P|176:137|115:125,1,80,8|0,0:0|0:0,0:0:0:0:
117,124,141835,1,0,0:0:0:0:
41,280,142126,6,0,P|83:267|147:283,1,95.9999970703126,6|0,0:0|0:0,0:0:0:0:
158,299,142418,2,0,P|207:301|259:340,1,95.9999970703126,4|0,0:3|0:0,0:0:0:0:
271,348,142709,2,0,P|306:323|372:354,1,95.9999970703126,8|0,0:0|0:0,0:0:0:0:
386,347,143000,1,0,0:0:0:0:
496,309,143194,1,0,0:0:0:0:
474,283,143291,6,0,L|471:160,1,95.9999970703126,4|0,0:0|0:0,0:0:0:0:
472,153,143583,1,4,0:3:0:0:
376,88,143777,1,0,0:0:0:0:
370,121,143874,2,0,P|347:163|249:137,1,143.999995605469,8|0,0:0|0:0,0:0:0:0:
178,75,144359,1,0,0:0:0:0:
150,56,144456,6,0,L|157:180,1,95.9999970703126,6|0,0:0|0:0,0:0:0:0:
127,171,144748,2,0,L|135:276,1,95.9999970703126,4|0,0:3|0:0,0:0:0:0:
122,298,145039,2,0,P|181:285|230:299,1,95.9999970703126,8|0,0:0|0:0,0:0:0:0:
237,317,145330,1,0,0:0:0:0:
348,287,145524,1,0,0:0:0:0:
378,301,145622,6,0,P|381:238|369:189,1,95.9999970703126,4|0,0:0|0:0,0:0:0:0:
363,175,145913,1,4,0:3:0:0:
357,61,146107,1,0,0:0:0:0:
391,66,146204,2,0,P|445:81|451:170,1,143.999995605469,8|0,0:0|0:0,0:0:0:0:
263,126,146787,6,0,P|209:103|181:50,1,95.9999970703126,6|0,0:0|0:0,0:0:0:0:
154,74,147078,2,0,P|132:127|81:156,1,95.9999970703126,4|0,0:3|0:0,0:0:0:0:
81,237,147369,6,0,P|135:233|187:192,1,95.9999970703126,8|0,0:0|0:0,0:0:0:0:
203,207,147660,2,0,P|264:222|308:210,1,95.9999970703126,0|0,0:0|0:0,0:0:0:0:
263,126,147952,5,4,0:0:0:0:
102,149,148146,1,0,0:0:0:0:
69,149,148243,2,0,P|46:118|77:50,1,95.9999970703126,4|0,0:3|0:0,0:0:0:0:
75,36,148534,2,0,B|131:40|168:71|168:71|197:66|234:47,1,143.999995605469,8|0,0:0|0:0,0:0:0:0:
321,25,149020,1,0,0:0:0:0:
353,17,149117,6,0,P|367:61|370:132,1,95.9999970703126,6|0,0:0|0:0,0:0:0:0:
402,126,149408,2,0,P|404:197|386:242,1,95.9999970703126,4|0,0:3|0:0,0:0:0:0:
413,250,149699,1,8,0:0:0:0:
324,325,149893,1,0,0:0:0:0:
295,342,149990,2,0,L|280:226,1,95.9999970703126,0|0,0:0|0:0,0:0:0:0:
285,158,150282,6,0,B|221:161|191:226|191:226|134:212,1,143.999995605469,4|4,0:0|0:3,0:0:0:0:
64,179,150767,1,0,0:0:0:0:
74,147,150864,2,0,L|87:267,1,95.9999970703126,8|0,0:0|0:0,0:0:0:0:
90,276,151155,1,8,0:0:0:0:
190,334,151350,1,0,0:0:0:0:
219,350,151447,6,0,P|269:344|331:310,1,95.9999970703126,6|0,0:0|0:0,0:0:0:0:
333,301,151738,1,4,0:3:0:0:
454,178,152029,2,0,P|388:175|344:131,1,95.9999970703126,8|0,0:0|0:0,0:0:0:0:
345,132,152321,1,0,0:0:0:0:
264,49,152515,1,0,0:0:0:0:
236,29,152612,6,0,P|222:94|217:153,1,95.9999970703126,4|0,0:0|0:0,0:0:0:0:
214,157,152903,1,4,0:3:0:0:
106,212,153097,1,0,0:0:0:0:
75,197,153194,2,0,B|163:192|142:249|217:247,1,143.999995605469,8|0,0:0|0:0,0:0:0:0:
303,310,153680,1,0,0:0:0:0:
334,321,153777,6,0,L|321:204,1,95.9999970703126,6|0,0:0|0:0,0:0:0:0:
319,192,154068,1,4,0:3:0:0:
425,145,154262,1,0,0:0:0:0:
448,120,154359,2,0,P|405:86|346:83,1,95.9999970703126,8|0,0:0|0:0,0:0:0:0:
332,83,154651,1,0,0:0:0:0:
238,149,154845,1,0,0:0:0:0:
210,167,154942,6,0,L|194:41,1,95.9999970703126,4|0,0:0|0:0,0:0:0:0:
193,38,155233,1,4,0:3:0:0:
76,51,155427,1,0,0:0:0:0:
70,84,155524,1,8,0:0:0:0:
133,193,155719,2,0,L|125:129,1,47.9999985351563,0|4,0:0|0:3,0:0:0:0:
43,317,156107,5,6,0:0:0:0:
158,307,156301,2,0,P|173:312|205:330,1,47.9999985351563,4|4,0:0|0:3,0:0:0:0:
373,337,156689,2,0,P|322:323|296:252,1,95.9999970703126,8|0,0:0|0:0,0:0:0:0:
293,256,156981,1,0,0:0:0:0:
350,156,157175,1,0,0:0:0:0:
371,130,157272,6,0,B|320:132|332:99|256:102,1,95.9999970703126,4|4,0:0|0:3,0:0:0:0:
280,102,157757,1,0,0:0:0:0:
252,83,157855,2,0,P|222:111|193:168,1,95.9999970703126,8|0,0:0|0:0,0:0:0:0:
187,191,158146,1,0,0:0:0:0:
71,188,158340,1,0,0:0:0:0:
75,221,158437,5,6,0:0:0:0:
75,335,158631,2,0,P|97:328|133:326,1,47.9999985351563,0|4,0:0|0:3,0:0:0:0:
237,313,158922,1,0,0:0:0:0:
261,289,159020,2,0,P|307:319|370:327,1,95.9999970703126,8|0,0:0|0:0,0:0:0:0:
380,327,159311,2,0,L|375:217,1,95.9999970703126,0|0,0:0|0:0,0:0:0:0:
375,198,159602,5,4,0:0:0:0:
451,111,159796,2,0,P|466:129|477:159,1,47.9999985351563,0|4,0:0|0:3,0:0:0:0:
384,58,160088,1,0,0:0:0:0:
352,69,160185,2,0,P|322:77|291:76,2,47.9999985351563,8|0|0,0:0|0:0|0:0,0:0:0:0:
285,158,160476,2,0,P|260:153|231:128,2,47.9999985351563,8|0|0,0:0|0:0|0:0,0:0:0:0:
168,192,160767,6,0,B|146:162|152:122|152:122|132:158|95:159,1,143.999995605469,6|0,0:0|0:0,0:0:0:0:
61,328,161350,2,0,P|101:315|177:320,1,95.9999970703126,0|0,0:0|0:0,0:0:0:0:
187,322,161641,1,0,0:0:0:0:
302,327,161835,1,0,0:0:0:0:
327,348,161932,6,0,P|340:293|387:253,1,95.9999970703126,0|0,0:0|0:0,0:0:0:0:
398,257,162223,2,0,P|346:215|334:162,1,95.9999970703126,0|0,0:0|0:0,0:0:0:0:
332,156,162515,1,0,0:0:0:0:
415,75,162709,2,0,P|447:69|476:69,1,47.9999985351563,0|0,0:0|0:0,0:0:0:0:
290,55,163097,6,0,B|253:33|207:39|207:39|178:73|121:79,1,143.999995605469,0|0,0:0|0:0,0:0:0:0:
45,51,163583,1,0,0:0:0:0:
64,23,163680,2,0,P|67:88|67:143,1,95.9999970703126,8|0,0:0|0:0,0:0:0:0:
66,153,163971,1,0,0:0:0:0:
53,268,164165,1,0,0:0:0:0:
39,298,164262,6,0,P|97:293|154:311,1,95.9999970703126,6|0,0:0|0:0,0:0:0:0:
161,321,164554,2,0,P|206:311|266:321,1,95.9999970703126,4|0,0:3|0:0,0:0:0:0:
286,304,164845,5,8,0:0:0:0:
396,339,165039,1,0,0:0:0:0:
427,350,165136,2,0,L|417:226,1,95.9999970703126,0|0,0:0|0:0,0:0:0:0:
434,224,165427,6,0,P|383:219|406:130,1,143.999995605469,4|4,0:0|0:3,0:0:0:0:
239,43,166010,1,8,0:0:0:0:
131,79,166204,2,0,P|126:106|124:140,1,47.9999985351563,0|0,0:0|0:0,0:0:0:0:
43,207,166495,1,0,0:0:0:0:
29,237,166592,6,0,P|114:246|167:312,1,143.999995605469,6|4,0:0|0:3,0:0:0:0:
250,348,167078,1,0,0:0:0:0:
274,325,167175,2,0,P|269:246|258:200,1,95.9999970703126,8|0,0:0|0:0,0:0:0:0:
253,199,167466,1,0,0:0:0:0:
183,40,167757,6,0,B|184:68|175:88|175:88|220:79|285:79,1,143.999995605469,4|4,0:0|0:3,0:0:0:0:
378,38,168243,1,0,0:0:0:0:
408,25,168340,2,0,P|426:78|433:141,1,95.9999970703126,4|0,0:0|0:0,0:0:0:0:
437,151,168631,1,0,0:0:0:0:
486,256,168825,1,0,0:0:0:0:
491,289,168922,6,0,L|367:278,1,95.9999970703126,6|0,0:0|0:0,0:0:0:0:
362,277,169214,1,4,0:3:0:0:
265,337,169408,1,0,0:0:0:0:
267,303,169505,1,8,0:0:0:0:
164,254,169699,1,0,0:0:0:0:
167,287,169796,1,0,0:0:0:0:
66,335,169990,1,0,0:0:0:0:
56,308,170088,6,0,L|69:173,1,120,4|4,0:0|0:3,0:0:0:0:
77,92,170573,1,0,0:0:0:0:
103,102,170670,2,0,P|141:127|160:185,1,80,8|0,0:0|0:0,0:0:0:0:
166,183,170961,1,0,0:0:0:0:
289,256,171253,6,0,P|275:203|344:197,1,120,6|4,0:0|0:3,0:0:0:0:
419,159,171738,1,0,0:0:0:0:
445,167,171835,2,0,P|469:219|408:239,1,120,8|0,0:0|0:0,0:0:0:0:
459,76,172418,5,4,0:0:0:0:
317,107,172709,1,4,0:3:0:0:
223,89,172903,1,0,0:0:0:0:
202,69,173000,2,0,P|181:105|172:168,1,80,8|0,0:0|0:0,0:0:0:0:
170,170,173291,2,0,P|138:122|103:97,1,80,0|0,0:0|0:0,0:0:0:0:
98,92,173583,5,6,0:0:0:0:
34,165,173777,1,0,0:0:0:0:
31,192,173874,2,0,L|43:286,1,80,4|0,0:3|0:0,0:0:0:0:
48,298,174165,2,0,P|107:282|155:292,1,80,8|0,0:0|0:0,0:0:0:0:
152,291,174456,1,0,0:0:0:0:
297,302,174748,5,4,0:0:0:0:
382,260,174942,2,0,P|395:275|406:299,1,40,0|4,0:0|0:3,0:0:0:0:
493,331,175233,1,0,0:0:0:0:
496,303,175330,2,0,P|494:235|485:201,1,80,8|0,0:0|0:0,0:0:0:0:
484,196,175622,1,0,0:0:0:0:
416,128,175816,1,0,0:0:0:0:
388,134,175913,5,6,0:0:0:0:
303,180,176107,2,0,P|282:175|259:163,1,40,0|4,0:0|0:3,0:0:0:0:
154,77,176495,1,8,0:0:0:0:
69,120,176689,1,0,0:0:0:0:
41,112,176787,2,0,P|35:171|44:213,1,80,0|0,0:0|0:0,0:0:0:0:
50,217,177078,5,4,0:0:0:0:
127,276,177272,2,0,P|152:269|179:264,1,40,0|4,0:0|0:3,0:0:0:0:
258,239,177563,1,0,0:0:0:0:
282,225,177660,2,0,P|317:242|362:286,1,80,8|0,0:0|0:0,0:0:0:0:
369,288,177952,2,0,P|405:245|423:203,1,80,0|0,0:0|0:0,0:0:0:0:
429,199,178243,5,6,0:0:0:0:
412,105,178437,2,0,L|413:55,1,40,0|4,0:0|0:3,0:0:0:0:
319,47,178728,2,0,L|328:105,1,40,0|8,0:0|0:0,0:0:0:0:
245,140,179020,1,0,0:0:0:0:
219,151,179117,2,0,P|163:137|123:112,1,80,0|0,0:0|0:0,0:0:0:0:
120,112,179408,5,4,0:0:0:0:
120,112,179893,2,0,P|120:179|107:303,1,160,0|0,0:0|0:0,0:0:0:0:
243,333,180573,5,6,0:0:0:0:
243,333,181058,2,0,P|249:248|265:152,1,160,0|0,0:0|0:0,0:0:0:0:
390,108,181738,5,4,0:0:0:0:
390,108,182223,2,0,P|390:172|373:287,1,160,0|0,0:0|0:0,0:0:0:0:
243,333,182903,5,6,0:0:0:0:
