osu file format v14

[General]
AudioFilename: audio.mp3
AudioLeadIn: 0
PreviewTime: 141529
Countdown: 0
SampleSet: Soft
StackLeniency: 0.3
Mode: 0
LetterboxInBreaks: 0
EpilepsyWarning: 1
WidescreenStoryboard: 1

[Editor]
DistanceSpacing: 1.2
BeatDivisor: 3
GridSize: 8
TimelineZoom: 1.7

[Metadata]
Title:Aun no Beats
TitleUnicode:阿吽のビーツ
Artist:isubokuro
ArtistUnicode:いすぼくろ
Creator:Beren
Version:Advanced
Source:
Tags:cover lobelia buhei SUNRISE vivicat japanese novelty utaite v flower 羽生まゐご 羽生迷子 maigo hanyuu
BeatmapID:2408866
BeatmapSetID:1153984

[Difficulty]
HPDrainRate:4
CircleSize:3.5
OverallDifficulty:5
ApproachRate:6
SliderMultiplier:1.2
SliderTickRate:1

[Events]
//Background and Video events
0,0,"IMG_9841(20200419-094607).jpg",0,0
//Break Periods
2,57078,63018
2,103680,111950
//Storyboard Layer 0 (Background)
//Storyboard Layer 1 (Fail)
//Storyboard Layer 2 (Pass)
//Storyboard Layer 3 (Foreground)
Sprite,Foreground,Centre,"SB\bg.jpg",320,240 F,0,559,1141,0,1 S,0,1141,,0.6944515 F,0,1141,10170,1
Sprite,Foreground,Centre,"SB\bg.jpg",320,240 F,0,160753,181238,1
Sprite,Foreground,Centre,"SB\IMG_9830(20200419-094321).JPG",320,240 M,0,9879,,295.2258,247.4322 S,0,9879,,0.513 F,0,9879,10170,0,1 F,0,10170,,1 M,0,19782,19976,295.2258,249.0838,-630.5033,249.0838
Sprite,Foreground,Centre,"SB\1.JPG",320,240 S,0,19782,,0.6118709 M,0,19782,19976,1266.374,325.058,346.6242,325.058 M,0,19976,38423,346.6242,325.058,286.9678,325.058 F,0,38423,,1 M,0,38423,38617,286.9678,325.058,-570.2194,326.7097
Sprite,Foreground,Centre,"SB\1.png",320,240 M,0,1141,,295.2258,291.2 F,0,1141,1432,1,0 S,0,1141,1432,1,1.057
Sprite,Foreground,Centre,"SB\1.png",320,240 M,0,1432,,295.2258,291.2 F,0,1432,1723,1,0 S,0,1432,1723,1,1.057
Sprite,Foreground,Centre,"SB\1.png",320,240 M,0,3471,,295.2258,291.2 F,0,3471,3762,1,0 S,0,3471,3762,1,1.057
Sprite,Foreground,Centre,"SB\1.png",320,240 M,0,3762,,295.2258,291.2 F,0,3762,4053,1,0 S,0,3762,4053,1,1.057
Sprite,Foreground,Centre,"SB\1.png",320,240 M,0,5801,,295.2258,291.2 F,0,5801,6092,1,0 S,0,5801,6092,1,1.057
Sprite,Foreground,Centre,"SB\1.png",320,240 M,0,6092,,295.2258,291.2 F,0,6092,6383,1,0 S,0,6092,6383,1,1.057
Sprite,Foreground,Centre,"SB\1.png",320,240 M,0,8325,,295.2258,291.2 F,0,8325,8520,1,0 S,0,8325,8520,1,1.057
Sprite,Foreground,Centre,"SB\1.png",320,240 M,0,8131,,295.2258,291.2 F,0,8131,8326,1,0 S,0,8131,8326,1,1.057
Sprite,Foreground,Centre,"SB\1.png",320,240 M,0,8520,,295.2258,291.2 F,0,8520,8715,1,0 S,0,8520,8715,1,1.057
Sprite,Foreground,Centre,"SB\1.png",320,240 M,0,8714,,295.2258,291.2 F,0,8714,8909,1,0 S,0,8714,8909,1,1.057
Sprite,Foreground,Centre,"SB\1.png",320,240 M,0,8908,,295.2258,291.2 F,0,8908,9103,1,0 S,0,8908,9103,1,1.057
Sprite,Foreground,Centre,"SB\1.png",320,240 M,0,9102,,295.2258,291.2 F,0,9102,9297,1,0 S,0,9102,9297,1,1.057
Sprite,Foreground,Centre,"SB\1.png",320,240 M,0,9296,,295.2258,291.2 F,0,9296,9491,1,0 S,0,9296,9491,1,1.057
Sprite,Foreground,Centre,"SB\1.png",320,240 M,0,9491,,295.2258,291.2 F,0,9491,9686,1,0 S,0,9491,9686,1,1.057
Sprite,Foreground,Centre,"SB\1.png",320,240 M,0,9685,,295.2258,291.2 F,0,9685,9880,1,0 S,0,9685,9880,1,1.057
Sprite,Foreground,Centre,"SB\1.png",320,240 M,0,9879,,295.2258,291.2 F,0,9879,10074,1,0 S,0,9879,10074,1,1.057
Sprite,Foreground,Centre,"SB\1.png",320,240 M,0,17452,,408.3613,233.3936 F,0,17452,17647,1,0 S,0,17452,17647,1,1.057
Sprite,Foreground,Centre,"SB\1.png",320,240 M,0,17646,,408.3613,233.3936 F,0,17646,17841,1,0 S,0,17646,17841,1,1.057
Sprite,Foreground,Centre,"SB\1.png",320,240 M,0,17840,,408.3613,233.3936 F,0,17840,18035,1,0 S,0,17840,18035,1,1.057
Sprite,Foreground,Centre,"SB\1.png",320,240 M,0,18034,,408.3613,233.3936 F,0,18034,18229,1,0 S,0,18034,18229,1,1.057
Sprite,Foreground,Centre,"SB\1.png",320,240 M,0,18228,,408.3613,233.3936 F,0,18228,18423,1,0 S,0,18228,18423,1,1.057
Sprite,Foreground,Centre,"SB\1.png",320,240 M,0,18423,,408.3613,233.3936 F,0,18423,18618,1,0 S,0,18423,18618,1,1.057
Sprite,Foreground,Centre,"SB\1.png",320,240 M,0,18617,,408.3613,233.3936 F,0,18617,18812,1,0 S,0,18617,18812,1,1.057
Sprite,Foreground,Centre,"SB\1.png",320,240 M,0,18811,,408.3613,233.3936 F,0,18811,19006,1,0 S,0,18811,19006,1,1.057
Sprite,Foreground,Centre,"SB\1.png",320,240 M,0,19005,,408.3613,233.3936 F,0,19005,19200,1,0 S,0,19005,19200,1,1.057
Sprite,Foreground,Centre,"SB\1.png",320,240 M,0,19199,,408.3613,233.3936 F,0,19199,19394,1,0 S,0,19199,19394,1,1.057
Sprite,Foreground,Centre,"SB\1.png",320,240 M,0,19393,,408.3613,233.3936 F,0,19393,19588,1,0 S,0,19393,19588,1,1.057
Sprite,Foreground,Centre,"SB\1.png",320,240 M,0,19588,,408.3613,233.3936 F,0,19588,19783,1,0 S,0,19588,19783,1,1.057
Sprite,Foreground,Centre,"SB\4.JPG",320,240 M,0,66384,66578,1237.471,372.9548,335.6903,375.4323 M,0,66578,,335.6903,375.4323 S,0,66578,,0.5045162 M,0,66578,85025,335.6903,375.4323,285.3161,374.6064 F,0,85025,,1 M,0,85025,85219,285.3161,374.6064,-596.6451,373.7806
Sprite,Foreground,Centre,"SB\8.JPG",320,240 F,0,122306,,1 M,0,122306,122500,1246.555,318.4516,335.6904,320.929 S,0,122500,,0.5292903 M,0,122500,142112,335.6904,320.929,272.1033,321.7548 M,0,142112,142306,272.1033,321.7548,-612.3354,321.7548
Sprite,Foreground,Centre,"SB\1.png",320,240 R,0,1141,,0 F,0,1141,1238,0,1 F,0,1238,9879,1 M,0,8423,,295.2258,291.2 F,0,9879,10170,1,0 M,0,17452,,408.3613,233.3936 F,0,17452,19782,1
Sprite,Foreground,Centre,"SB\2.png",320,240 M,0,17452,17646,435.6129,185.4968
Sprite,Foreground,Centre,"SB\3.png",320,240 M,0,17646,17840,435.6129,186.3226
Sprite,Foreground,Centre,"SB\4.png",320,240 M,0,17840,18034,437.2645,184.671
Sprite,Foreground,Centre,"SB\5.png",320,240 M,0,18034,18228,436.4388,184.671
Sprite,Foreground,Centre,"SB\6.png",320,240 M,0,18228,18423,435.6129,183.8452
Sprite,Foreground,Centre,"SB\7.png",320,240 M,0,18423,18617,435.6129,181.3678
Sprite,Foreground,Centre,"SB\8.png",320,240 M,0,18617,18811,434.7871,181.3678
Sprite,Foreground,Centre,"SB\9.png",320,240 M,0,18811,19005,433.9613,180.542
Sprite,Foreground,Centre,"SB\11.png",320,240 M,0,19005,19199,433.1355,180.5419
Sprite,Foreground,Centre,"SB\12.png",320,240 M,0,19199,19393,433.1355,183.0193
Sprite,Foreground,Centre,"SB\13.png",320,240 M,0,19393,19588,430,182 S,0,19491,,0.727
Sprite,Foreground,Centre,"SB\14.png",320,240 S,0,19588,,0.727 M,0,19588,19782,430,182
Sprite,Foreground,Centre,"SB\15.png",320,240 F,0,1141,1238,0,1 F,0,1238,3180,1 F,0,3180,3471,1,0
Sprite,Foreground,Centre,"SB\16.png",320,240 F,0,3471,3568,0,1 F,0,3568,5219,1 F,0,5219,5510,1,0
Sprite,Foreground,Centre,"SB\17.png",320,240 F,0,5801,5898,0,1 F,0,5898,7840,1 F,0,7840,8131,1,0
Sprite,Foreground,Centre,"SB\IMG_9830(20200419-094321).JPG",320,240 M,0,10461,,295.2258,247.4322 F,0,10461,10753,1,0 S,0,10461,10753,0.513,0.525
Sprite,Foreground,Centre,"SB\IMG_9830(20200419-094321).JPG",320,240 M,0,10753,,295.2258,247.4322 F,0,10753,11045,1,0 S,0,10753,11045,0.513,0.525
Sprite,Foreground,Centre,"SB\IMG_9830(20200419-094321).JPG",320,240 M,0,12792,,295.2258,247.4322 F,0,12792,13084,1,0 S,0,12792,13084,0.513,0.525
Sprite,Foreground,Centre,"SB\IMG_9830(20200419-094321).JPG",320,240 M,0,13083,,295.2258,247.4322 F,0,13083,13375,1,0 S,0,13083,13375,0.513,0.525
Sprite,Foreground,Centre,"SB\IMG_9830(20200419-094321).JPG",320,240 M,0,15122,,295.2258,247.4322 F,0,15122,15414,1,0 S,0,15122,15414,0.513,0.525
Sprite,Foreground,Centre,"SB\IMG_9830(20200419-094321).JPG",320,240 M,0,15413,,295.2258,247.4322 F,0,15413,15705,1,0 S,0,15413,15705,0.513,0.525
Sprite,Foreground,Centre,"SB\2.png",320,240 F,0,8131,8325,1
Sprite,Foreground,Centre,"SB\4.png",320,240 F,0,8520,8714,1
Sprite,Foreground,Centre,"SB\6.png",320,240 F,0,8908,9102,1
Sprite,Foreground,Centre,"SB\7.png",320,240 F,0,9102,9296,1
Sprite,Foreground,Centre,"SB\9.png",320,240 F,0,9491,9685,1
Sprite,Foreground,Centre,"SB\11.png",320,240 F,0,9685,9879,1
Sprite,Foreground,Centre,"SB\12.png",320,240 F,0,9879,10170,1,0
Sprite,Foreground,Centre,"SB\3.JPG",320,240 M,0,93762,93957,1259.342,244.129,314.6189,244.9548 M,0,93957,103083,314.6189,244.9548,274.1544,244.129 S,0,94054,,0.5127741 M,0,103083,103277,274.1544,244.129,-625.9746,243.3032
Sprite,Foreground,Centre,"IMG_9841(20200419-094607).jpg",320,240 M,0,142112,142306,1270.503,262.2968,381.9355,256.5161 S,0,142306,,0.5045161 M,0,142306,163665,381.9355,256.5161,270.4516,257.3419 F,0,160753,163665,1,0
Sprite,Foreground,Centre,"SB\9.jpg",320,240 M,0,56481,56675,1234.994,274.6839,320.0001,273.8581 S,0,56675,,0.4054193 M,0,56675,66384,320.0001,273.8581,282.013,273.0323 F,0,66384,,1 M,0,66384,66578,282.013,273.0323,-588.3871,273.0323
Sprite,Foreground,Centre,"SB\11.JPG",320,240 M,0,103083,103277,1247.38,295.329,342.2968,298.6323 S,0,103277,,0.5127742 M,0,103277,112986,342.2968,298.6323,309.2645,299.4581 M,0,112986,113180,309.2645,299.4581,-605.7291,299.4581
Sprite,Foreground,Centre,"SB\6.jpg",320,240 M,0,112986,113180,1251.51,245.7806,348.0774,246.6064 M,0,113180,122306,348.0774,246.6064,311.7419,247.4323 S,0,113568,,0.4962581 M,0,122306,122500,311.7419,247.4323,-590.0387,249.9097
Sprite,Foreground,Centre,"SB\7.jpg",320,240 S,0,38423,,0.4962581 M,0,38423,38617,1238.607,241.2482,340.955,238.7708 M,0,38617,47160,340.955,238.7708,295.5357,239.5966 M,0,47160,47355,295.5357,239.5966,-550.9159,241.2482
Sprite,Foreground,Centre,"SB\2.jpg",320,240 M,0,47160,47355,1255.152,304.4786,357.5,302.0012 S,0,47355,,0.5127742 M,0,47355,56481,357.5,302.0012,303.8226,302.0012 M,0,56481,56675,303.8226,302.0012,-574.8355,302.0012
Sprite,Foreground,Centre,"SB\12.jpg",320,240 M,0,85025,85219,1252.059,285.4377,322.2012,286.2635 S,0,85219,,0.4384515 M,0,85219,93762,322.2012,286.2635,289.9948,287.9151 M,0,93762,93957,289.9948,287.9151,-660.5047,287.9149
Sprite,Foreground,Centre,"SB\19.png",320,240 F,0,19782,19879,0,1 F,0,19879,21626,1 M,0,19976,,167.2258,381.213 F,0,21626,21821,1,0
Sprite,Foreground,Centre,"SB\21.png",320,240 F,0,22015,22112,0,1 F,0,22112,23859,1 M,0,22694,,464.5161,332.4903 F,0,23859,24054,1,0
Sprite,Foreground,Centre,"SB\22.png",320,240 F,0,24345,24442,0,1 F,0,24442,28228,1 M,0,25025,,157.3161,226.7871 F,0,28228,28423,1,0.02141937
Sprite,Foreground,Centre,"SB\23.png",320,240 F,0,29102,29199,0.009032135,1 F,0,29199,30947,1 M,0,29685,,152.3613,391.1226 F,0,30947,31141,1,0
Sprite,Foreground,Centre,"SB\24.png",320,240 F,0,31432,31529,0,1 F,0,31529,33180,1 M,0,31724,,485.9871,303.5871 F,0,33180,33374,1,0
Sprite,Foreground,Centre,"SB\25.png",320,240 F,0,33665,33762,0.04619354,1 F,0,33762,36675,1 F,0,36675,36869,1,0
Sprite,Foreground,Centre,"SB\1.png",320,240 M,0,37743,,70.60646,369.6516 S,0,37743,,0.7770321 F,0,38423,,1
Sprite,Foreground,Centre,"SB\4.png",320,240 M,0,37743,37937,86.29679,330.0129
Sprite,Foreground,Centre,"SB\3.png",320,240 M,0,37937,38131,87.9484,334.9677
Sprite,Foreground,Centre,"SB\26.png",320,240 M,0,38131,38423,87.94839,333.3161
Sprite,Foreground,Centre,"SB\27.png",320,240 F,0,38423,38520,0.000774231,1 F,0,38520,40461,1 M,0,38714,,208.5161,214.4 F,0,40461,40656,1,0.004903183
Sprite,Foreground,Centre,"SB\28.png",320,240 F,0,40753,40850,0,1 F,0,40850,42792,1 M,0,41335,,144.1033,383.6903 F,0,42792,42986,1,0.004903183
Sprite,Foreground,Centre,"SB\29.png",320,240 F,0,43083,43180,0,1 F,0,43180,43957,1 M,0,43665,,545.4452,214.4 F,0,43957,44151,1,0
Sprite,Foreground,Centre,"SB\31.png",320,240 F,0,44248,44345,0,1 F,0,44345,44830,1 M,0,44539,,87.94839,218.529 F,0,44830,45025,1,0
Sprite,Foreground,Centre,"SB\32.png",320,240 F,0,45316,45413,0,1 F,0,45413,46869,1 M,0,45704,,530.5807,215.2258 F,0,46869,47063,1,0
Sprite,Foreground,Centre,"SB\1.png",320,240 F,0,47160,47258,0,1 F,0,47258,47549,1 M,0,47549,,73.90966,362.2194 S,0,47549,,0.7027097 F,0,47549,47743,1,0
Sprite,Foreground,Centre,"SB\33.png",320,240 F,0,47160,47258,0,1 F,0,47258,47549,1 M,0,47549,,88.77418,325.8839 F,0,47549,47743,1,0
Sprite,Foreground,Centre,"SB\34.png",320,240 F,0,47743,47840,0,1 F,0,47840,49491,1 M,0,48034,,243.2,104.5677 F,0,49491,49685,1,0
Sprite,Foreground,Centre,"SB\35.png",320,240 F,0,49976,50073,0,1 F,0,50073,52112,1 M,0,50364,,458.7355,337.4452 F,0,52112,52306,1,0
Sprite,Foreground,Centre,"SB\1.png",320,240 F,0,53180,53277,0,1 F,0,53277,56190,1 M,0,53859,,59.04514,344.8774 F,0,56190,56481,1,0
Sprite,Foreground,Centre,"SB\36.png",320,240 F,0,53180,53277,0,1 F,0,53277,53859,1 M,0,53859,,84.64516,301.9354 F,0,53859,54054,1,0
Sprite,Foreground,Centre,"SB\37.png",320,240 F,0,54151,54248,0,1 F,0,54248,56190,1 M,0,54345,,86.29677,299.4581 F,0,56190,56481,1,0
Sprite,Foreground,Centre,"SB\1.png",320,240 M,0,64054,,483.5097,257.342 F,0,66384,,1
Sprite,Foreground,Centre,"SB\1.png",320,240 M,0,64054,,483.5097,257.342 F,0,64054,64249,1,0 S,0,64054,64249,1,1.057
Sprite,Foreground,Centre,"SB\1.png",320,240 M,0,64248,,483.5097,257.342 F,0,64248,64443,1,0 S,0,64248,64443,1,1.057
Sprite,Foreground,Centre,"SB\1.png",320,240 M,0,64442,,483.5097,257.342 F,0,64442,64637,1,0 S,0,64442,64637,1,1.057
Sprite,Foreground,Centre,"SB\1.png",320,240 M,0,64636,,483.5097,257.342 F,0,64636,64831,1,0 S,0,64636,64831,1,1.057
Sprite,Foreground,Centre,"SB\1.png",320,240 M,0,64830,,483.5097,257.342 F,0,64830,65025,1,0 S,0,64830,65025,1,1.057
Sprite,Foreground,Centre,"SB\1.png",320,240 M,0,65025,,483.5097,257.342 F,0,65025,65220,1,0 S,0,65025,65220,1,1.057
Sprite,Foreground,Centre,"SB\1.png",320,240 M,0,65219,,483.5097,257.342 F,0,65219,65414,1,0 S,0,65219,65414,1,1.057
Sprite,Foreground,Centre,"SB\1.png",320,240 M,0,65413,,483.5097,257.342 F,0,65413,65608,1,0 S,0,65413,65608,1,1.057
Sprite,Foreground,Centre,"SB\1.png",320,240 M,0,65607,,483.5097,257.342 F,0,65607,65802,1,0 S,0,65607,65802,1,1.057
Sprite,Foreground,Centre,"SB\1.png",320,240 M,0,65801,,483.5097,257.342 F,0,65801,65996,1,0 S,0,65801,65996,1,1.057
Sprite,Foreground,Centre,"SB\1.png",320,240 M,0,65995,,483.5097,257.342 F,0,65995,66190,1,0 S,0,65995,66190,1,1.057
Sprite,Foreground,Centre,"SB\1.png",320,240 M,0,66190,,483.5097,257.342 F,0,66190,66385,1,0 S,0,66190,66385,1,1.057
Sprite,Foreground,Centre,"SB\2.png",320,240 M,0,64054,64248,508.2839,208.6194
Sprite,Foreground,Centre,"SB\3.png",320,240 M,0,64248,64442,508.2839,208.6194
Sprite,Foreground,Centre,"SB\4.png",320,240 M,0,64442,64636,509.1097,209.4452
Sprite,Foreground,Centre,"SB\5.png",320,240 M,0,64636,64830,508.2838,209.4452
Sprite,Foreground,Centre,"SB\6.png",320,240 M,0,64830,65025,507.4581,209.4452
Sprite,Foreground,Centre,"SB\7.png",320,240 M,0,65025,65219,507.4581,208.6194
Sprite,Foreground,Centre,"SB\8.png",320,240 M,0,65219,65413,505.8065,208.6194
Sprite,Foreground,Centre,"SB\9.png",320,240 M,0,65413,65607,506.6323,208.6194
Sprite,Foreground,Centre,"SB\11.png",320,240 M,0,65607,65801,506.6323,208.6194
Sprite,Foreground,Centre,"SB\12.png",320,240 M,0,65801,65995,506.6323,210.271
Sprite,Foreground,Centre,"SB\13.png",320,240 M,0,65995,66190,505,206 S,0,66190,,0.727
Sprite,Foreground,Centre,"SB\14.png",320,240 M,0,66190,66384,505,206 S,0,66384,,0.727
Sprite,Foreground,Centre,"SB\5.png",320,240 M,0,8714,8908,320,240
Sprite,Foreground,Centre,"SB\3.png",320,240 M,0,8325,8520,320,240
Sprite,Foreground,Centre,"SB\8.png",320,240 M,0,9296,9491,320,240
Sprite,Foreground,Centre,"SB\bg.jpg",320,240 S,0,76772,,0.6531613 F,0,76772,76869,0,1 F,0,76869,77743,1 F,0,77743,77937,1,0
Sprite,Foreground,Centre,"SB\bg.jpg",320,240 M,0,79102,,320,240 F,0,79102,79199,0,1 F,0,79199,80073,1 F,0,80073,80267,1,0
Sprite,Foreground,Centre,"SB\38.png",320,240 F,0,66384,66481,0,1 F,0,66481,69588,1 M,0,66578,,462.0387,254.8645 F,0,69588,69782,1,0
Sprite,Foreground,Centre,"SB\39.png",320,240 M,0,71044,,55.74194,253.2129 F,0,71044,71141,0,1 F,0,71141,73957,1 F,0,73957,74151,1,0
Sprite,Foreground,Centre,"SB\41.png",320,240 M,0,75122,,532.2323,325.8839 F,0,75122,75219,0.05445145,1 F,0,75219,76578,1 F,0,76578,76772,1,0
Sprite,Foreground,Centre,"SB\42.png",320,240 F,0,76772,76869,0,1 F,0,76869,77355,1 F,0,77355,77452,1,0
Sprite,Foreground,Centre,"SB\43.png",320,240 M,0,77937,,116.0258,168.1548 F,0,77937,78034,0,1 F,0,78034,78908,1 F,0,78908,79102,1,0
Sprite,Foreground,Centre,"SB\1.png",320,240 F,0,79102,79199,0,1 F,0,79199,79782,1 M,0,79491,,295.2258,290.3742 F,0,79782,79976,1,0
Sprite,Foreground,Centre,"SB\44.png",320,240 F,0,79102,79199,0,1 F,0,79199,79782,1 F,0,79782,79976,1,0
Sprite,Foreground,Centre,"SB\45.png",320,240 M,0,80267,,353.0323,268.0774 S,0,80267,,0.603613 F,0,80267,80364,0,1 F,0,80364,83568,1 F,0,83568,83762,1,0
Sprite,Foreground,Centre,"SB\4.png",320,240 S,0,84345,,0.8100644 M,0,84345,84539,545.4452,132.6452
Sprite,Foreground,Centre,"SB\3.png",320,240 S,0,84539,,0.7274841 M,0,84539,84733,543.7936,133.4709
Sprite,Foreground,Centre,"SB\46.png",320,240 S,0,84733,,0.6944513 M,0,84733,85025,538.0129,133.471
Sprite,Foreground,Centre,"SB\47.png",320,240 F,0,85025,85122,0,1 F,0,85122,87063,1 M,0,85219,,492.5936,342.4 F,0,87063,87258,1,0
Sprite,Foreground,Centre,"SB\48.png",320,240 M,0,87355,,163.0968,133.471 F,0,87355,87452,0,1 F,0,87452,89393,1 F,0,89393,89588,1,0
Sprite,Foreground,Centre,"SB\49.png",320,240 F,0,89685,89782,0,1 M,0,89782,,538.8387,177.2387 F,0,89782,90558,1 F,0,90558,90753,1,0
Sprite,Foreground,Centre,"SB\51.png",320,240 M,0,90850,,44.18063,322.5806 F,0,90850,90947,0,1 F,0,90947,91432,1 F,0,91432,91626,1,0
Sprite,Foreground,Centre,"SB\52.png",320,240 M,0,91918,,510.7613,216.8774 S,0,91918,,0.7605162 F,0,91918,92015,0,1 F,0,92015,93471,1 F,0,93471,93665,1,0
Sprite,Foreground,Centre,"SB\1.png",320,240 F,0,93762,93859,0,1 F,0,93859,94054,1 M,0,93957,,6.193552,381.213 S,0,93957,,0.5870969 F,0,94054,94248,1,0
Sprite,Foreground,Centre,"SB\33.png",320,240 F,0,93762,93859,0.0007740784,1 F,0,93859,94054,1 M,0,93957,,19.40644,349.8322 F,0,94054,94248,1,0
Sprite,Foreground,Centre,"SB\53.png",320,240 M,0,94345,,445.5226,273.0323 F,0,94345,94442,0,1 F,0,94442,96384,1 F,0,96384,96578,1,0
Sprite,Foreground,Centre,"SB\54.png",320,240 F,0,96675,96772,0,1 F,0,96772,98714,1 M,0,96966,,132.5419,390.2968 F,0,98714,98908,1,0
Sprite,Foreground,Centre,"SB\1.png",320,240 F,0,99879,99976,0,1 M,0,99976,,503.329,289.5485 F,0,99976,102792,1 F,0,102792,103083,1,0
Sprite,Foreground,Centre,"SB\36.png",320,240 F,0,99879,99976,0,1 M,0,99976,,528.1033,248.2581 F,0,99976,100461,1 F,0,100461,100656,1,0
Sprite,Foreground,Centre,"SB\55.png",320,240 F,0,100753,100850,0,1 F,0,100850,102792,1 M,0,101044,,530.5807,237.5226 S,0,101044,,0.9009032 F,0,102792,103083,1,0
Sprite,Foreground,Centre,"SB\heart.png",320,240 F,0,122306,122403,0,0.8 F,0,122403,125801,0.8,1 M,0,122597,,113.5484,378.7355 S,0,122597,,1.132129 R,0,122597,,-0.2807739 F,0,125801,125995,1,0
Sprite,Foreground,Centre,"SB\56.png",320,240 F,0,122306,122403,0,1 F,0,122403,125801,1 M,0,123180,,113.5484,244.9548 S,0,123180,,0.7522584 F,0,125801,125995,1,0
Sprite,Foreground,Centre,"SB\57.png",320,240 M,0,126092,,611.5097,145.858 S,0,126092,,0.8183226 F,0,126092,126190,0,1 F,0,126190,127840,1 F,0,127840,128034,1,0
Sprite,Foreground,Centre,"SB\58.png",320,240 M,0,128423,,99.50968,187.9742 S,0,128423,,0.7027097 F,0,128423,128520,0,1 F,0,128520,130461,1 F,0,130461,130656,1,0
Sprite,Foreground,Centre,"SB\59.png",320,240 M,0,131626,,602.4258,220.1806 S,0,131626,,0.6201291 F,0,131626,131724,0,1 F,0,131724,135122,1 F,0,135122,135316,1,0
Sprite,Foreground,Centre,"SB\61.png",320,240 M,0,135413,,51.61292,206.1419 S,0,135413,,0.5045161 F,0,135413,135510,0,1 F,0,135510,138908,1 F,0,138908,139102,1,0
Sprite,Foreground,Centre,"SB\1.png",320,240 F,0,141529,141626,0,1 F,0,141626,141821,1 M,0,141821,,69.78064,180.542 S,0,141821,,0.4632259 F,0,141821,142112,1,0
Sprite,Foreground,Centre,"SB\62.png",320,240 F,0,141529,141626,0,1 F,0,141626,141821,1 M,0,141821,,79.69034,155.7677 F,0,141821,142112,1,0
Sprite,Foreground,Centre,"SB\63.png",320,240 F,0,142112,142209,0,1 F,0,142209,146481,1 M,0,142403,,192,372.9548 F,0,146481,146675,1,0
Sprite,Foreground,Centre,"SB\29.png",320,240 M,0,146772,,92.90324,268.0774 F,0,146772,146869,0,1 F,0,146869,147646,1 F,0,147646,147840,1,0
Sprite,Foreground,Centre,"SB\64.png",320,240 M,0,147937,,591.6903,283.7678 F,0,147937,148034,0,1 F,0,148034,148520,1 F,0,148520,148714,1,0
Sprite,Foreground,Centre,"SB\65.png",320,240 F,0,149005,149102,0,1 M,0,149102,,78.03871,261.4709 F,0,149102,150558,1 F,0,150558,150753,1,0
Sprite,Foreground,Centre,"SB\1.png",320,240 M,0,150850,,548.7484,321.7549 S,0,150850,,0.6036127 F,0,150850,150947,0,1 F,0,150947,151141,1 F,0,151141,151432,1,0
Sprite,Foreground,Centre,"SB\33.png",320,240 F,0,150850,150947,0,1 F,0,150947,151141,1 M,0,151141,,562.7871,289.5484 F,0,151141,151432,1,0
Sprite,Foreground,Centre,"SB\34.png",320,240 F,0,151432,151529,0.03380631,1 F,0,151529,153180,1 M,0,152015,,165.5742,398.5548 F,0,153180,153374,1,0
Sprite,Foreground,Centre,"SB\66.png",320,240 M,0,153665,,462.0387,349.0065 F,0,153665,153762,0,1 F,0,153762,155801,1 F,0,155801,155995,1,0
Sprite,Foreground,Centre,"SB\1.png",320,240 F,0,156869,156966,0,1 F,0,156966,157549,1 M,0,157549,,484.3355,265.6 S,0,157549,,0.7935482 F,0,157549,157743,1,0
Sprite,Foreground,Centre,"SB\67.png",320,240 F,0,156869,156966,0,1 F,0,156966,157549,1 M,0,157549,,505.8065,225.1355 F,0,157549,157743,1,0
Sprite,Foreground,Centre,"SB\68.png",320,240 M,0,157840,,192,372.1291 F,0,157840,157937,0,1 F,0,157937,160753,1 F,0,160753,163374,1,0
Sprite,Foreground,Centre,"SB\69.png",320,240 M,0,165413,,320,240 F,0,165413,165510,0,1 F,0,165510,169782,1 F,0,169782,169976,1,0
Sprite,Foreground,Centre,"SB\1.png",320,240 F,0,174345,174442,0,1 F,0,174442,177646,1 F,0,177646,177840,1,0 M,0,177840,,296.0516,293.6774
Sprite,Foreground,Centre,"SB\bg.jpg",320,240 F,0,182889,184054,1 F,0,184054,184636,1,0
Sprite,Foreground,Centre,"SB\67.png",320,240 F,0,174345,174442,0,1 F,0,174442,177646,1 F,0,177646,177840,1,0
Sprite,Foreground,Centre,"SB\14.jpg",320,240 F,0,181141,181238,0,1 M,0,181141,183083,342.0452,268.0737,337.0082,267.9996 F,0,181238,182889,1 S,0,181432,,0.488 F,0,182889,183083,1,0
Sprite,Foreground,Centre,"SB\71.png",320,240 F,0,181141,181238,0,1 M,0,181238,,133.3678,257.3419 F,0,181238,182889,1 F,0,182889,183083,1,0
Sprite,Foreground,Centre,"SB\1111.png",320,240 F,0,1141,1238,0,1 S,0,1238,,0.4797419 F,0,1238,141529,1 F,0,141529,,1 F,0,141529,184054,1 F,0,184054,184636,1,0
Sprite,Foreground,Centre,"SB\72.png",320,240 F,0,182889,183083,0,1 F,0,183083,184054,1 F,0,184054,184636,1,0
//Storyboard Layer 4 (Overlay)
//Storyboard Sound Samples

[TimingPoints]
1156,291.26213592233,4,2,1,50,1,0
1737,-100,4,2,3,50,0,0
2028,-100,4,2,1,50,0,0
2902,-100,4,2,2,50,0,0
3388,-100,4,2,1,50,0,0
4067,-100,4,2,3,50,0,0
4358,-100,4,2,1,50,0,0
5232,-100,4,2,2,50,0,0
5718,-100,4,2,1,50,0,0
6397,-100,4,2,3,50,0,0
6688,-100,4,2,1,50,0,0
7562,-100,4,2,2,50,0,0
8048,-100,4,2,1,50,0,0
38437,-100,4,1,1,50,0,0
47465,-100,4,2,2,50,0,0
47756,-100,4,1,1,50,0,0
64068,-100,4,2,1,50,0,0
66398,-100,4,2,2,50,0,0
75719,-100,4,1,1,50,0,0
76786,-100,4,2,1,50,0,0
77466,-100,4,2,1,10,0,0
77757,-100,4,1,1,50,0,0
79116,-100,4,2,1,50,0,0
79796,-100,4,2,1,10,0,0
80087,-100,4,2,1,70,0,0
83776,-100,4,1,1,50,0,0
94067,-100,4,1,2,50,0,0
94358,-100,4,1,1,50,0,0
113000,-100,4,2,1,50,0,0
120281,-100,4,1,1,50,0,0
122320,-100,4,2,1,40,0,0
129310,-100,4,2,1,50,0,0
138631,-100,4,1,1,50,0,0
139796,-100,4,2,1,50,0,0
140670,-100,4,1,1,50,0,0
151154,-100,4,1,2,50,0,0
151446,-100,4,1,1,50,0,0
179892,-100,4,2,2,50,0,0
180572,-100,4,2,1,50,0,0
182611,-100,4,2,2,50,0,0

[Colours]
Combo1 : 171,205,239
Combo2 : 130,171,193
Combo3 : 141,206,211
Combo4 : 175,175,216
SliderTrackOverride : 235,235,235

[HitObjects]
63,303,1156,6,0,P|40:249|52:192,1,120,6|0,0:0|0:0,0:0:0:0:
160,88,1738,1,2,0:0:0:0:
200,224,2029,2,0,L|304:232,1,80,0|0,0:0|0:0,0:0:0:0:
320,256,2321,2,0,L|440:264,2,120,0|4|8,0:0|0:3|0:0,0:0:0:0:
216,64,3486,6,0,P|161:40|104:52,1,120,6|0,0:0|0:0,0:0:0:0:
32,176,4068,1,2,0:0:0:0:
96,304,4359,2,0,L|175:297,1,80,0|0,0:0|0:0,0:0:0:0:
224,312,4651,2,0,L|344:296,2,120,0|4|8,0:0|0:3|0:0,0:0:0:0:
416,96,5816,6,0,P|456:140|463:199,2,120,6|0|2,0:0|0:0|0:0,0:0:0:0:
272,72,6689,2,0,L|192:72,1,80,0|0,0:0|0:0,0:0:0:0:
176,120,6981,2,0,L|56:120,2,120,0|4|8,0:0|0:3|0:0,0:0:0:0:
392,304,8146,6,0,L|480:304,2,80,6|8|8,0:0|0:0|0:0,0:0:0:0:
320,240,8728,2,0,L|232:240,2,80,4|8|8,0:0|0:0|0:0,0:0:0:0:
384,168,9311,2,0,L|464:168,2,80,6|8|4,0:0|0:0|0:0,0:0:0:0:
320,96,9893,1,6,0:0:0:0:
32,64,10476,6,0,P|16:104|32:192,1,120,2|4,0:0|0:3,0:0:0:0:
32,320,11058,1,8,0:0:0:0:
176,288,11350,2,0,L|256:288,1,80,0|0,0:0|0:0,0:0:0:0:
296,264,11641,2,0,L|448:264,2,120,4|4|8,0:0|0:3|0:0,0:0:0:0:
480,40,12806,6,0,P|499:95|482:152,1,120,2|4,0:0|0:3,0:0:0:0:
488,296,13388,1,8,0:0:0:0:
368,216,13680,2,0,L|376:128,1,80,0|0,0:0|0:0,0:0:0:0:
344,96,13971,2,0,L|224:88,2,120,4|4|8,0:0|0:3|0:0,0:0:0:0:
176,328,15136,6,0,P|240:336|296:320,1,120,2|4,0:0|0:3,0:0:0:0:
432,296,15718,1,8,0:0:0:0:
488,160,16010,2,0,L|376:168,1,80,0|0,0:0|0:0,0:0:0:0:
368,136,16301,2,0,P|352:80|360:16,2,120,4|4|8,0:0|0:3|0:0,0:0:0:0:
128,288,17466,6,0,L|120:192,2,80,6|8|8,0:0|0:0|0:0,0:0:0:0:
224,272,18049,2,0,L|232:368,2,80,4|8|8,0:0|0:0|0:0,0:0:0:0:
216,176,18631,2,0,L|294:190,2,80,6|8|8,0:0|0:0|0:0,0:0:0:0:
208,80,19214,2,0,L|129:65,2,80,6|8|4,0:0|0:0|0:0,0:0:0:0:
304,72,19796,6,0,P|360:88|412:61,1,120,6|4,0:0|0:3,0:0:0:0:
472,192,20379,2,0,L|472:320,1,120,8|0,0:0|0:0,0:0:0:0:
384,336,20864,1,0,0:0:0:0:
384,336,20961,2,0,P|328:360|264:360,2,120,8|4|8,0:3|0:3|0:0,0:0:0:0:
368,192,21835,2,0,L|344:104,1,80,0|0,0:0|0:0,0:0:0:0:
352,64,22126,6,0,P|295:45|239:61,1,120,6|4,0:0|0:3,0:0:0:0:
128,152,22709,2,0,L|0:144,1,120,8|0,0:0|0:0,0:0:0:0:
16,240,23194,1,0,0:0:0:0:
15,240,23291,2,0,P|0:297|15:359,2,120,8|4|8,0:3|0:3|0:0,0:0:0:0:
144,304,24165,2,0,L|232:312,1,80,0|0,0:0|0:0,0:0:0:0:
272,328,24456,6,0,L|392:320,1,120,6|4,0:0|0:3,0:0:0:0:
472,200,25039,2,0,L|344:200,1,120,8|0,0:0|0:0,0:0:0:0:
264,216,25524,1,0,0:0:0:0:
263,216,25622,2,0,P|240:152|256:96,2,120,8|4|8,0:3|0:3|0:0,0:0:0:0:
152,120,26495,2,0,L|48:112,1,80,0|0,0:0|0:0,0:0:0:0:
39,152,26787,6,0,P|23:209|39:266,1,120,6|4,0:0|0:3,0:0:0:0:
168,336,27369,2,0,L|304:320,1,120,8|0,0:0|0:0,0:0:0:0:
360,256,27855,1,0,0:0:0:0:
360,256,27952,2,0,L|488:264,2,120,6|4|8,0:0|0:3|0:0,0:0:0:0:
216,248,28825,2,0,L|216:168,1,80,0|0,0:0|0:0,0:0:0:0:
256,144,29117,6,0,P|304:131|384:144,1,120,6|4,0:0|0:3,0:0:0:0:
504,200,29699,2,0,L|496:80,1,120,8|0,0:0|0:0,0:0:0:0:
424,32,30185,1,0,0:0:0:0:
424,32,30282,2,0,L|288:40,1,120,8|4,0:3|0:3,0:0:0:0:
160,48,30864,1,8,0:0:0:0:
152,192,31155,2,0,L|72:192,1,80,0|0,0:0|0:0,0:0:0:0:
24,208,31447,6,0,P|12:266|28:323,1,120,6|4,0:0|0:3,0:0:0:0:
168,304,32029,2,0,P|224:288|296:304,1,120,8|0,0:0|0:0,0:0:0:0:
384,328,32515,1,4,0:3:0:0:
384,328,32612,2,0,L|368:184,1,120,8|4,0:3|0:3,0:0:0:0:
440,88,33194,1,8,0:0:0:0:
304,32,33486,2,0,L|312:128,1,80,0|0,0:0|0:0,0:0:0:0:
296,160,33777,6,0,P|232:176|176:168,1,120,6|4,0:0|0:3,0:0:0:0:
120,40,34359,2,0,P|64:40|0:64,1,120,8|0,0:0|0:0,0:0:0:0:
24,160,34845,1,0,0:0:0:0:
24,160,34942,2,0,L|40:288,1,120,8|4,0:3|0:3,0:0:0:0:
152,368,35524,1,8,0:0:0:0:
152,224,35816,2,0,L|136:136,1,80,0|0,0:0|0:0,0:0:0:0:
184,128,36107,6,0,P|248:112|312:120,1,120,6|4,0:0|0:3,0:0:0:0:
272,256,36689,2,0,P|336:256|400:232,1,120,8|0,0:0|0:0,0:0:0:0:
480,288,37175,1,0,0:0:0:0:
480,288,37272,2,0,L|472:160,1,120,4|4,0:0|0:3,0:0:0:0:
416,32,37855,2,0,L|272:32,1,120,8|10,0:0|0:0,0:0:0:0:
224,96,38340,5,0,0:0:0:0:
224,96,38437,2,0,P|248:168|224:224,1,120,6|4,0:0|0:3,0:0:0:0:
296,336,39020,2,0,L|416:336,1,120,8|0,0:0|0:0,0:0:0:0:
456,248,39505,1,0,0:0:0:0:
456,248,39602,2,0,L|312:240,1,120,4|4,0:0|0:3,0:0:0:0:
192,240,40185,1,8,0:0:0:0:
72,312,40476,6,0,L|64:216,1,80,0|0,0:0|0:0,0:0:0:0:
47,176,40767,2,0,P|32:112|48:40,1,120,6|4,0:0|0:3,0:0:0:0:
176,112,41350,2,0,P|240:120|296:88,1,120,8|0,0:0|0:0,0:0:0:0:
312,192,41835,1,0,0:0:0:0:
312,192,41932,2,0,L|320:320,2,120,4|4|8,0:0|0:3|0:0,0:0:0:0:
56,64,43097,5,6,0:0:0:0:
200,40,43389,1,4,0:3:0:0:
328,112,43680,1,8,0:0:0:0:
472,80,43971,1,0,0:0:0:0:
464,224,44262,2,0,P|448:296|472:376,2,120,4|4|8,0:0|0:3|0:0,0:0:0:0:
472,80,45136,2,0,L|392:72,1,80,0|0,0:0|0:0,0:0:0:0:
344,80,45427,6,0,P|337:139|352:184,1,80,6|0,0:0|0:0,0:0:0:0:
344,208,45719,2,0,L|256:208,1,80,4|0,0:3|0:0,0:0:0:0:
216,224,46010,2,0,P|209:270|224:320,1,80,8|0,0:0|0:0,0:0:0:0:
224,352,46301,1,0,0:0:0:0:
136,328,46495,1,0,0:0:0:0:
136,328,46592,2,0,L|-8:336,1,120,4|4,0:0|0:3,0:0:0:0:
24,192,47175,2,0,P|88:184|144:192,1,120,8|8,0:0|0:0,0:0:0:0:
224,144,47660,5,0,0:0:0:0:
224,144,47757,2,0,P|240:88|224:24,1,120,6|4,0:0|0:3,0:0:0:0:
360,88,48340,1,8,0:0:0:0:
476,171,48631,2,0,L|396:177,1,80,0|0,0:0|0:0,0:0:0:0:
368,216,48922,2,0,P|352:280|376:344,1,120,4|4,0:0|0:3,0:0:0:0:
223,335,49505,2,0,P|164:327|105:335,1,120,8|0,0:0|0:0,0:0:0:0:
40,272,49990,5,0,0:0:0:0:
40,272,50088,2,0,L|48:144,1,120,6|4,0:0|0:3,0:0:0:0:
128,32,50670,2,0,P|187:24|244:40,1,120,8|0,0:0|0:0,0:0:0:0:
344,48,51155,1,0,0:0:0:0:
344,48,51253,2,0,L|456:48,1,80,4|0,0:0|0:0,0:0:0:0:
448,88,51544,2,0,P|464:120|456:168,1,80,4|0,0:3|0:0,0:0:0:0:
440,208,51835,2,0,L|464:296,1,80,8|0,0:0|0:0,0:0:0:0:
472,328,52126,1,4,0:3:0:0:
328,344,52418,5,6,0:0:0:0:
328,344,53000,2,0,P|256:360|192:344,1,120,8|0,0:0|0:0,0:0:0:0:
248,264,53486,1,0,0:0:0:0:
248,264,53583,2,0,L|232:136,1,120,4|0,0:0|0:0,0:0:0:0:
104,80,54165,2,0,L|-16:88,1,120,8|0,0:0|0:0,0:0:0:0:
24,184,54651,5,0,0:0:0:0:
24,184,54748,2,0,L|16:328,1,120,6|4,0:0|0:3,0:0:0:0:
120,304,55233,1,8,0:0:0:0:
120,304,55330,2,0,L|120:176,1,120,8|8,0:0|0:0,0:0:0:0:
200,64,55913,1,4,0:3:0:0:
344,40,56204,1,4,0:3:0:0:
464,112,56495,1,10,0:0:0:0:
256,48,64068,6,0,L|160:48,2,80,6|8|8,0:0|0:0|0:0,0:0:0:0:
224,136,64651,2,0,L|128:136,2,80,4|8|8,0:0|0:0|0:0,0:0:0:0:
200,224,65233,2,0,L|120:224,2,80,6|8|8,0:0|0:0|0:0,0:0:0:0:
168,312,65816,2,0,L|64:312,2,80,6|8|4,0:0|0:0|0:0,0:0:0:0:
264,312,66398,5,8,0:3:0:0:
400,344,66689,2,0,L|400:248,1,80,4|0,0:3|0:0,0:0:0:0:
392,216,66981,2,0,P|451:223|509:209,1,120,8|0,0:0|0:0,0:0:0:0:
472,72,67563,1,8,0:3:0:0:
328,72,67855,2,0,L|232:72,1,80,4|0,0:3|0:0,0:0:0:0:
224,112,68146,2,0,P|219:171|235:228,1,120,8|0,0:0|0:0,0:0:0:0:
248,376,68728,5,8,0:3:0:0:
112,328,69020,2,0,L|0:336,1,80,4|0,0:3|0:0,0:0:0:0:
24,288,69311,2,0,P|7:230|13:171,1,120,8|0,0:0|0:0,0:0:0:0:
88,48,69893,1,8,0:3:0:0:
112,192,70185,2,0,L|200:192,1,80,4|0,0:3|0:0,0:0:0:0:
217,151,70476,2,0,L|348:150,1,120,8|0,0:0|0:0,0:0:0:0:
438,49,71058,5,8,0:3:0:0:
456,192,71350,2,0,L|472:288,1,80,4|0,0:3|0:0,0:0:0:0:
448,312,71641,2,0,L|320:328,1,120,8|0,0:0|0:0,0:0:0:0:
184,336,72223,1,8,0:3:0:0:
176,192,72515,2,0,L|168:96,1,80,4|0,0:3|0:0,0:0:0:0:
192,72,72806,2,0,L|320:80,1,120,8|0,0:0|0:0,0:0:0:0:
456,88,73389,5,8,0:3:0:0:
440,232,73680,2,0,L|448:320,1,80,4|0,0:3|0:0,0:0:0:0:
400,320,73971,2,0,P|344:344|272:328,1,120,8|0,0:0|0:0,0:0:0:0:
144,320,74554,1,8,0:3:0:0:
24,240,74845,2,0,P|16:208|24:152,1,80,4|0,0:3|0:0,0:0:0:0:
40,120,75136,2,0,L|168:120,1,120,8|8,0:0|0:0,0:0:0:0:
296,72,75719,6,0,P|282:119|304:192,1,120,6|4,1:0|0:3,0:0:0:0:
440,144,76301,2,0,L|447:223,1,80,8|0,1:0|1:0,0:0:0:0:
344,320,76787,2,0,P|264:360|176:208,1,280,2|0,1:0|3:0,0:0:0:0:
16,40,77952,6,0,L|40:160,1,120,0|0,0:0|3:0,0:0:0:0:
8,344,78631,2,0,P|40:349|96:336,1,80,8|0,1:0|0:0,0:0:0:0:
168,224,79117,2,0,P|259:181|160:88,1,280,2|0,1:0|3:0,0:0:0:0:
456,72,80379,5,4,0:0:0:0:
456,72,80670,2,0,P|400:96|336:80,1,120,4|8,0:3|0:0,0:0:0:0:
192,328,81544,1,4,0:0:0:0:
192,328,81835,2,0,B|179:327|320:328,1,120,4|8,0:3|0:0,0:0:0:0:
456,320,82418,2,0,P|456:256|448:224,1,80,0|0,0:0|0:0,0:0:0:0:
432,200,82709,6,0,P|372:195|314:211,1,120,6|0,0:0|0:0,0:0:0:0:
309,67,83291,2,0,P|254:74|186:58,1,120,8|0,0:0|0:0,0:0:0:0:
101,42,83777,1,0,0:0:0:0:
101,42,83874,2,0,L|114:180,1,120,4|4,0:0|0:3,0:0:0:0:
121,305,84457,2,0,L|1:305,1,120,8|0,0:0|0:0,0:0:0:0:
12,213,84942,5,0,0:0:0:0:
12,213,85039,2,0,P|-11:158|0:101,1,120,6|4,0:0|0:3,0:0:0:0:
144,94,85622,2,0,L|264:94,1,120,8|0,0:0|0:0,0:0:0:0:
351,51,86107,1,0,0:0:0:0:
351,51,86204,2,0,L|495:59,1,120,4|4,0:0|0:2,0:0:0:0:
495,199,86787,1,8,0:0:0:0:
393,300,87078,6,0,L|385:204,1,80,0|0,0:0|0:0,0:0:0:0:
344,197,87369,2,0,P|284:189|227:203,1,120,6|4,0:0|0:3,0:0:0:0:
140,319,87952,2,0,P|86:344|27:335,1,120,8|0,0:0|0:0,0:0:0:0:
15,244,88437,1,0,0:0:0:0:
15,244,88534,2,0,L|7:116,2,120,4|4|8,0:0|0:3|0:0,0:0:0:0:
282,351,89699,5,6,0:0:0:0:
194,235,89991,1,4,0:3:0:0:
329,186,90282,1,8,0:0:0:0:
277,51,90573,1,0,0:0:0:0:
135,77,90864,2,0,P|78:97|19:92,2,120,4|4|8,0:0|0:3|0:0,0:0:0:0:
277,51,91738,2,0,L|357:59,1,80,0|0,0:0|0:0,0:0:0:0:
404,62,92029,6,0,P|413:103|409:142,1,80,6|0,0:0|0:0,0:0:0:0:
403,188,92321,2,0,L|483:188,1,80,4|0,0:3|0:0,0:0:0:0:
488,235,92612,2,0,L|498:336,1,80,8|0,0:0|0:0,0:0:0:0:
484,361,92903,1,0,0:0:0:0:
392,352,93097,1,0,0:0:0:0:
392,352,93194,2,0,L|248:360,1,120,4|4,0:0|0:3,0:0:0:0:
150,280,93777,2,0,P|92:293|31:280,1,120,8|8,0:0|0:0,0:0:0:0:
68,194,94262,5,0,0:0:0:0:
68,194,94359,2,0,P|55:139|68:74,1,120,6|4,0:0|0:3,0:0:0:0:
209,57,94942,1,8,0:0:0:0:
413,123,95233,2,0,L|333:129,1,80,0|0,0:0|0:0,0:0:0:0:
328,176,95524,2,0,P|312:240|336:304,1,120,4|4,0:0|0:3,0:0:0:0:
200,359,96107,2,0,P|141:351|82:359,1,120,8|0,0:0|0:0,0:0:0:0:
41,277,96592,5,0,0:0:0:0:
41,277,96690,2,0,L|49:149,1,120,6|4,0:0|0:2,0:0:0:0:
126,37,97272,2,0,P|185:29|242:45,1,120,8|0,0:0|0:0,0:0:0:0:
266,142,97757,1,0,0:0:0:0:
266,142,97855,2,0,L|378:138,1,80,4|0,0:0|0:0,0:0:0:0:
393,133,98146,2,0,L|394:219,1,80,4|0,0:3|0:0,0:0:0:0:
397,260,98437,2,0,L|476:263,1,80,8|0,0:0|0:0,0:0:0:0:
488,310,98728,1,4,0:3:0:0:
351,354,99020,5,6,0:0:0:0:
351,354,99602,2,0,P|279:370|215:354,1,120,8|0,0:0|0:0,0:0:0:0:
267,274,100088,1,0,0:0:0:0:
267,274,100185,2,0,L|251:146,1,120,4|0,0:0|0:0,0:0:0:0:
359,59,100767,2,0,L|479:51,1,120,8|0,0:0|0:0,0:0:0:0:
459,148,101253,5,0,0:0:0:0:
459,148,101350,2,0,L|451:292,1,120,6|4,0:0|0:3,0:0:0:0:
380,329,101835,1,8,0:0:0:0:
380,329,101932,2,0,L|260:329,1,120,8|8,0:0|0:0,0:0:0:0:
116,345,102515,1,4,0:3:0:0:
79,205,102806,1,4,0:3:0:0:
121,57,103097,1,10,0:0:0:0:
80,216,113000,6,0,P|141:235|207:217,1,120,6|4,0:0|0:3,0:0:0:0:
338,229,113583,1,8,0:0:0:0:
339,85,113874,1,0,0:0:0:0:
481,68,114165,6,0,P|475:117|483:205,1,120,8|4,0:3|0:3,0:0:0:0:
433,324,114748,1,8,0:0:0:0:
289,326,115039,1,0,0:0:0:0:
203,210,115330,6,0,L|60:220,1,120,6|4,0:0|0:3,0:0:0:0:
72,74,115913,1,8,0:0:0:0:
215,61,116204,1,0,0:0:0:0:
357,79,116495,6,0,P|349:159|361:209,1,120,8|0,0:3|0:0,0:0:0:0:
361,341,117078,1,8,0:0:0:0:
217,341,117369,1,0,0:0:0:0:
73,334,117660,6,0,P|82:285|68:216,1,120,6|4,0:0|0:3,0:0:0:0:
37,76,118243,1,8,0:0:0:0:
180,77,118534,1,0,0:0:0:0:
323,84,118825,6,0,L|331:207,1,120,8|4,0:3|0:3,0:0:0:0:
357,345,119408,1,8,0:0:0:0:
498,320,119699,1,0,0:0:0:0:
477,177,119990,6,0,L|483:39,2,120,6|4|8,0:0|0:3|0:0,0:0:0:0:
344,133,120864,1,4,0:3:0:0:
344,133,121155,2,0,P|296:125|216:140,2,120,4|4|8,0:0|0:3|0:0,0:0:0:0:
40,264,122321,5,2,0:0:0:0:
40,264,123486,1,4,0:3:0:0:
40,264,124651,1,4,0:0:0:0:
40,264,126981,1,2,0:0:0:0:
40,264,128146,5,4,0:3:0:0:
440,240,129311,6,0,L|440:328,2,80,4|8|8,0:0|0:0|0:0,0:0:0:0:
408,152,129893,2,0,L|408:56,2,80,6|8|8,0:0|0:0|0:0,0:0:0:0:
336,216,130476,2,0,L|336:296,2,80,4|8|8,0:0|0:0|0:0,0:0:0:0:
280,136,131058,2,0,L|280:56,2,80,6|8|4,0:0|0:0|0:0,0:0:0:0:
240,224,131641,6,0,P|136:248|48:160,1,240,14|8,0:0|0:0,0:0:0:0:
312,40,132806,1,8,0:0:0:0:
312,40,133389,1,8,0:0:0:0:
456,288,133971,2,0,P|392:336|224:280,1,240,6|8,0:0|0:0,0:0:0:0:
72,72,135136,1,8,0:0:0:0:
312,112,135622,5,0,0:0:0:0:
312,112,135719,2,0,L|432:104,1,120,8|8,0:0|0:0,0:0:0:0:
440,248,136301,2,0,P|448:304|432:376,1,120,6|4,0:0|0:3,0:0:0:0:
296,328,136884,2,0,P|232:344|168:328,1,120,8|4,0:0|0:3,0:0:0:0:
176,192,137466,2,0,L|48:184,1,120,8|4,0:0|0:3,0:0:0:0:
136,64,138049,2,0,P|200:48|256:72,1,120,8|0,0:0|0:0,0:0:0:0:
256,192,138631,12,0,139796,0:0:0:0:
408,48,140864,5,0,0:0:0:0:
408,48,140961,2,0,L|395:186,1,120,4|4,0:0|0:3,0:0:0:0:
391,305,141544,2,0,L|511:305,1,120,8|0,0:0|0:0,0:0:0:0:
500,213,142029,5,0,0:0:0:0:
500,213,142126,2,0,P|523:158|512:101,1,120,6|4,0:0|0:3,0:0:0:0:
368,94,142709,2,0,L|248:94,1,120,8|0,0:0|0:0,0:0:0:0:
161,51,143194,1,0,0:0:0:0:
161,51,143291,2,0,L|17:59,1,120,4|4,0:0|0:3,0:0:0:0:
17,199,143874,1,8,0:0:0:0:
119,300,144165,6,0,L|127:204,1,80,0|0,0:0|0:0,0:0:0:0:
168,197,144456,2,0,P|228:189|285:203,1,120,6|4,0:0|0:3,0:0:0:0:
372,319,145039,2,0,P|426:344|485:335,1,120,8|0,0:0|0:0,0:0:0:0:
497,244,145524,1,0,0:0:0:0:
497,244,145621,2,0,L|505:116,2,120,4|4|8,0:0|0:3|0:0,0:0:0:0:
230,351,146786,5,6,0:0:0:0:
88,336,147078,1,4,0:3:0:0:
80,192,147369,1,8,0:0:0:0:
224,184,147660,1,0,0:0:0:0:
368,192,147951,2,0,P|425:212|484:207,2,120,4|4|8,0:0|0:3|0:0,0:0:0:0:
288,72,148825,2,0,L|208:80,1,80,0|0,0:0|0:0,0:0:0:0:
160,79,149116,6,0,P|150:127|166:180,1,80,6|0,0:0|0:0,0:0:0:0:
162,204,149408,2,0,L|52:213,1,80,4|0,0:3|0:0,0:0:0:0:
51,247,149699,2,0,L|49:356,1,80,8|0,0:0|0:0,0:0:0:0:
34,372,149990,1,0,0:0:0:0:
132,359,150184,1,0,0:0:0:0:
132,359,150281,2,0,L|276:367,1,120,4|4,0:0|0:3,0:0:0:0:
344,255,150864,2,0,P|284:246|225:254,1,120,8|8,0:0|0:0,0:0:0:0:
222,162,151349,5,0,0:0:0:0:
222,162,151446,2,0,P|206:106|222:42,1,120,6|4,0:0|0:3,0:0:0:0:
76,25,152029,1,8,0:0:0:0:
8,152,152320,2,0,L|88:158,1,80,0|0,0:0|0:0,0:0:0:0:
125,187,152611,2,0,P|141:251|117:315,1,120,4|4,0:0|0:3,0:0:0:0:
266,334,153194,2,0,P|325:326|384:334,1,120,8|0,0:0|0:0,0:0:0:0:
464,280,153679,5,0,0:0:0:0:
464,280,153777,2,0,L|456:152,1,120,6|4,0:0|0:3,0:0:0:0:
386,37,154359,2,0,P|327:29|270:45,1,120,8|0,0:0|0:0,0:0:0:0:
219,128,154844,1,0,0:0:0:0:
219,128,154942,2,0,L|109:123,1,80,4|0,0:0|0:0,0:0:0:0:
93,138,155233,2,0,L|91:243,1,80,4|0,0:3|0:0,0:0:0:0:
47,238,155524,2,0,L|49:338,1,80,8|0,0:0|0:0,0:0:0:0:
17,354,155816,1,4,0:3:0:0:
161,354,156107,5,6,0:0:0:0:
161,354,156689,2,0,P|233:370|297:354,1,120,8|0,0:0|0:0,0:0:0:0:
245,274,157175,1,0,0:0:0:0:
245,274,157272,2,0,L|261:146,1,120,4|0,0:0|0:0,0:0:0:0:
153,59,157854,2,0,L|33:51,1,120,8|0,0:0|0:0,0:0:0:0:
53,148,158340,5,0,0:0:0:0:
53,148,158437,2,0,L|61:292,1,120,6|4,0:0|0:3,0:0:0:0:
132,329,158922,1,8,0:0:0:0:
132,329,159019,2,0,L|252:329,1,120,8|8,0:0|0:0,0:0:0:0:
400,320,159602,2,0,L|384:192,1,120,4|4,0:0|0:3,0:0:0:0:
448,72,160185,1,8,0:0:0:0:
304,64,160476,1,8,0:0:0:0:
160,72,160767,1,6,0:0:0:0:
256,192,160864,12,0,163680,0:0:0:0:
248,96,165427,6,0,P|184:112|104:96,1,120,4|4,0:0|0:3,0:0:0:0:
24,208,166010,2,0,L|32:336,1,120,8|0,0:0|0:0,0:0:0:0:
128,352,166495,1,0,0:0:0:0:
128,352,166592,2,0,P|184:352|248:344,1,120,6|4,0:0|0:3,0:0:0:0:
392,328,167175,1,8,0:0:0:0:
456,48,167757,6,0,P|457:107|447:166,1,120,4|4,0:0|0:3,0:0:0:0:
320,104,168340,2,0,L|192:112,1,120,4|0,0:0|0:0,0:0:0:0:
152,32,168825,1,0,0:0:0:0:
152,32,168922,2,0,L|8:32,1,120,6|4,0:0|0:3,0:0:0:0:
16,176,169505,1,8,0:0:0:0:
264,320,170088,6,0,L|384:312,1,120,4|4,0:0|0:3,0:0:0:0:
440,184,170670,2,0,P|391:171|320:176,1,120,8|0,0:0|0:0,0:0:0:0:
232,200,171155,1,0,0:0:0:0:
232,200,171253,2,0,L|240:64,1,120,6|4,0:0|0:3,0:0:0:0:
136,176,171835,2,0,P|72:168|8:184,1,120,8|0,0:0|0:0,0:0:0:0:
72,272,172321,5,0,0:0:0:0:
72,272,172418,2,0,P|120:288|192:280,1,120,4|4,0:0|0:3,0:0:0:0:
328,320,173000,2,0,P|339:262|320:200,1,120,8|0,0:0|0:0,0:0:0:0:
232,200,173486,1,0,0:0:0:0:
232,200,173583,2,0,P|224:128|232:72,1,120,6|4,0:0|0:3,0:0:0:0:
368,32,174165,1,8,0:0:0:0:
456,152,174456,5,0,0:0:0:0:
456,152,174748,2,0,P|472:208|456:288,1,120,4|4,0:0|0:3,0:0:0:0:
224,120,175622,1,0,0:0:0:0:
224,120,175913,2,0,P|224:56|208:-8,1,120,6|4,0:0|0:3,0:0:0:0:
48,200,176787,5,0,0:0:0:0:
48,200,177078,2,0,P|40:248|48:328,1,120,4|4,0:0|0:3,0:0:0:0:
328,256,177952,1,0,0:0:0:0:
328,256,178243,2,0,P|240:200|136:280,1,240,6|8,0:0|0:0,0:0:0:0:
424,320,179408,6,0,P|451:242|432:112,1,200,4|0,0:0|0:0,0:0:0:0:
256,56,180282,2,0,P|302:72|376:48,1,120,0|6,0:0|0:0,0:0:0:0:
304,280,181058,2,0,P|241:257|144:272,1,160,0|0,0:0|0:0,0:0:0:0:
24,336,181738,2,0,P|0:240|24:144,1,200,4|0,0:0|0:0,0:0:0:0:
192,40,182612,1,0,0:0:0:0:
192,40,182903,5,6,0:0:0:0:
