osu file format v14

[General]
AudioFilename: audio.mp3
AudioLeadIn: 0
PreviewTime: 43577
Countdown: 0
SampleSet: Soft
StackLeniency: 0.7
Mode: 1
LetterboxInBreaks: 0
WidescreenStoryboard: 1

[Editor]
DistanceSpacing: 0.8
BeatDivisor: 8
GridSize: 32
TimelineZoom: 3.099999

[Metadata]
Title://////////////sleepparalysis
TitleUnicode://////////////sısʎlɐɹɐddǝǝls
Artist:isqa
ArtistUnicode:isqa
Creator:Vulkin
Version://////////////zeth's nightmare
Source:
Tags:sisylarappeels porter robinson fellow feeling remix worlds idm glitch experimental electronic instrumental [zeth] idealism
BeatmapID:2247694
BeatmapSetID:1073957

[Difficulty]
HPDrainRate:7.5
CircleSize:2
OverallDifficulty:6.6
ApproachRate:10
SliderMultiplier:1.4
SliderTickRate:1

[Events]
//Background and Video events
0,0,"glitch_art_abstract_LSD-118696.jpg",0,0
//Break Periods
2,13087,19334
2,101362,103471
//Storyboard Layer 0 (Background)
//Storyboard Layer 1 (Fail)
//Storyboard Layer 2 (Pass)
//Storyboard Layer 3 (Foreground)
//Storyboard Layer 4 (Overlay)
//Storyboard Sound Samples

[TimingPoints]
474,344.827586206897,4,2,0,30,1,0
474,-125,4,2,0,30,0,1
1853,-125,4,2,0,30,0,0
3232,-133.333333333333,4,2,0,30,0,0
4611,-142.857142857143,4,2,0,30,0,0
5344,-153.846153846154,4,2,0,30,0,0
5732,-158.730158730159,4,2,0,30,0,0
5818,-161.290322580645,4,2,0,30,0,0
5990,-166.666666666667,4,2,0,30,0,0
6163,-166.666666666667,4,2,0,5,0,0
7370,-200,4,2,0,5,0,0
8749,-250,4,2,0,5,0,0
10128,-333.333333333333,4,2,0,5,0,0
11422,-125,4,2,0,30,0,0
11508,-125,4,2,0,30,0,1
12887,-125,4,2,0,30,0,0
14266,-133.333333333333,4,2,0,30,0,0
15645,-142.857142857143,4,2,0,30,0,0
17024,-153.846153846154,4,2,0,30,0,0
18404,-166.666666666667,4,2,0,30,0,0
19783,-181.818181818182,4,2,0,30,0,0
21162,-200,4,2,0,30,0,0
22542,-10,4,2,0,30,0,0
23921,-200,4,2,0,30,0,0
24266,-10,4,2,0,30,0,0
25300,-200,4,2,0,30,0,0
27369,-10,4,2,0,30,0,0
28059,-200,4,2,0,30,0,0
30818,-10,4,2,0,30,0,0
32197,-200,4,2,0,30,0,0
34266,-10,4,2,0,30,0,0
34955,-200,4,2,0,30,0,0
35990,-10,4,2,0,30,0,0
36335,-200,4,2,0,30,0,0
39094,-55.5555555555556,4,1,0,80,0,0
39267,-52.6315789473684,4,1,0,80,0,0
39310,-51.9480519480519,4,1,0,80,0,0
39353,-51.2820512820513,4,1,0,80,0,0
39396,-50.6329113924051,4,1,0,80,0,0
39439,-50,4,1,0,80,0,0
39524,-25,4,2,0,50,0,0
40473,-50,4,2,0,50,0,0
41593,-50,4,1,0,80,0,0
41767,-52.6315789473684,4,1,0,80,0,0
41810,-53.3333333333333,4,1,0,80,0,0
41853,-54.054054054054,4,1,0,80,0,0
41896,-54.7945205479452,4,1,0,80,0,0
41939,-55.5555555555556,4,1,0,80,0,0
43231,-66.6666666666667,4,1,0,80,0,0
43576,-66.6666666666667,4,2,0,50,0,0
44611,-80,4,1,0,80,0,0
44783,-57.1428571428571,4,1,0,80,0,0
45301,-71.4285714285714,4,1,0,80,0,1
45645,-80,4,1,0,80,0,1
46335,-69.9300699300699,4,1,0,80,0,1
46392,-71.4285714285714,4,1,0,80,0,1
46450,-72.992700729927,4,1,0,80,0,1
46507,-74.6268656716418,4,1,0,80,0,1
46565,-76.3358778625954,4,1,0,80,0,1
46622,-78.125,4,1,0,80,0,1
46680,-80,4,1,0,80,0,1
48232,-78.4313725490196,4,1,0,80,0,1
48405,-76.9230769230769,4,1,0,80,0,1
48448,-76.5257317773101,4,1,0,80,0,1
48491,-76.1904761904762,4,1,0,80,0,1
49266,-74.0740740740741,4,1,0,80,0,1
49352,-71.4285714285714,4,1,0,80,0,1
49438,-68.9655172413793,4,1,0,80,0,1
49783,-50,4,1,0,80,0,1
50129,-80,4,1,0,80,0,0
50387,-71.4285714285714,4,1,0,80,0,0
50474,-68.9655172413793,4,1,0,80,0,0
50818,-68.9655172413793,4,1,0,80,0,1
50991,-80,4,1,0,80,0,1
52197,-67.1140939597315,4,1,0,80,0,1
52369,-69.9300699300699,4,1,0,80,0,1
52455,-71.9424460431655,4,1,0,80,0,1
52714,-76.9230769230769,4,1,0,80,0,1
52887,-66.6666666666667,4,1,0,80,0,1
53979,-66.8896321070234,4,1,0,80,0,1
54037,-67.1140939597315,4,1,0,80,0,1
54094,-67.3400673400673,4,1,0,80,0,1
54152,-67.5675675675676,4,1,0,80,0,1
54209,-67.7966101694915,4,1,0,80,0,1
54267,-66.6666666666667,4,1,0,80,0,1
54324,-66.8896321070234,4,1,0,80,0,1
54382,-67.1140939597315,4,1,0,80,0,1
54439,-67.3400673400673,4,1,0,80,0,1
54496,-67.5675675675676,4,1,0,80,0,1
54554,-67.7966101694915,4,1,0,80,0,1
54611,-66.6666666666667,4,1,0,80,0,1
54669,-66.8896321070234,4,1,0,80,0,1
54726,-67.1140939597315,4,1,0,80,0,1
54784,-67.3400673400673,4,1,0,80,0,1
54841,-67.5675675675676,4,1,0,80,0,1
54899,-67.7966101694915,4,1,0,80,0,1
54956,-68.0272108843537,4,1,0,80,0,1
55128,-71.4285714285714,4,1,0,80,0,1
55300,-75.187969924812,4,1,0,80,0,1
55646,-90.9090909090909,4,1,0,80,0,0
56336,-66.6666666666667,4,1,0,80,0,1
56680,-80,4,1,0,80,0,1
56723,-78.125,4,1,0,80,0,1
56766,-76.3358778625954,4,1,0,80,0,1
56809,-74.6268656716418,4,1,0,80,0,1
56852,-72.992700729927,4,1,0,80,0,1
57024,-66.6666666666667,4,1,0,80,0,1
57111,-25,4,1,0,80,0,1
57714,-80,4,1,0,80,0,1
57887,-84.0336134453781,4,1,0,80,0,1
58059,-88.4955752212389,4,1,0,80,0,1
58145,-90.9090909090909,4,1,0,80,0,1
58231,-93.4579439252336,4,1,0,80,0,1
58318,-96.1538461538461,4,1,0,80,0,1
58404,-99.009900990099,4,1,0,80,0,1
58576,-6.25,4,1,0,80,0,1
59784,-100,4,1,0,80,0,0
61680,-6.25,4,1,0,80,0,0
62542,-100,4,1,0,80,0,0
63231,-50,4,1,0,80,0,0
63921,-100,4,1,0,80,0,0
64784,-6.25,4,1,0,80,0,0
65300,-100,4,1,0,80,0,0
65904,-102.040816326531,4,1,0,80,0,0
66162,-104.166666666667,4,1,0,80,0,0
66507,-106.382978723404,4,1,0,80,0,0
66680,-108.108108108108,4,1,0,80,0,0
66852,-109.89010989011,4,1,0,80,0,8
67024,-114.942528735632,4,1,0,80,0,8
67369,-121.951219512195,4,1,0,80,0,8
67628,-131.578947368421,4,1,0,80,0,8
68060,-100,4,1,0,80,0,8
68317,-102.040816326531,4,2,0,50,0,0
68576,-104.166666666667,4,2,0,50,0,0
68921,-106.382978723404,4,2,0,50,0,0
69179,-108.695652173913,4,2,0,50,0,0
69438,-111.111111111111,4,2,0,50,0,8
69610,-113.636363636364,4,2,0,50,0,8
69782,-116.279069767442,4,2,0,50,0,8
69955,-119.047619047619,4,2,0,50,0,8
70127,-121.951219512195,4,2,0,50,0,8
70300,-125,4,2,0,50,0,8
70474,-128.205128205128,4,2,0,50,0,8
70818,344.827586206897,4,1,0,80,1,0
70818,-50,4,1,0,80,0,0
71507,-71.4285714285714,4,1,0,80,0,1
71679,-80.6451612903226,4,1,0,80,0,1
71908,-80,4,1,0,80,0,1
71966,-79.3650793650794,4,1,0,80,0,1
72023,-78.7401574803149,4,1,0,80,0,1
72110,-77.8210116731517,4,1,0,80,0,1
72196,-76.9230769230769,4,1,0,80,0,1
72368,-75.187969924812,4,1,0,80,0,1
72541,-76.9230769230769,4,1,0,80,0,1
72627,-77.8210116731517,4,1,0,80,0,1
72713,-78.7401574803149,4,1,0,80,0,1
72771,-79.3650793650794,4,1,0,80,0,1
72828,-80,4,1,0,80,0,1
72885,-80.6451612903226,4,1,0,80,0,1
73230,-50,4,1,0,80,0,1
73575,-66.6666666666667,4,1,0,80,0,1
73748,-71.4285714285714,4,1,0,80,0,1
73834,-74.0740740740741,4,1,0,80,0,1
74092,-66.6666666666667,4,1,0,80,0,1
74265,-71.4285714285714,4,1,0,80,0,1
74437,-66.6666666666667,4,1,0,80,0,1
74610,-80,4,1,0,80,0,1
75012,-78.125,4,1,0,80,0,1
75069,-76.3358778625954,4,1,0,80,0,1
75127,-74.6268656716418,4,1,0,80,0,1
75184,-72.992700729927,4,1,0,80,0,1
75242,-71.4285714285714,4,1,0,80,0,1
75299,-69.9300699300699,4,1,0,80,0,1
75385,-71.4285714285714,4,1,0,80,0,1
75472,-72.992700729927,4,1,0,80,0,1
75558,-74.6268656716418,4,1,0,80,0,1
75644,-62.5,4,1,0,80,0,1
75989,-76.9230769230769,4,1,0,80,0,1
76335,-100,4,1,0,80,0,0
76507,-102.040816326531,4,1,0,80,0,0
76593,-103.092783505155,4,1,0,80,0,0
76851,-83.3333333333333,4,1,0,80,0,0
76937,-81.6326530612245,4,1,0,80,0,0
77024,-80,4,1,0,80,0,1
78403,-67.1140939597315,4,1,0,80,0,1
78575,-69.9300699300699,4,1,0,80,0,1
78661,-71.4285714285714,4,1,0,80,0,1
78748,-72.992700729927,4,1,0,80,0,1
79092,-66.6666666666667,4,1,0,80,0,1
80472,-66.4893617021277,4,1,0,80,0,1
80529,-66.3129973474801,4,1,0,80,0,1
80587,-66.1375661375661,4,1,0,80,0,1
80644,-65.9630606860158,4,1,0,80,0,1
80702,-65.7894736842105,4,1,0,80,0,1
80759,-65.6167979002625,4,1,0,80,0,1
80817,-65.4450261780105,4,1,0,80,0,1
80874,-65.2741514360313,4,1,0,80,0,1
80931,-65.1041666666667,4,1,0,80,0,1
80989,-64.9350649350649,4,1,0,80,0,1
81046,-64.7668393782383,4,1,0,80,0,1
81104,-64.5994832041344,4,1,0,80,0,1
81161,-64.4329896907216,4,1,0,80,0,1
81219,-64.26735218509,4,1,0,80,0,1
81276,-64.1025641025641,4,1,0,80,0,1
81334,-63.9386189258312,4,1,0,80,0,1
81391,-63.7755102040816,4,1,0,80,0,1
81449,-63.6132315521629,4,1,0,80,0,1
81506,-63.4517766497462,4,1,0,80,0,1
81564,-63.2911392405063,4,1,0,80,0,1
81621,-63.1313131313131,4,1,0,80,0,1
81679,-62.9722921914358,4,1,0,80,0,1
81736,-62.8140703517588,4,1,0,80,0,1
81794,-62.65664160401,4,1,0,80,0,1
81852,-62.5,4,1,0,80,0,0
82541,-66.6666666666667,4,1,0,80,0,0
82713,-80,4,1,0,80,0,0
82756,-78.125,4,1,0,80,0,0
82799,-76.3358778625954,4,1,0,80,0,0
82842,-74.6268656716418,4,1,0,80,0,0
82885,-72.992700729927,4,1,0,80,0,0
83059,-66.6666666666667,4,1,0,80,0,1
83144,-25,4,1,0,80,0,1
83230,-66.6666666666667,4,1,0,80,0,1
83920,-71.4285714285714,4,1,0,80,0,1
84092,-66.6666666666667,4,1,0,80,0,1
84265,-50,4,1,0,80,0,1
84610,-66.6666666666667,4,1,0,80,0,1
84782,-80,4,1,0,80,0,1
85127,-66.6666666666667,4,1,0,80,0,1
85299,-80,4,1,0,80,0,1
85817,-66.6666666666667,4,1,0,80,0,1
85989,-80,4,1,0,80,0,1
86334,-66.6666666666667,4,1,0,80,0,1
86392,-65.9630606860158,4,1,0,80,0,1
86450,-65.2315720808871,4,1,0,80,0,1
86507,-64.5161290322581,4,1,0,80,0,1
86550,-64,4,1,0,80,0,1
86593,-63.4920634920635,4,1,0,80,0,1
86679,-62.5,4,1,0,80,0,1
86765,-50,4,1,0,80,0,1
87368,-80,4,1,0,80,0,1
87541,-71.4285714285714,4,1,0,80,0,1
87885,-76.9230769230769,4,1,0,80,0,1
87972,-78.4313725490196,4,1,0,80,0,1
88058,-80,4,1,0,80,0,1
88748,-50,4,1,0,80,0,1
89092,-80,4,1,0,80,0,1
89179,-76.9230769230769,4,1,0,80,0,1
89265,-74.0740740740741,4,1,0,80,0,1
89351,-71.4285714285714,4,1,0,80,0,1
89394,-70.1754385964912,4,1,0,80,0,1
89437,-68.9655172413793,4,1,0,80,0,1
89523,-57.1428571428571,4,1,0,80,0,1
90127,-66.6666666666667,4,1,0,80,0,1
90213,-40,4,1,0,80,0,1
90817,-50,4,1,0,80,0,1
90903,-25,4,1,0,80,0,1
91161,-66.6666666666667,4,1,0,80,0,1
91722,-67.5675675675676,4,1,0,80,0,1
91765,-68.4931506849315,4,1,0,80,0,1
91808,-69.4444444444444,4,1,0,80,0,1
91851,-70.4225352112676,4,1,0,80,0,1
91908,-71.9424460431655,4,1,0,80,0,1
91966,-73.5294117647059,4,1,0,80,0,1
92023,-75.187969924812,4,1,0,80,0,1
92081,-76.9230769230769,4,1,0,80,0,1
92138,-78.7401574803149,4,1,0,80,0,1
92196,-80.6451612903226,4,1,0,80,0,1
92253,-82.6446280991736,4,1,0,80,0,1
92311,-84.7457627118644,4,1,0,80,0,1
92368,-86.9565217391304,4,1,0,80,0,1
92426,-89.2857142857143,4,1,0,80,0,1
92483,-91.743119266055,4,1,0,80,0,1
92541,-94.3396226415094,4,1,0,80,0,1
92656,-97.0873786407767,4,1,0,80,0,1
92713,-100,4,1,0,80,0,1
92843,-10,99,2,0,5,0,8
93059,-100,99,2,0,5,0,0
95645,-105.263157894737,99,2,0,5,0,0
97024,-111.111111111111,99,2,0,5,0,0
98404,-117.647058823529,99,2,0,5,0,0
99783,-125,99,2,0,5,0,0
101162,-133.333333333333,99,2,0,5,0,0
102542,-142.857142857143,99,2,0,5,0,0
103921,-166.666666666667,99,2,0,5,0,0
104266,-169.397065026451,99,2,0,5,0,0
104611,-172.218414281729,99,2,0,5,0,0
104955,-175.135335830763,99,2,0,5,0,0
105300,-178.152769562956,99,2,0,5,0,0
105645,-181.276001776505,99,2,0,5,0,0
105990,-184.510696085052,99,2,0,5,0,0
106335,-187.862574769305,99,2,0,5,0,0
106680,-191.338855372699,99,2,0,5,0,0
107024,-194.946214339464,99,2,0,5,0,0
107369,-198.692207887683,99,2,0,5,0,0
107714,-202.584984400956,99,2,0,5,0,0
108059,-206.633343596123,99,2,0,5,0,0
108404,-210.846802929927,99,2,0,5,0,0
108749,-215.235672299384,99,2,0,5,0,0
109093,-219.811138269998,99,2,0,5,0,0
109438,-224.585359280428,99,2,0,5,0,0
109783,-229.571573529479,99,2,0,5,0,0
110128,-234.784221561174,99,2,0,5,0,0
110473,-240.238508791528,99,2,0,5,0,0
110818,-245.95284592038,99,2,0,5,0,0
111162,-251.945650284321,99,2,0,5,0,0
111507,-258.237785352753,99,2,0,5,0,0
111852,-264.852252171126,99,2,0,5,0,0
112197,-271.814470315142,99,2,0,5,0,0
112542,-279.152604354222,99,2,0,5,0,0
112886,-286.897944663124,99,2,0,5,0,0
113231,-295.085353438482,99,2,0,5,0,0
113576,-303.753789328522,99,2,0,5,0,0
113921,-312.946927330594,99,2,0,5,0,0
114266,-322.713894769453,99,2,0,5,0,0
114611,-333.110149533146,99,2,0,5,0,0
114955,-344.827586206897,99,2,0,10,0,0
115300,-333.333333333333,99,2,0,10,0,0
115645,-322.58064516129,99,2,0,10,0,0
115990,-312.5,99,2,0,10,0,0
116335,-303.030303030303,99,2,0,10,0,0
116680,-294.117647058824,99,2,0,10,0,0
117024,-285.714285714286,99,2,0,10,0,0
117369,-277.777777777778,99,2,0,10,0,0
117714,-270.27027027027,99,2,0,10,0,0
118059,-263.157894736842,99,2,0,10,0,0
118404,-256.410256410256,99,2,0,10,0,0
118749,-250,99,2,0,10,0,0
119093,-243.90243902439,99,2,0,10,0,0
119438,-238.095238095238,99,2,0,10,0,0
119783,-232.558139534884,99,2,0,10,0,0
120128,-227.272727272727,99,2,0,10,0,0
120473,-217.391304347826,99,2,0,10,0,0
120818,-208.333333333333,99,2,0,10,0,0
121162,-196.078431372549,99,2,0,10,0,0
121507,-185.185185185185,99,2,0,10,0,0
121852,-172.413793103448,99,2,0,10,0,0
122197,-161.290322580645,99,2,0,10,0,0
122542,-149.253731343284,99,2,0,10,0,0
122886,-138.888888888889,99,2,0,10,0,0
123231,-128.205128205128,99,2,0,10,0,0
123576,-117.647058823529,99,2,0,10,0,0
123921,-107.52688172043,99,2,0,10,0,0
124266,-98.0392156862745,99,2,0,10,0,0
124611,-89.2857142857143,99,2,0,10,0,0
124783,-89.2857142857143,99,2,0,15,0,0
124955,-89.2857142857143,99,2,0,20,0,0
125128,-89.2857142857143,99,2,0,25,0,0
125300,-89.2857142857143,99,2,0,30,0,0
125473,-89.2857142857143,99,2,0,35,0,0
125645,-89.2857142857143,99,2,0,40,0,0
125818,-89.2857142857143,99,2,0,45,0,0
125990,-76.9230769230769,99,2,0,50,0,0

[HitObjects]
160,96,474,5,0,0:0:0:0:
256,192,542,1,2,0:0:0:0:
256,192,611,1,2,0:0:0:0:
256,192,680,1,2,0:0:0:0:
256,192,749,1,2,0:0:0:0:
256,192,818,1,2,0:0:0:0:
256,192,887,1,2,0:0:0:0:
256,192,956,1,2,0:0:0:0:
256,192,1025,1,2,0:0:0:0:
256,192,1094,1,2,0:0:0:0:
256,192,1163,1,2,0:0:0:0:
256,192,1232,1,2,0:0:0:0:
256,192,1301,1,2,0:0:0:0:
256,192,1370,1,2,0:0:0:0:
256,192,1439,1,2,0:0:0:0:
256,192,1508,1,2,0:0:0:0:
256,192,1577,1,2,0:0:0:0:
256,192,1646,1,2,0:0:0:0:
256,192,1715,1,2,0:0:0:0:
256,192,1784,1,2,0:0:0:0:
256,192,1853,1,2,0:0:0:0:
256,192,5344,1,2,0:0:0:0:
256,192,5761,1,2,0:0:0:0:
160,96,5818,1,0,0:0:0:0:
160,96,5990,1,0,0:0:0:0:
256,192,6163,12,0,9956,0:0:0:0:
160,96,11508,5,0,0:0:0:0:
256,192,11576,1,2,0:0:0:0:
256,192,11645,1,2,0:0:0:0:
256,192,11714,1,2,0:0:0:0:
256,192,11783,1,2,0:0:0:0:
256,192,11852,1,2,0:0:0:0:
256,192,11921,1,2,0:0:0:0:
256,192,11990,1,2,0:0:0:0:
256,192,12059,1,2,0:0:0:0:
256,192,12128,1,2,0:0:0:0:
256,192,12197,1,2,0:0:0:0:
256,192,12266,1,2,0:0:0:0:
256,192,12335,1,2,0:0:0:0:
256,192,12404,1,2,0:0:0:0:
256,192,12473,1,2,0:0:0:0:
256,192,12542,1,2,0:0:0:0:
256,192,12611,1,2,0:0:0:0:
256,192,12680,1,2,0:0:0:0:
256,192,12749,1,2,0:0:0:0:
256,192,12818,1,2,0:0:0:0:
256,192,12887,1,2,0:0:0:0:
256,192,19784,12,0,22370,0:0:0:0:
96,192,22542,6,0,L|448:192,8,350
96,192,24267,2,0,L|448:192,20,350
96,192,27370,2,0,L|448:192,28,350
96,192,30818,2,0,L|448:192,32,350
96,192,34266,2,0,L|448:192,8,350
96,192,35991,2,0,L|448:192,10,350
256,192,37715,12,0,38749,0:0:0:0:
160,288,39094,5,4,0:0:0:0:
256,192,39267,1,2,0:0:0:0:
256,192,39310,1,2,0:0:0:0:
256,192,39353,1,2,0:0:0:0:
256,192,39396,1,2,0:0:0:0:
256,192,39439,1,2,0:0:0:0:
256,192,39524,12,2,41507,0:0:0:0:
160,96,41680,5,0,0:0:0:0:
256,192,41767,1,2,0:0:0:0:
256,192,41810,1,2,0:0:0:0:
256,192,41853,1,2,0:0:0:0:
256,192,41896,1,2,0:0:0:0:
256,192,41939,1,2,0:0:0:0:
256,192,43576,12,0,44438,0:0:0:0:
160,96,44611,5,0,0:0:0:0:
256,192,44783,1,2,0:0:0:0:
256,192,44812,1,2,0:0:0:0:
256,192,45301,1,6,0:0:0:0:
160,96,45645,1,0,0:0:0:0:
160,96,45731,1,0,0:0:0:0:
160,96,45818,1,0,0:0:0:0:
160,96,45904,1,0,0:0:0:0:
256,192,45990,1,2,0:0:0:0:
256,192,46076,1,2,0:0:0:0:
160,96,46162,1,0,0:0:0:0:
160,96,46249,1,0,0:0:0:0:
256,192,46335,1,2,0:0:0:0:
256,192,46392,1,2,0:0:0:0:
256,192,46450,1,2,0:0:0:0:
160,96,46507,1,0,0:0:0:0:
160,96,46565,1,0,0:0:0:0:
160,96,46622,1,0,0:0:0:0:
256,192,46680,1,2,0:0:0:0:
160,96,46766,1,0,0:0:0:0:
256,192,46852,1,2,0:0:0:0:
256,192,46938,1,2,0:0:0:0:
256,192,47024,1,2,0:0:0:0:
160,96,47111,1,0,0:0:0:0:
160,96,47197,1,0,0:0:0:0:
256,192,47283,1,2,0:0:0:0:
160,96,47369,1,0,0:0:0:0:
256,192,47714,1,2,0:0:0:0:
256,192,47800,1,2,0:0:0:0:
160,96,47887,1,0,0:0:0:0:
160,96,47973,1,0,0:0:0:0:
160,96,48059,1,0,0:0:0:0:
256,192,48232,1,2,0:0:0:0:
256,192,48260,1,2,0:0:0:0:
160,96,48405,1,0,0:0:0:0:
160,96,48448,1,0,0:0:0:0:
256,192,48491,1,2,0:0:0:0:
256,192,48662,1,2,0:0:0:0:
160,96,48749,1,0,0:0:0:0:
256,192,48835,1,2,0:0:0:0:
256,192,48878,1,2,0:0:0:0:
160,96,48921,1,0,0:0:0:0:
224,192,49007,1,2,0:0:0:0:
256,192,49093,1,2,0:0:0:0:
160,96,49266,1,0,0:0:0:0:
160,96,49352,1,0,0:0:0:0:
256,192,49438,1,6,0:0:0:0:
256,192,49783,12,0,49956,0:0:0:0:
160,96,50129,5,0,0:0:0:0:
160,96,50387,1,0,0:0:0:0:
256,192,50474,1,2,0:0:0:0:
256,192,50818,1,2,0:0:0:0:
256,192,50991,1,2,0:0:0:0:
256,192,51077,1,2,0:0:0:0:
160,96,51163,1,0,0:0:0:0:
256,192,51249,1,2,0:0:0:0:
256,192,51335,1,2,0:0:0:0:
160,96,51421,1,0,0:0:0:0:
160,96,51507,1,0,0:0:0:0:
160,96,51593,1,0,0:0:0:0:
256,192,51680,1,2,0:0:0:0:
160,96,51766,1,0,0:0:0:0:
256,192,51852,1,2,0:0:0:0:
256,192,51938,1,2,0:0:0:0:
160,96,52024,1,0,0:0:0:0:
160,96,52111,1,0,0:0:0:0:
256,192,52197,1,6,0:0:0:0:
256,192,52369,1,2,0:0:0:0:
256,192,52455,1,2,0:0:0:0:
256,192,52714,1,2,0:0:0:0:
160,288,52887,1,4,0:0:0:0:
256,192,53059,1,2,0:0:0:0:
256,192,53145,1,2,0:0:0:0:
256,192,53231,1,2,0:0:0:0:
256,192,53318,1,2,0:0:0:0:
160,288,53404,1,4,0:0:0:0:
256,192,53576,1,2,0:0:0:0:
160,96,53662,1,0,0:0:0:0:
256,192,53749,1,2,0:0:0:0:
160,96,53835,1,0,0:0:0:0:
256,192,53921,1,2,0:0:0:0:
256,192,53979,1,2,0:0:0:0:
160,96,54037,1,0,0:0:0:0:
256,192,54094,1,2,0:0:0:0:
160,96,54152,1,0,0:0:0:0:
160,96,54209,1,0,0:0:0:0:
256,192,54267,1,2,0:0:0:0:
256,192,54324,1,2,0:0:0:0:
160,96,54382,1,0,0:0:0:0:
256,192,54439,1,2,0:0:0:0:
160,96,54496,1,0,0:0:0:0:
160,96,54554,1,0,0:0:0:0:
256,192,54611,1,2,0:0:0:0:
256,192,54669,1,2,0:0:0:0:
256,192,54726,1,2,0:0:0:0:
160,96,54784,1,0,0:0:0:0:
160,96,54841,1,0,0:0:0:0:
160,96,54899,1,0,0:0:0:0:
256,192,54956,1,2,0:0:0:0:
256,192,55128,1,2,0:0:0:0:
160,96,55300,1,0,0:0:0:0:
160,96,55646,1,0,0:0:0:0:
160,96,56163,1,0,0:0:0:0:
256,192,56336,1,6,0:0:0:0:
160,96,56680,1,0,0:0:0:0:
160,96,56723,1,0,0:0:0:0:
256,192,56766,1,2,0:0:0:0:
256,192,56809,1,2,0:0:0:0:
256,192,56852,1,2,0:0:0:0:
160,288,57024,1,4,0:0:0:0:
256,192,57111,12,0,57542,0:0:0:0:
256,192,57714,5,2,0:0:0:0:
160,96,57887,1,0,0:0:0:0:
256,192,58059,1,2,0:0:0:0:
160,96,58145,1,0,0:0:0:0:
256,192,58231,1,2,0:0:0:0:
256,192,58318,1,2,0:0:0:0:
160,96,58404,1,0,0:0:0:0:
96,192,58577,2,0,L|274:191,20,175
160,96,59784,1,0,0:0:0:0:
96,192,61680,2,0,L|448:192,4,350
256,192,63231,1,6,0:0:0:0:
96,192,64784,2,4,L|448:192,5,350
256,192,65645,1,2,0:0:0:0:
256,192,65961,1,2,0:0:0:0:
256,192,66277,1,2,0:0:0:0:
256,192,66593,1,2,0:0:0:0:
256,192,66917,1,2,0:0:0:0:
256,192,67241,1,2,0:0:0:0:
256,192,67586,1,2,0:0:0:0:
256,192,67887,1,2,0:0:0:0:
160,96,68060,1,0,0:0:0:0:
160,96,68405,1,0,0:0:0:0:
160,96,68749,1,0,0:0:0:0:
160,96,69008,1,0,0:0:0:0:
160,96,69267,1,0,0:0:0:0:
160,96,69496,1,0,0:0:0:0:
160,96,69698,1,0,0:0:0:0:
160,96,69899,1,0,0:0:0:0:
160,96,70071,1,0,0:0:0:0:
160,96,70215,1,0,0:0:0:0:
160,96,70359,1,0,0:0:0:0:
160,96,70474,1,0,0:0:0:0:
160,96,70560,1,0,0:0:0:0:
160,96,70617,1,0,0:0:0:0:
160,96,70675,1,0,0:0:0:0:
160,288,70818,1,4,0:0:0:0:
256,192,71507,1,2,0:0:0:0:
160,96,71851,1,0,0:0:0:0:
256,192,71908,1,2,0:0:0:0:
256,192,71966,1,2,0:0:0:0:
256,192,72023,1,2,0:0:0:0:
160,96,72110,1,0,0:0:0:0:
160,96,72196,1,0,0:0:0:0:
256,192,72368,1,2,0:0:0:0:
160,96,72541,1,0,0:0:0:0:
160,96,72627,1,0,0:0:0:0:
256,192,72713,1,2,0:0:0:0:
256,192,72771,1,2,0:0:0:0:
256,192,72828,1,2,0:0:0:0:
160,96,72885,1,0,0:0:0:0:
256,192,72972,1,2,0:0:0:0:
256,192,73144,1,2,0:0:0:0:
256,192,73231,12,2,73404,0:0:0:0:
160,288,73575,5,4,0:0:0:0:
256,192,73748,1,2,0:0:0:0:
256,192,73834,1,2,0:0:0:0:
160,288,74092,1,4,0:0:0:0:
160,96,74265,1,0,0:0:0:0:
256,192,74437,1,2,0:0:0:0:
256,192,74480,1,2,0:0:0:0:
160,96,74610,1,0,0:0:0:0:
160,96,74696,1,0,0:0:0:0:
256,192,74782,1,2,0:0:0:0:
256,192,74868,1,2,0:0:0:0:
160,96,74954,1,0,0:0:0:0:
256,192,75012,1,2,0:0:0:0:
256,192,75069,1,2,0:0:0:0:
256,192,75127,1,2,0:0:0:0:
160,96,75184,1,0,0:0:0:0:
160,96,75242,1,0,0:0:0:0:
256,192,75299,1,2,0:0:0:0:
256,192,75385,1,2,0:0:0:0:
160,96,75472,1,0,0:0:0:0:
160,96,75558,1,0,0:0:0:0:
256,192,75644,1,6,0:0:0:0:
256,192,75989,1,2,0:0:0:0:
160,96,76335,1,0,0:0:0:0:
256,192,76507,1,2,0:0:0:0:
160,96,76593,1,0,0:0:0:0:
256,192,76851,1,2,0:0:0:0:
160,96,76937,1,0,0:0:0:0:
256,192,77024,1,2,0:0:0:0:
160,96,77368,1,0,0:0:0:0:
256,192,77454,1,2,0:0:0:0:
256,192,77541,1,2,0:0:0:0:
160,96,77627,1,0,0:0:0:0:
256,192,77713,1,2,0:0:0:0:
160,96,77799,1,0,0:0:0:0:
160,96,77885,1,0,0:0:0:0:
256,192,77972,1,2,0:0:0:0:
256,192,78058,1,2,0:0:0:0:
160,96,78144,1,0,0:0:0:0:
256,192,78230,1,2,0:0:0:0:
160,96,78317,1,0,0:0:0:0:
256,192,78403,1,6,0:0:0:0:
256,192,78575,1,2,0:0:0:0:
256,192,78661,1,2,0:0:0:0:
256,192,78748,12,0,78921,0:0:0:0:
160,288,79092,5,4,0:0:0:0:
256,192,79207,1,2,0:0:0:0:
256,192,79265,1,2,0:0:0:0:
160,96,79322,1,0,0:0:0:0:
160,96,79380,1,0,0:0:0:0:
256,192,79437,1,2,0:0:0:0:
256,192,79495,1,2,0:0:0:0:
160,96,79552,1,0,0:0:0:0:
160,96,79610,1,0,0:0:0:0:
256,192,79667,1,2,0:0:0:0:
256,192,79725,1,2,0:0:0:0:
256,192,79782,1,2,0:0:0:0:
160,96,79839,1,0,0:0:0:0:
160,96,79897,1,0,0:0:0:0:
160,96,79954,1,0,0:0:0:0:
256,192,80012,1,2,0:0:0:0:
256,192,80069,1,2,0:0:0:0:
160,96,80127,1,0,0:0:0:0:
160,96,80184,1,0,0:0:0:0:
256,192,80242,1,2,0:0:0:0:
160,96,80299,1,0,0:0:0:0:
256,192,80357,1,2,0:0:0:0:
256,192,80414,1,2,0:0:0:0:
160,96,80472,1,0,0:0:0:0:
256,192,80529,1,2,0:0:0:0:
256,192,80587,1,2,0:0:0:0:
160,96,80644,1,0,0:0:0:0:
160,96,80702,1,2,0:0:0:0:
256,192,80759,1,2,0:0:0:0:
160,96,80817,1,0,0:0:0:0:
160,96,80874,1,0,0:0:0:0:
256,192,80931,1,2,0:0:0:0:
256,192,80989,1,0,0:0:0:0:
160,96,81046,1,0,0:0:0:0:
160,96,81104,1,2,0:0:0:0:
256,192,81161,1,0,0:0:0:0:
160,96,81219,1,0,0:0:0:0:
160,96,81276,1,0,0:0:0:0:
256,192,81334,1,2,0:0:0:0:
160,96,81391,1,2,0:0:0:0:
160,96,81449,1,2,0:0:0:0:
256,192,81506,1,0,0:0:0:0:
256,192,81564,1,0,0:0:0:0:
160,96,81621,1,0,0:0:0:0:
256,192,81679,1,2,0:0:0:0:
256,192,81736,1,2,0:0:0:0:
160,96,81794,1,2,0:0:0:0:
256,192,81851,1,0,0:0:0:0:
256,192,82541,1,6,0:0:0:0:
160,96,82713,1,0,0:0:0:0:
160,96,82756,1,0,0:0:0:0:
256,192,82799,1,2,0:0:0:0:
256,192,82842,1,2,0:0:0:0:
256,192,82885,1,2,0:0:0:0:
160,288,83059,5,4,0:0:0:0:
224,192,83145,2,4,L|320:192,12,70
256,192,83921,1,6,0:0:0:0:
256,192,84092,1,2,0:0:0:0:
256,192,84135,1,2,0:0:0:0:
256,192,84266,12,0,84438,0:0:0:0:
160,288,84610,5,4,0:0:0:0:
256,192,84782,1,2,0:0:0:0:
160,288,85127,1,4,0:0:0:0:
256,192,85299,1,2,0:0:0:0:
256,192,85644,1,2,0:0:0:0:
160,288,85817,1,4,0:0:0:0:
256,192,85989,1,2,0:0:0:0:
256,192,86335,1,2,0:0:0:0:
256,192,86392,1,2,0:0:0:0:
256,192,86450,1,2,0:0:0:0:
160,96,86507,1,0,0:0:0:0:
160,96,86550,1,0,0:0:0:0:
160,96,86593,1,0,0:0:0:0:
256,192,86680,1,6,0:0:0:0:
256,192,86766,12,0,87197,0:0:0:0:
160,288,87369,5,4,0:0:0:0:
256,192,87542,1,2,0:0:0:0:
256,192,87585,1,2,0:0:0:0:
256,192,87886,1,2,0:0:0:0:
256,192,87973,1,2,0:0:0:0:
160,96,88059,1,0,0:0:0:0:
160,96,88403,1,0,0:0:0:0:
160,96,88489,1,0,0:0:0:0:
256,192,88575,1,2,0:0:0:0:
160,96,88661,1,0,0:0:0:0:
256,192,88748,12,0,88921,0:0:0:0:
256,192,89093,5,2,0:0:0:0:
256,192,89180,1,2,0:0:0:0:
160,96,89266,1,0,0:0:0:0:
160,96,89352,1,0,0:0:0:0:
160,96,89395,1,0,0:0:0:0:
256,192,89438,1,2,0:0:0:0:
256,192,89524,12,0,89955,0:0:0:0:
160,288,90127,5,4,0:0:0:0:
192,192,90214,2,0,L|288:192,5,87.5,0|0|4|0|0|0,0:0|0:0|0:0|0:0|0:0|0:0,0:0:0:0:
256,192,90817,1,6,0:0:0:0:
256,192,90903,12,0,91161,0:0:0:0:
160,96,91334,5,0,0:0:0:0:
256,192,91679,1,2,0:0:0:0:
256,192,91722,1,2,0:0:0:0:
160,96,91765,1,0,0:0:0:0:
160,96,91808,1,0,0:0:0:0:
256,192,91851,1,2,0:0:0:0:
256,192,91908,1,2,0:0:0:0:
256,192,91966,1,2,0:0:0:0:
256,192,92023,1,2,0:0:0:0:
256,192,92081,1,2,0:0:0:0:
256,192,92138,1,2,0:0:0:0:
256,192,92196,1,2,0:0:0:0:
256,192,92253,1,2,0:0:0:0:
256,192,92311,1,2,0:0:0:0:
256,192,92368,1,2,0:0:0:0:
256,192,92426,1,2,0:0:0:0:
256,192,92512,1,2,0:0:0:0:
256,192,92598,1,2,0:0:0:0:
256,192,92684,1,2,0:0:0:0:
256,192,92799,1,2,0:0:0:0:
256,192,92886,12,0,101162,0:0:0:0:
256,192,103921,5,0,0:0:0:0:
256,192,104266,1,0,0:0:0:0:
256,192,104611,1,0,0:0:0:0:
256,192,104955,1,0,0:0:0:0:
256,192,105300,1,0,0:0:0:0:
256,192,105645,1,0,0:0:0:0:
256,192,105990,1,0,0:0:0:0:
256,192,106335,1,0,0:0:0:0:
256,192,106680,1,2,0:0:0:0:
256,192,107024,1,2,0:0:0:0:
256,192,107369,1,2,0:0:0:0:
256,192,107714,1,2,0:0:0:0:
256,192,108059,1,2,0:0:0:0:
256,192,108404,1,2,0:0:0:0:
256,192,108749,1,2,0:0:0:0:
256,192,109093,1,2,0:0:0:0:
256,192,109438,1,0,0:0:0:0:
256,192,109783,1,0,0:0:0:0:
256,192,110128,1,0,0:0:0:0:
256,192,110473,1,0,0:0:0:0:
256,192,110818,1,0,0:0:0:0:
256,192,111162,1,0,0:0:0:0:
256,192,111507,1,0,0:0:0:0:
256,192,111852,1,0,0:0:0:0:
256,192,112197,1,2,0:0:0:0:
256,192,112542,1,0,0:0:0:0:
256,192,112886,1,0,0:0:0:0:
256,192,113231,1,0,0:0:0:0:
256,192,113576,1,2,0:0:0:0:
256,192,113921,1,2,0:0:0:0:
256,192,114266,1,2,0:0:0:0:
256,192,114611,1,2,0:0:0:0:
256,192,114955,1,0,0:0:0:0:
256,192,115300,1,0,0:0:0:0:
256,192,115645,1,0,0:0:0:0:
256,192,115990,1,0,0:0:0:0:
256,192,116335,1,0,0:0:0:0:
256,192,116680,1,0,0:0:0:0:
256,192,117024,1,0,0:0:0:0:
256,192,117369,1,0,0:0:0:0:
256,192,117714,1,2,0:0:0:0:
256,192,118059,1,2,0:0:0:0:
256,192,118404,1,2,0:0:0:0:
256,192,118749,1,2,0:0:0:0:
256,192,119093,1,2,0:0:0:0:
256,192,119438,1,2,0:0:0:0:
256,192,119783,1,2,0:0:0:0:
256,192,120128,1,2,0:0:0:0:
256,192,120473,1,0,0:0:0:0:
256,192,120818,1,0,0:0:0:0:
256,192,121162,1,0,0:0:0:0:
256,192,121507,1,0,0:0:0:0:
256,192,121852,1,0,0:0:0:0:
256,192,122197,1,0,0:0:0:0:
256,192,122542,1,0,0:0:0:0:
256,192,122886,1,0,0:0:0:0:
256,192,123231,1,2,0:0:0:0:
256,192,123576,1,2,0:0:0:0:
256,192,123921,1,2,0:0:0:0:
256,192,124266,1,2,0:0:0:0:
256,192,124611,1,8,0:0:0:0:
256,192,124783,12,2,125817,0:0:0:0:
256,192,125990,5,6,0:0:0:0:
