osu file format v14

[General]
AudioFilename: audio.mp3
AudioLeadIn: 0
PreviewTime: 62591
Countdown: 0
SampleSet: Normal
StackLeniency: 0.7
Mode: 1
LetterboxInBreaks: 0
WidescreenStoryboard: 1

[Editor]
DistanceSpacing: 0.8
BeatDivisor: 4
GridSize: 32
TimelineZoom: 1.5

[Metadata]
Title:SH4PESHIFT3R
TitleUnicode:SH4PESHIFT3R
Artist:isonosuke
ArtistUnicode:isonosuke
Creator:Zennan
Version:0NI
Source:
Tags:electronic shapeshifter のすけ いそのすけ nosuke bitpop instrumental meiqth 8-bit 8bit eneme! オリジナルアルバム original album 光のチップチューンVS闇のチップチューン 対決コンピレーション2 -Dark Side- Hikari no Chiptune VS Yami Taiketsu Compilation 2 novtos しのりゅー shinoryuu Kantan Futsuu Muzukashii Oni meiqth's transformation
BeatmapID:3634703
BeatmapSetID:1775018

[Difficulty]
HPDrainRate:5.5
CircleSize:5
OverallDifficulty:6
ApproachRate:5
SliderMultiplier:1.4
SliderTickRate:1

[Events]
//Background and Video events
0,0,"glass.png",0,0
//Break Periods
2,87160,91760
2,148660,153260
2,154660,156260
//Storyboard Layer 0 (Background)
//Storyboard Layer 1 (Fail)
//Storyboard Layer 2 (Pass)
//Storyboard Layer 3 (Foreground)
//Storyboard Layer 4 (Overlay)
//Storyboard Sound Samples

[TimingPoints]
1460,375,4,1,0,30,1,0
1460,-111.111111111111,4,1,0,30,0,0
2585,-104.143456,4,1,0,30,0,0
2772,-102.01855,4,1,0,30,0,0
2866,-100.98283,4,1,0,30,0,0
2957,-100,4,1,0,70,0,0
2960,-99.96793,4,1,0,70,0,0
8960,-90.9090909090909,4,1,0,78,0,0
9335,-100,4,1,0,78,0,0
11960,-90.9090909090909,4,1,0,78,0,0
14210,-100,4,1,0,78,0,0
14397,-97.56732,4,1,0,78,0,0
14585,-95.2381,4,1,0,78,0,0
14678,-94.12651,4,1,0,78,0,0
14772,-93.02903,4,1,0,78,0,0
14866,-91.95685,4,1,0,78,0,0
14960,-90.90909,4,1,0,85,0,0
25741,-92.487335,4,1,0,85,0,0
26022,-94.121346,4,1,0,85,0,0
26303,-95.81413,4,1,0,85,0,0
26585,-97.57529,4,1,0,85,0,0
26960,-100.02004,4,1,0,80,0,0
50210,-98.050514,4,1,0,80,0,0
50397,-96.16693,4,1,0,80,0,0
50585,-94.34486,4,1,0,80,0,0
50678,-93.46879,4,1,0,80,0,0
50772,-92.59969,4,1,0,80,0,0
50866,-91.746605,4,1,0,80,0,0
50960,-90.90909,4,1,0,80,0,0
55178,-91.743119266055,4,1,0,80,0,0
55272,-92.5925925925926,4,1,0,80,0,0
55366,-94.3396226415094,4,1,0,80,0,0
55460,-95.2380952380952,4,1,0,80,0,0
55835,-95.2380952380952,4,1,0,80,0,0
61460,-94.2385,4,1,0,80,0,0
61647,-93.26482,4,1,0,80,0,0
61741,-92.78294,4,1,0,80,0,0
61928,-91.83894,4,1,0,80,0,0
62116,-90.90909,4,1,0,80,0,0
62210,-90.45119,4,1,0,80,0,0
62397,-89.55382,4,1,0,80,0,0
62491,-89.109436,4,1,0,80,0,0
62585,-88.66943,4,1,0,80,0,0
62960,-86.95652,4,1,0,85,0,1
86210,-89.29082,4,1,0,85,0,1
86303,-90.49249,4,1,0,85,0,1
86397,-91.740425,4,1,0,85,0,1
86585,-94.34247,4,1,0,85,0,1
86678,-95.685,4,1,0,85,0,1
86772,-97.081345,4,1,0,85,0,1
86866,-98.51906,4,1,0,85,0,1
86960,-100,4,1,0,70,0,0
92960,-100,4,1,0,75,0,0
98585,-95.2381,4,1,0,75,0,0
98678,-94.12651,4,1,0,75,0,0
98772,-93.02903,4,1,0,75,0,0
98866,-91.95685,4,1,0,75,0,0
98960,-90.90909,4,1,0,75,0,0
103178,-94.32823,4,1,0,75,0,0
103272,-96.14596,4,1,0,75,0,0
103366,-98.03512,4,1,0,75,0,0
103460,-100,4,1,0,75,0,0
104772,-97.5609756097561,4,1,0,80,0,0
104960,-95.2380952380952,4,1,0,80,0,0
109272,-95.2381,4,1,0,80,0,0
109460,-94.7062,4,1,0,80,0,0
109647,-94.18298,4,1,0,80,0,0
109741,-93.92217,4,1,0,80,0,0
109928,-93.40756,4,1,0,80,0,0
110022,-93.15101,4,1,0,80,0,0
110116,-92.89585,4,1,0,80,0,0
110303,-92.39241,4,1,0,80,0,0
110491,-91.89175,4,1,0,80,0,0
110678,-91.399086,4,1,0,80,0,0
110866,-90.90909,4,1,0,80,0,0
110960,-90.66606,4,1,0,80,0,0
111710,-88.77256,4,1,0,80,0,0
111897,-88.31269,4,1,0,80,0,0
112085,-87.855156,4,1,0,80,0,0
112272,-87.40473,4,1,0,80,0,0
112366,-87.180046,4,1,0,80,0,0
112460,-86.95652,4,1,0,85,0,1
135710,-87.72094,4,1,0,85,0,1
135803,-88.10407,4,1,0,85,0,1
135897,-88.494736,4,1,0,85,0,1
136085,-89.28657,4,1,0,85,0,1
136178,-89.683525,4,1,0,85,0,1
136272,-90.088356,4,1,0,85,0,1
136366,-90.49686,4,1,0,85,0,1
136460,-90.90909,4,1,0,80,0,0
147803,-90.90909,4,1,0,80,0,0
148085,-94.61806,4,1,0,80,0,0
148272,-97.24906,4,1,0,80,0,0
148366,-98.62766,4,1,0,80,0,0
148457,-100,4,1,0,80,0,0
148460,-100.04589,4,1,0,80,0,0
157460,-90.9090909090909,4,1,0,85,0,0
160835,-66.6666666666667,4,1,0,90,0,0

[HitObjects]
254,192,1460,5,8,0:0:0:0:
255,198,1741,1,8,0:0:0:0:
254,192,2022,1,8,0:0:0:0:
254,192,2585,1,0,0:0:0:0:
255,198,2772,1,0,0:0:0:0:
255,178,2866,1,0,0:0:0:0:
254,192,2960,1,8,0:0:0:0:
254,192,3147,1,0,0:0:0:0:
254,192,3241,1,8,0:0:0:0:
254,192,3428,1,0,0:0:0:0:
254,192,3616,1,8,0:0:0:0:
255,192,3897,1,0,0:0:0:0:
257,188,4085,1,8,0:0:0:0:
254,192,4178,1,8,0:0:0:0:
262,205,4272,1,0,0:0:0:0:
254,192,4460,1,0,0:0:0:0:
254,192,4741,1,8,0:0:0:0:
254,193,4928,1,8,0:0:0:0:
258,194,5116,1,8,0:0:0:0:
256,187,5303,1,0,0:0:0:0:
256,196,5397,1,0,0:0:0:0:
254,192,5491,1,0,0:0:0:0:
254,192,5585,1,8,0:0:0:0:
254,192,5772,1,8,0:0:0:0:
257,197,5960,1,0,0:0:0:0:
254,200,6147,1,0,0:0:0:0:
256,196,6241,1,8,0:0:0:0:
259,191,6428,1,0,0:0:0:0:
252,191,6710,1,0,0:0:0:0:
251,198,6897,1,8,0:0:0:0:
252,194,6991,1,0,0:0:0:0:
252,191,7460,1,0,0:0:0:0:
252,191,7553,1,0,0:0:0:0:
254,195,7647,1,8,0:0:0:0:
256,187,7741,1,8,0:0:0:0:
251,198,7928,1,8,0:0:0:0:
257,187,8022,1,0,0:0:0:0:
257,194,8210,1,8,0:0:0:0:
252,186,8397,1,8,0:0:0:0:
255,199,8491,1,0,0:0:0:0:
252,191,8678,1,8,0:0:0:0:
256,202,8772,1,0,0:0:0:0:
251,198,8866,1,0,0:0:0:0:
254,192,8960,1,8,0:0:0:0:
254,192,9335,1,0,0:0:0:0:
254,198,9710,1,8,0:0:0:0:
254,192,10085,1,0,0:0:0:0:
254,198,10460,1,8,0:0:0:0:
248,192,10741,1,0,0:0:0:0:
254,192,11022,1,8,0:0:0:0:
254,191,11210,1,8,0:0:0:0:
254,198,11303,1,8,0:0:0:0:
255,192,11397,1,0,0:0:0:0:
254,192,11585,1,0,0:0:0:0:
259,192,11960,1,0,0:0:0:0:
259,190,12335,1,12,0:0:0:0:
259,190,13085,1,0,0:0:0:0:
256,191,13460,1,12,0:0:0:0:
259,190,13741,1,12,0:0:0:0:
259,190,14022,1,12,0:0:0:0:
256,191,14210,1,0,0:0:0:0:
256,191,14397,1,8,0:0:0:0:
259,190,14585,1,0,0:0:0:0:
263,194,14678,1,8,0:0:0:0:
246,166,14772,1,0,0:0:0:0:
259,190,14866,1,0,0:0:0:0:
255,182,14960,1,12,0:0:0:0:
246,178,15147,1,8,0:0:0:0:
256,191,15335,1,0,0:0:0:0:
256,191,15428,1,0,0:0:0:0:
255,186,15522,1,0,0:0:0:0:
258,178,15710,1,8,0:0:0:0:
255,182,15897,1,8,0:0:0:0:
255,182,15991,1,8,0:0:0:0:
257,184,16085,1,0,0:0:0:0:
256,191,16272,1,8,0:0:0:0:
257,184,16460,1,8,0:0:0:0:
255,182,16647,1,0,0:0:0:0:
261,178,16741,1,8,0:0:0:0:
257,184,16835,1,0,0:0:0:0:
257,184,17022,1,0,0:0:0:0:
257,184,17116,1,0,0:0:0:0:
263,184,17210,1,8,0:0:0:0:
259,185,17397,1,8,0:0:0:0:
259,185,17585,1,0,0:0:0:0:
257,184,17772,1,8,0:0:0:0:
257,177,18147,1,8,0:0:0:0:
257,184,18522,1,0,0:0:0:0:
257,184,18616,1,0,0:0:0:0:
263,187,18710,1,0,0:0:0:0:
262,180,18897,1,8,0:0:0:0:
255,192,19085,1,0,0:0:0:0:
274,192,19178,1,0,0:0:0:0:
272,179,19272,1,8,0:0:0:0:
261,182,19460,1,8,0:0:0:0:
261,182,19835,1,8,0:0:0:0:
260,177,20022,1,0,0:0:0:0:
261,182,20210,1,8,0:0:0:0:
261,182,20397,1,8,0:0:0:0:
261,182,20491,1,8,0:0:0:0:
250,191,20585,1,8,0:0:0:0:
252,195,20772,1,0,0:0:0:0:
249,189,20866,1,0,0:0:0:0:
254,196,20960,1,12,0:0:0:0:
251,199,21335,1,0,0:0:0:0:
251,198,21522,1,0,0:0:0:0:
251,198,21616,1,0,0:0:0:0:
254,196,21710,1,8,0:0:0:0:
254,196,21991,1,8,0:0:0:0:
254,196,22178,1,8,0:0:0:0:
254,196,22366,1,8,0:0:0:0:
244,202,22460,1,8,0:0:0:0:
254,196,22553,1,0,0:0:0:0:
253,204,22741,1,0,0:0:0:0:
254,196,22835,1,0,0:0:0:0:
247,191,22928,1,8,0:0:0:0:
254,196,23022,1,0,0:0:0:0:
248,199,23116,1,8,0:0:0:0:
248,195,23585,1,8,0:0:0:0:
254,188,23960,1,0,0:0:0:0:
253,189,24147,1,0,0:0:0:0:
254,188,24335,1,0,0:0:0:0:
254,192,24428,1,8,0:0:0:0:
254,190,24522,1,0,0:0:0:0:
242,184,24616,1,8,0:0:0:0:
251,193,24897,1,0,0:0:0:0:
254,188,25085,1,8,0:0:0:0:
254,188,25178,1,0,0:0:0:0:
254,188,25366,1,0,0:0:0:0:
254,188,25460,1,12,0:0:0:0:
251,193,25741,1,12,0:0:0:0:
254,188,26022,1,12,0:0:0:0:
251,215,26303,1,12,0:0:0:0:
249,162,26585,1,12,0:0:0:0:
246,180,26960,1,0,0:0:0:0:
246,180,27335,1,8,0:0:0:0:
250,182,27710,1,0,0:0:0:0:
247,173,27803,1,0,0:0:0:0:
246,180,27991,1,8,0:0:0:0:
264,192,28178,1,8,0:0:0:0:
263,196,28366,1,8,0:0:0:0:
261,192,28460,1,8,0:0:0:0:
250,182,28553,1,8,0:0:0:0:
268,192,28647,1,0,0:0:0:0:
261,192,28741,1,0,0:0:0:0:
264,192,28928,1,0,0:0:0:0:
261,192,29116,1,8,0:0:0:0:
265,193,29303,1,0,0:0:0:0:
261,192,29397,1,8,0:0:0:0:
258,190,29585,1,0,0:0:0:0:
261,192,29960,1,8,0:0:0:0:
255,190,30241,1,0,0:0:0:0:
255,190,30522,1,0,0:0:0:0:
255,190,30616,1,0,0:0:0:0:
254,193,30710,1,8,0:0:0:0:
254,188,30991,1,0,0:0:0:0:
252,184,31460,1,0,0:0:0:0:
249,183,31741,1,0,0:0:0:0:
253,178,32022,1,0,0:0:0:0:
252,184,32303,1,0,0:0:0:0:
251,188,32585,1,0,0:0:0:0:
250,184,32772,1,0,0:0:0:0:
261,200,32866,1,0,0:0:0:0:
251,188,32960,1,8,0:0:0:0:
251,188,33335,1,8,0:0:0:0:
252,192,33710,1,0,0:0:0:0:
251,191,33803,1,8,0:0:0:0:
251,194,33991,1,0,0:0:0:0:
252,197,34178,1,0,0:0:0:0:
251,194,34366,1,8,0:0:0:0:
252,192,34553,1,8,0:0:0:0:
252,192,34647,1,8,0:0:0:0:
258,196,34741,1,8,0:0:0:0:
249,198,34928,1,0,0:0:0:0:
254,201,35116,1,8,0:0:0:0:
253,198,35585,1,8,0:0:0:0:
252,200,35678,1,8,0:0:0:0:
252,200,35772,1,0,0:0:0:0:
256,194,35960,1,4,0:0:0:0:
254,201,36241,1,4,0:0:0:0:
261,179,36522,1,4,0:0:0:0:
256,194,36710,1,12,0:0:0:0:
256,194,36991,1,12,0:0:0:0:
258,193,37272,1,12,0:0:0:0:
258,198,37460,1,12,0:0:0:0:
256,194,37741,1,12,0:0:0:0:
256,194,37928,1,12,0:0:0:0:
260,197,38116,1,8,0:0:0:0:
258,198,38210,1,4,0:0:0:0:
259,199,38397,1,0,0:0:0:0:
262,214,38678,1,0,0:0:0:0:
258,198,38960,1,8,0:0:0:0:
248,199,39522,1,0,0:0:0:0:
258,198,39710,1,8,0:0:0:0:
255,195,39897,1,8,0:0:0:0:
258,198,39991,1,8,0:0:0:0:
255,195,40178,1,0,0:0:0:0:
257,196,40272,1,0,0:0:0:0:
255,199,40460,1,0,0:0:0:0:
258,198,40647,1,0,0:0:0:0:
255,195,40741,1,0,0:0:0:0:
255,201,40928,1,0,0:0:0:0:
261,191,41022,1,8,0:0:0:0:
248,192,41210,1,8,0:0:0:0:
277,205,41491,1,0,0:0:0:0:
262,196,41772,1,8,0:0:0:0:
254,196,41960,1,8,0:0:0:0:
258,201,42241,1,0,0:0:0:0:
254,188,42522,1,8,0:0:0:0:
256,190,42803,1,0,0:0:0:0:
268,190,43085,1,8,0:0:0:0:
262,192,43272,1,0,0:0:0:0:
255,184,43460,1,8,0:0:0:0:
264,177,43647,1,8,0:0:0:0:
258,184,43741,1,0,0:0:0:0:
256,195,44022,1,8,0:0:0:0:
262,192,44210,1,8,0:0:0:0:
261,198,44303,1,0,0:0:0:0:
256,195,44585,1,0,0:0:0:0:
258,195,44772,1,0,0:0:0:0:
256,195,44866,1,0,0:0:0:0:
260,189,44960,1,0,0:0:0:0:
252,185,45335,1,0,0:0:0:0:
260,188,45522,1,0,0:0:0:0:
260,189,45710,1,8,0:0:0:0:
255,193,45991,1,0,0:0:0:0:
255,193,46272,1,8,0:0:0:0:
260,188,46366,1,0,0:0:0:0:
260,188,46460,1,8,0:0:0:0:
261,194,46647,1,0,0:0:0:0:
255,193,46835,1,8,0:0:0:0:
258,189,46928,1,0,0:0:0:0:
262,197,47116,1,8,0:0:0:0:
255,193,47210,1,8,0:0:0:0:
255,193,47303,1,0,0:0:0:0:
260,188,47397,1,0,0:0:0:0:
251,197,47491,1,8,0:0:0:0:
252,185,47960,1,0,0:0:0:0:
247,183,48147,1,0,0:0:0:0:
253,183,48241,1,0,0:0:0:0:
253,182,48335,1,8,0:0:0:0:
252,185,48522,1,0,0:0:0:0:
252,185,48710,1,8,0:0:0:0:
258,187,48897,1,8,0:0:0:0:
257,187,48991,1,8,0:0:0:0:
253,182,49085,1,8,0:0:0:0:
266,181,49272,1,8,0:0:0:0:
253,182,49460,1,4,0:0:0:0:
256,180,49741,1,4,0:0:0:0:
261,180,50022,1,4,0:0:0:0:
256,177,50210,1,4,0:0:0:0:
266,179,50397,1,0,0:0:0:0:
256,177,50585,1,0,0:0:0:0:
253,168,50678,1,0,0:0:0:0:
256,177,50772,1,8,0:0:0:0:
256,180,50866,1,0,0:0:0:0:
256,177,50960,1,12,0:0:0:0:
256,183,51335,1,0,0:0:0:0:
256,177,51522,1,8,0:0:0:0:
253,168,51710,1,0,0:0:0:0:
256,177,51991,1,0,0:0:0:0:
256,183,52272,1,0,0:0:0:0:
256,183,52366,1,0,0:0:0:0:
256,177,52460,1,8,0:0:0:0:
256,177,52741,1,8,0:0:0:0:
256,177,53022,1,8,0:0:0:0:
256,177,53116,1,8,0:0:0:0:
256,177,53210,1,0,0:0:0:0:
256,177,53585,1,0,0:0:0:0:
256,177,53772,1,0,0:0:0:0:
256,177,53960,1,8,0:0:0:0:
256,177,54241,1,0,0:0:0:0:
256,177,54522,1,8,0:0:0:0:
256,177,54803,1,0,0:0:0:0:
256,177,54991,1,8,0:0:0:0:
256,177,55178,1,8,0:0:0:0:
256,177,55272,1,8,0:0:0:0:
256,177,55366,1,8,0:0:0:0:
256,193,55460,1,0,0:0:0:0:
258,190,55835,1,0,0:0:0:0:
257,191,55928,1,0,0:0:0:0:
257,191,56116,1,0,0:0:0:0:
254,190,56303,1,0,0:0:0:0:
256,193,56397,1,0,0:0:0:0:
258,190,56585,1,8,0:0:0:0:
258,190,56772,1,0,0:0:0:0:
253,187,56960,1,8,0:0:0:0:
253,187,57053,1,8,0:0:0:0:
253,187,57147,1,8,0:0:0:0:
253,187,57241,1,8,0:0:0:0:
253,187,57428,1,0,0:0:0:0:
259,186,57710,1,8,0:0:0:0:
259,186,58085,1,8,0:0:0:0:
258,182,58178,1,8,0:0:0:0:
260,184,58272,1,8,0:0:0:0:
280,196,58366,1,8,0:0:0:0:
259,186,58553,1,0,0:0:0:0:
268,177,58835,1,8,0:0:0:0:
262,180,59210,1,0,0:0:0:0:
268,174,59491,1,0,0:0:0:0:
262,181,59772,1,12,0:0:0:0:
253,200,60335,1,0,0:0:0:0:
255,197,60428,1,0,0:0:0:0:
254,198,60616,1,8,0:0:0:0:
257,196,60897,1,0,0:0:0:0:
250,200,61085,1,0,0:0:0:0:
252,206,61272,1,0,0:0:0:0:
258,196,61460,1,8,0:0:0:0:
254,198,61647,1,0,0:0:0:0:
254,192,61741,1,8,0:0:0:0:
256,187,61928,1,0,0:0:0:0:
255,192,62116,1,0,0:0:0:0:
254,185,62210,1,8,0:0:0:0:
253,194,62397,1,0,0:0:0:0:
251,196,62491,1,8,0:0:0:0:
254,198,62585,1,0,0:0:0:0:
254,185,62960,1,12,0:0:0:0:
255,192,63147,1,0,0:0:0:0:
251,193,63241,1,8,0:0:0:0:
254,185,63335,1,8,0:0:0:0:
258,188,63428,1,0,0:0:0:0:
254,190,63616,1,0,0:0:0:0:
254,185,63803,1,8,0:0:0:0:
254,185,63897,1,8,0:0:0:0:
259,192,63991,1,8,0:0:0:0:
260,187,64085,1,0,0:0:0:0:
256,188,64272,1,0,0:0:0:0:
247,182,64460,1,0,0:0:0:0:
247,182,64741,1,8,0:0:0:0:
240,197,64928,1,8,0:0:0:0:
255,187,65116,1,8,0:0:0:0:
243,196,65397,1,0,0:0:0:0:
256,192,65585,1,8,0:0:0:0:
255,181,65772,1,8,0:0:0:0:
256,185,65960,1,0,0:0:0:0:
255,187,66053,1,0,0:0:0:0:
255,187,66147,1,8,0:0:0:0:
253,188,66241,1,8,0:0:0:0:
249,179,66428,1,0,0:0:0:0:
256,185,66710,1,0,0:0:0:0:
255,181,66803,1,0,0:0:0:0:
251,188,66897,1,0,0:0:0:0:
245,191,66991,1,8,0:0:0:0:
256,185,67460,1,0,0:0:0:0:
256,185,67741,1,0,0:0:0:0:
259,189,68022,1,0,0:0:0:0:
256,185,68210,1,0,0:0:0:0:
256,185,68397,1,8,0:0:0:0:
256,185,68491,1,0,0:0:0:0:
257,194,68678,1,8,0:0:0:0:
255,192,68772,1,0,0:0:0:0:
255,192,68866,1,0,0:0:0:0:
256,190,68960,1,8,0:0:0:0:
256,190,69335,1,0,0:0:0:0:
262,202,69428,1,0,0:0:0:0:
256,190,69522,1,0,0:0:0:0:
263,188,69710,1,8,0:0:0:0:
255,192,69803,1,8,0:0:0:0:
255,192,69897,1,0,0:0:0:0:
256,190,69991,1,0,0:0:0:0:
260,185,70178,1,8,0:0:0:0:
272,191,70366,1,0,0:0:0:0:
263,188,70460,1,8,0:0:0:0:
263,188,70741,1,0,0:0:0:0:
263,188,71022,1,8,0:0:0:0:
262,190,71303,1,0,0:0:0:0:
263,188,71585,1,8,0:0:0:0:
256,192,71960,1,0,0:0:0:0:
256,192,72241,1,8,0:0:0:0:
256,192,72522,1,0,0:0:0:0:
256,192,72710,1,8,0:0:0:0:
245,182,72803,1,8,0:0:0:0:
256,192,72897,1,0,0:0:0:0:
256,192,72991,1,0,0:0:0:0:
256,192,73272,1,0,0:0:0:0:
256,192,73460,1,4,0:0:0:0:
255,186,73741,1,12,0:0:0:0:
258,187,74022,1,12,0:0:0:0:
264,193,74303,1,12,0:0:0:0:
259,190,74585,1,4,0:0:0:0:
255,197,74772,1,0,0:0:0:0:
256,192,74960,1,12,0:0:0:0:
259,194,75147,1,0,0:0:0:0:
257,189,75241,1,8,0:0:0:0:
256,192,75335,1,8,0:0:0:0:
248,190,75428,1,0,0:0:0:0:
256,192,75616,1,0,0:0:0:0:
256,192,75803,1,8,0:0:0:0:
252,187,75897,1,8,0:0:0:0:
256,192,75991,1,8,0:0:0:0:
256,192,76085,1,0,0:0:0:0:
256,192,76272,1,0,0:0:0:0:
256,192,76460,1,0,0:0:0:0:
256,192,76741,1,8,0:0:0:0:
249,203,76928,1,8,0:0:0:0:
248,203,77116,1,8,0:0:0:0:
252,196,77397,1,0,0:0:0:0:
256,192,77491,1,0,0:0:0:0:
256,192,77585,1,8,0:0:0:0:
260,194,77772,1,8,0:0:0:0:
256,198,77960,1,0,0:0:0:0:
262,194,78053,1,0,0:0:0:0:
259,202,78147,1,8,0:0:0:0:
256,198,78241,1,8,0:0:0:0:
256,192,78428,1,0,0:0:0:0:
256,188,78710,1,0,0:0:0:0:
258,187,78803,1,0,0:0:0:0:
263,188,78897,1,0,0:0:0:0:
263,187,78991,1,8,0:0:0:0:
256,188,79460,1,0,0:0:0:0:
259,179,79741,1,0,0:0:0:0:
259,183,80022,1,0,0:0:0:0:
252,179,80210,1,0,0:0:0:0:
259,179,80397,1,0,0:0:0:0:
259,187,80491,1,0,0:0:0:0:
258,163,80678,1,8,0:0:0:0:
256,184,80772,1,0,0:0:0:0:
259,183,80866,1,0,0:0:0:0:
252,193,80960,1,8,0:0:0:0:
252,193,81335,1,0,0:0:0:0:
254,181,81428,1,0,0:0:0:0:
250,197,81522,1,8,0:0:0:0:
256,191,81616,1,0,0:0:0:0:
252,193,81710,1,8,0:0:0:0:
259,197,81897,1,8,0:0:0:0:
252,193,81991,1,8,0:0:0:0:
252,193,82178,1,0,0:0:0:0:
256,197,82366,1,0,0:0:0:0:
258,197,82460,1,8,0:0:0:0:
260,197,82741,1,0,0:0:0:0:
259,195,83022,1,8,0:0:0:0:
258,197,83303,1,0,0:0:0:0:
259,195,83585,1,8,0:0:0:0:
259,195,83960,1,0,0:0:0:0:
259,195,84335,1,12,0:0:0:0:
263,196,85085,1,0,0:0:0:0:
256,193,85460,1,12,0:0:0:0:
256,193,85741,1,12,0:0:0:0:
256,193,86022,1,12,0:0:0:0:
256,193,86210,1,8,0:0:0:0:
256,193,86303,1,0,0:0:0:0:
256,193,86397,1,8,0:0:0:0:
256,193,86585,1,0,0:0:0:0:
264,192,86678,1,8,0:0:0:0:
256,197,86772,1,0,0:0:0:0:
262,196,86866,1,0,0:0:0:0:
249,194,86960,1,12,0:0:0:0:
256,189,92960,5,0,0:0:0:0:
251,192,93335,1,0,0:0:0:0:
252,195,93522,1,0,0:0:0:0:
256,189,93616,1,0,0:0:0:0:
256,189,93710,1,8,0:0:0:0:
248,192,93897,1,0,0:0:0:0:
257,188,94085,1,8,0:0:0:0:
258,184,94178,1,0,0:0:0:0:
261,188,94272,1,8,0:0:0:0:
256,189,94460,1,0,0:0:0:0:
256,189,94647,1,8,0:0:0:0:
257,188,94835,1,8,0:0:0:0:
261,193,94928,1,0,0:0:0:0:
256,189,95116,1,0,0:0:0:0:
256,189,95210,1,0,0:0:0:0:
256,189,95303,1,0,0:0:0:0:
260,193,95397,1,0,0:0:0:0:
260,193,95491,1,8,0:0:0:0:
255,202,95960,1,0,0:0:0:0:
255,202,96335,1,0,0:0:0:0:
255,176,96522,1,0,0:0:0:0:
259,205,96616,1,0,0:0:0:0:
244,184,96710,1,8,0:0:0:0:
248,186,97085,1,8,0:0:0:0:
250,184,97178,1,8,0:0:0:0:
251,183,97272,1,8,0:0:0:0:
249,174,97460,1,4,0:0:0:0:
244,184,97741,1,4,0:0:0:0:
248,186,98022,1,4,0:0:0:0:
257,187,98210,1,4,0:0:0:0:
256,183,98585,1,0,0:0:0:0:
256,176,98678,1,0,0:0:0:0:
260,190,98772,1,8,0:0:0:0:
256,177,98866,1,0,0:0:0:0:
256,177,98960,1,8,0:0:0:0:
256,183,99335,1,0,0:0:0:0:
256,177,99522,1,8,0:0:0:0:
253,168,99710,1,0,0:0:0:0:
256,177,99991,1,0,0:0:0:0:
256,183,100272,1,0,0:0:0:0:
256,183,100366,1,0,0:0:0:0:
256,177,100460,1,8,0:0:0:0:
256,177,100741,1,8,0:0:0:0:
256,177,101022,1,8,0:0:0:0:
256,177,101116,1,8,0:0:0:0:
256,177,101210,1,0,0:0:0:0:
256,177,101585,1,0,0:0:0:0:
256,177,101772,1,0,0:0:0:0:
256,177,101960,1,8,0:0:0:0:
256,177,102241,1,0,0:0:0:0:
256,177,102522,1,8,0:0:0:0:
256,177,102803,1,0,0:0:0:0:
256,177,102991,1,8,0:0:0:0:
256,177,103178,1,8,0:0:0:0:
256,177,103272,1,8,0:0:0:0:
256,177,103366,1,8,0:0:0:0:
256,193,103460,1,0,0:0:0:0:
256,198,103835,1,0,0:0:0:0:
255,203,103928,1,0,0:0:0:0:
255,203,104116,1,0,0:0:0:0:
251,207,104303,1,0,0:0:0:0:
251,205,104397,1,0,0:0:0:0:
252,205,104585,1,8,0:0:0:0:
249,211,104772,1,0,0:0:0:0:
259,191,104960,1,8,0:0:0:0:
259,191,105053,1,8,0:0:0:0:
259,191,105147,1,8,0:0:0:0:
259,191,105241,1,8,0:0:0:0:
258,197,105428,1,0,0:0:0:0:
259,191,105710,1,8,0:0:0:0:
259,191,106085,1,8,0:0:0:0:
258,197,106178,1,8,0:0:0:0:
250,172,106272,1,8,0:0:0:0:
255,185,106366,1,8,0:0:0:0:
259,197,106553,1,0,0:0:0:0:
255,194,106835,1,8,0:0:0:0:
255,194,107210,1,0,0:0:0:0:
252,192,107491,1,0,0:0:0:0:
255,194,107772,1,12,0:0:0:0:
255,194,108147,1,8,0:0:0:0:
255,188,108335,1,8,0:0:0:0:
256,182,108428,1,0,0:0:0:0:
255,182,108522,1,0,0:0:0:0:
254,186,108616,1,0,0:0:0:0:
254,200,108710,1,8,0:0:0:0:
266,191,108897,1,0,0:0:0:0:
250,201,109085,1,8,0:0:0:0:
255,197,109272,1,8,0:0:0:0:
254,200,109460,1,0,0:0:0:0:
254,200,109647,1,0,0:0:0:0:
249,200,109741,1,0,0:0:0:0:
254,200,109928,1,0,0:0:0:0:
255,197,110022,1,0,0:0:0:0:
257,204,110116,1,0,0:0:0:0:
257,190,110303,1,0,0:0:0:0:
260,198,110491,1,0,0:0:0:0:
259,204,110678,1,0,0:0:0:0:
265,201,110866,1,0,0:0:0:0:
255,192,110960,1,8,0:0:0:0:
253,198,111710,1,8,0:0:0:0:
253,198,111897,1,8,0:0:0:0:
253,198,112085,1,0,0:0:0:0:
253,190,112272,1,0,0:0:0:0:
251,187,112366,1,0,0:0:0:0:
254,185,112460,1,12,0:0:0:0:
255,192,112647,1,0,0:0:0:0:
251,193,112741,1,8,0:0:0:0:
254,185,112835,1,8,0:0:0:0:
258,188,112928,1,0,0:0:0:0:
254,190,113116,1,0,0:0:0:0:
254,185,113303,1,8,0:0:0:0:
254,185,113397,1,8,0:0:0:0:
259,192,113491,1,8,0:0:0:0:
260,187,113585,1,0,0:0:0:0:
256,188,113772,1,0,0:0:0:0:
249,194,113960,1,0,0:0:0:0:
247,182,114241,1,8,0:0:0:0:
240,197,114428,1,8,0:0:0:0:
255,187,114616,1,8,0:0:0:0:
243,196,114897,1,0,0:0:0:0:
256,192,115085,1,8,0:0:0:0:
255,181,115272,1,8,0:0:0:0:
256,185,115460,1,0,0:0:0:0:
255,187,115553,1,0,0:0:0:0:
255,187,115647,1,8,0:0:0:0:
253,188,115741,1,8,0:0:0:0:
256,185,115928,1,0,0:0:0:0:
256,185,116210,1,0,0:0:0:0:
255,181,116303,1,0,0:0:0:0:
251,188,116397,1,0,0:0:0:0:
245,191,116491,1,8,0:0:0:0:
256,185,116960,1,0,0:0:0:0:
256,185,117241,1,0,0:0:0:0:
259,189,117522,1,0,0:0:0:0:
256,185,117710,1,0,0:0:0:0:
256,185,117897,1,8,0:0:0:0:
249,185,117991,1,0,0:0:0:0:
257,194,118178,1,8,0:0:0:0:
255,192,118272,1,0,0:0:0:0:
255,192,118366,1,0,0:0:0:0:
256,190,118460,1,8,0:0:0:0:
256,190,118835,1,0,0:0:0:0:
262,202,118928,1,0,0:0:0:0:
256,190,119022,1,0,0:0:0:0:
263,188,119210,1,8,0:0:0:0:
255,192,119303,1,8,0:0:0:0:
255,192,119397,1,0,0:0:0:0:
256,190,119491,1,8,0:0:0:0:
260,185,119679,1,8,0:0:0:0:
272,191,119866,1,0,0:0:0:0:
263,188,119960,1,8,0:0:0:0:
263,188,120241,1,0,0:0:0:0:
263,188,120522,1,8,0:0:0:0:
262,190,120803,1,0,0:0:0:0:
263,188,121085,1,8,0:0:0:0:
256,192,121460,1,0,0:0:0:0:
256,192,121741,1,8,0:0:0:0:
256,192,122022,1,0,0:0:0:0:
256,192,122210,1,8,0:0:0:0:
245,182,122303,1,8,0:0:0:0:
256,192,122397,1,0,0:0:0:0:
256,192,122491,1,0,0:0:0:0:
256,192,122772,1,0,0:0:0:0:
256,192,122960,1,4,0:0:0:0:
255,186,123241,1,12,0:0:0:0:
258,187,123522,1,12,0:0:0:0:
264,193,123803,1,12,0:0:0:0:
259,190,124085,1,4,0:0:0:0:
255,186,124272,1,0,0:0:0:0:
256,192,124460,1,12,0:0:0:0:
259,194,124647,1,0,0:0:0:0:
257,189,124741,1,8,0:0:0:0:
256,192,124835,1,8,0:0:0:0:
248,190,124928,1,0,0:0:0:0:
252,188,125116,1,0,0:0:0:0:
256,192,125303,1,8,0:0:0:0:
256,192,125397,1,8,0:0:0:0:
252,187,125491,1,8,0:0:0:0:
256,192,125585,1,0,0:0:0:0:
256,192,125772,1,0,0:0:0:0:
256,192,125960,1,0,0:0:0:0:
256,192,126241,1,8,0:0:0:0:
249,203,126428,1,8,0:0:0:0:
248,203,126616,1,8,0:0:0:0:
252,196,126897,1,0,0:0:0:0:
256,192,126991,1,0,0:0:0:0:
256,192,127085,1,8,0:0:0:0:
260,194,127272,1,8,0:0:0:0:
256,198,127460,1,0,0:0:0:0:
262,194,127553,1,0,0:0:0:0:
259,202,127647,1,8,0:0:0:0:
256,198,127741,1,8,0:0:0:0:
256,192,127928,1,0,0:0:0:0:
256,188,128210,1,0,0:0:0:0:
258,187,128303,1,0,0:0:0:0:
263,188,128397,1,0,0:0:0:0:
263,187,128491,1,8,0:0:0:0:
256,188,128960,1,0,0:0:0:0:
259,179,129241,1,0,0:0:0:0:
259,183,129522,1,0,0:0:0:0:
252,179,129710,1,0,0:0:0:0:
259,179,129897,1,0,0:0:0:0:
258,163,129991,1,0,0:0:0:0:
259,187,130178,1,8,0:0:0:0:
256,184,130272,1,0,0:0:0:0:
259,183,130366,1,0,0:0:0:0:
252,193,130460,1,8,0:0:0:0:
252,193,130835,1,0,0:0:0:0:
254,181,130928,1,0,0:0:0:0:
250,197,131022,1,8,0:0:0:0:
256,191,131116,1,0,0:0:0:0:
252,193,131210,1,8,0:0:0:0:
259,197,131397,1,8,0:0:0:0:
252,193,131491,1,8,0:0:0:0:
252,193,131585,1,0,0:0:0:0:
256,197,131772,1,0,0:0:0:0:
258,197,131960,1,8,0:0:0:0:
260,197,132241,1,0,0:0:0:0:
259,195,132522,1,8,0:0:0:0:
258,197,132803,1,0,0:0:0:0:
259,195,133085,1,8,0:0:0:0:
259,195,133460,1,0,0:0:0:0:
259,195,133835,1,12,0:0:0:0:
263,196,134585,1,0,0:0:0:0:
256,193,134960,1,12,0:0:0:0:
256,193,135241,1,12,0:0:0:0:
256,193,135522,1,12,0:0:0:0:
256,193,135710,1,8,0:0:0:0:
256,193,135803,1,0,0:0:0:0:
256,193,135897,1,8,0:0:0:0:
256,193,136085,1,0,0:0:0:0:
256,193,136178,1,8,0:0:0:0:
256,197,136272,1,0,0:0:0:0:
262,196,136366,1,0,0:0:0:0:
249,194,136460,1,12,0:0:0:0:
244,185,136835,1,0,0:0:0:0:
244,185,137022,1,0,0:0:0:0:
262,193,137116,1,0,0:0:0:0:
243,183,137210,1,8,0:0:0:0:
253,186,137397,1,8,0:0:0:0:
249,184,137585,1,8,0:0:0:0:
250,179,137678,1,8,0:0:0:0:
244,185,137772,1,8,0:0:0:0:
253,185,137960,1,0,0:0:0:0:
255,182,138147,1,0,0:0:0:0:
261,178,138241,1,8,0:0:0:0:
257,184,138335,1,0,0:0:0:0:
257,184,138522,1,0,0:0:0:0:
257,184,138616,1,0,0:0:0:0:
263,184,138710,1,8,0:0:0:0:
259,185,138897,1,8,0:0:0:0:
259,185,139085,1,0,0:0:0:0:
257,184,139272,1,8,0:0:0:0:
258,190,139460,1,0,0:0:0:0:
257,184,139647,1,8,0:0:0:0:
256,192,139835,1,0,0:0:0:0:
258,190,140022,1,0,0:0:0:0:
261,189,140116,1,0,0:0:0:0:
256,192,140210,1,8,0:0:0:0:
256,192,140585,1,8,0:0:0:0:
256,192,140772,1,0,0:0:0:0:
261,187,140960,1,8,0:0:0:0:
259,179,141147,1,0,0:0:0:0:
261,190,141241,1,8,0:0:0:0:
265,194,141428,1,0,0:0:0:0:
261,187,141710,1,8,0:0:0:0:
272,191,141897,1,0,0:0:0:0:
272,195,141991,1,8,0:0:0:0:
274,190,142178,1,0,0:0:0:0:
266,192,142272,1,0,0:0:0:0:
266,184,142460,1,8,0:0:0:0:
272,191,142835,1,0,0:0:0:0:
272,191,142928,1,0,0:0:0:0:
268,187,143022,1,0,0:0:0:0:
266,184,143210,1,8,0:0:0:0:
274,189,143397,1,0,0:0:0:0:
266,184,143491,1,8,0:0:0:0:
265,189,143678,1,8,0:0:0:0:
266,184,143866,1,0,0:0:0:0:
262,184,143960,1,8,0:0:0:0:
266,184,144241,1,0,0:0:0:0:
261,189,144428,1,0,0:0:0:0:
266,184,144522,1,0,0:0:0:0:
266,184,144616,1,8,0:0:0:0:
269,180,144897,1,0,0:0:0:0:
266,184,145085,1,8,0:0:0:0:
270,201,145178,1,8,0:0:0:0:
266,184,145272,1,8,0:0:0:0:
268,187,145460,1,0,0:0:0:0:
280,193,145835,1,0,0:0:0:0:
278,193,146022,1,0,0:0:0:0:
277,201,146116,1,0,0:0:0:0:
280,193,146210,1,8,0:0:0:0:
281,192,146397,1,0,0:0:0:0:
271,184,146585,1,8,0:0:0:0:
261,190,146960,1,0,0:0:0:0:
258,186,147241,1,0,0:0:0:0:
255,187,147522,1,0,0:0:0:0:
257,178,147803,1,0,0:0:0:0:
255,187,148085,1,0,0:0:0:0:
260,177,148272,1,0,0:0:0:0:
255,187,148366,1,0,0:0:0:0:
253,193,148460,1,12,0:0:0:0:
256,195,154460,5,8,0:0:0:0:
255,193,157460,5,0,0:0:0:0:
256,200,157835,1,12,0:0:0:0:
256,200,158585,1,0,0:0:0:0:
256,193,158960,1,12,0:0:0:0:
256,192,159241,1,12,0:0:0:0:
256,200,159522,1,12,0:0:0:0:
256,193,159710,1,12,0:0:0:0:
256,193,159991,1,12,0:0:0:0:
265,192,160272,1,12,0:0:0:0:
265,209,160460,1,0,0:0:0:0:
265,197,160647,1,0,0:0:0:0:
261,204,160835,1,12,0:0:0:0:
