osu file format v14

[General]
AudioFilename: audio.mp3
AudioLeadIn: 0
PreviewTime: 46983
Countdown: 0
SampleSet: Normal
StackLeniency: 0
Mode: 1
LetterboxInBreaks: 0
EpilepsyWarning: 1
WidescreenStoryboard: 0

[Editor]
DistanceSpacing: 3.1
BeatDivisor: 4
GridSize: 32
TimelineZoom: 2.8

[Metadata]
Title:Baka Tsuushin (feat. Chis-A)
TitleUnicode:バカ通信(feat. 知声)
Artist:isonosuke
ArtistUnicode:isonosuke
Creator:Skidooskei
Version:Inner Oni
Source:
Tags:chiptune electronic japanese vocaloid chisei party people stupid communication idiotic transaction transmission internet wifi gaming gamers memes social media computer carnival
BeatmapID:4352096
BeatmapSetID:1998016

[Difficulty]
HPDrainRate:5.5
CircleSize:2
OverallDifficulty:6
ApproachRate:9
SliderMultiplier:1.4
SliderTickRate:1

[Events]
//Background and Video events
Video,0,"stupidcommunication.mp4"
0,0,"partypeopleinner.jpg",0,-30
//Break Periods
//Storyboard Layer 0 (Background)
//Storyboard Layer 1 (Fail)
//Storyboard Layer 2 (Pass)
//Storyboard Layer 3 (Foreground)
//Storyboard Layer 4 (Overlay)
//Storyboard Sound Samples

[TimingPoints]
46,250,4,1,0,80,1,8
46,-125,4,1,0,80,0,0
1046,250,4,1,0,80,1,0
1046,-71.4285714285714,4,1,0,80,0,0
1287,-100,4,1,0,80,0,0
1412,-105.263157894737,4,1,0,80,0,0
1474,-108.084738434933,4,1,0,80,0,0
1537,-111.111111111111,4,1,0,80,0,0
1662,-117.647058823529,4,1,0,80,0,0
1787,-125,4,1,0,80,0,0
1915,-105.263157894737,4,1,0,80,0,0
2040,-125,4,1,0,80,0,0
2165,-105.263157894737,4,1,0,80,0,0
2296,-108.108108108108,4,1,0,80,0,0
2421,-105.263157894737,4,1,0,80,0,0
2665,-125,4,1,0,80,0,0
3040,-71.4285714285714,4,1,0,80,0,0
3287,-100,4,1,0,80,0,0
3412,-105.263157894737,4,1,0,80,0,0
3474,-108.084738434933,4,1,0,80,0,0
3537,-111.111111111111,4,1,0,80,0,0
3662,-117.647058823529,4,1,0,80,0,0
3787,-125,4,1,0,80,0,0
3915,-105.263157894737,4,1,0,80,0,0
4040,-125,4,1,0,80,0,0
4165,-105.263157894737,4,1,0,80,0,0
4662,-125,4,1,0,80,0,0
4787,-120.004800192008,4,1,0,80,0,0
4912,-115.380177685474,4,1,0,80,0,0
4974,-113.224637681159,4,1,0,80,0,0
5037,-111.111111111111,4,1,0,80,0,0
5290,-125,4,1,0,70,0,0
6040,-125,4,1,0,80,0,0
6287,-119.402985074627,4,1,0,80,0,0
6412,-116.795141322121,4,1,0,80,0,0
6662,-111.881852763482,4,1,0,80,0,0
6787,-109.58904109589,4,1,0,80,0,0
6912,-107.376785139053,4,1,0,80,0,0
7046,250,4,1,0,80,1,0
7046,-105.263157894737,4,1,0,80,0,0
10662,-109.58904109589,4,1,0,80,0,0
10787,-114.285714285714,4,1,0,80,0,0
10849,-116.767865483419,4,1,0,80,0,0
10912,-119.402985074627,4,1,0,80,0,0
10974,-122.115032360484,4,1,0,80,0,0
11037,-125,4,1,0,80,0,0
11162,-125,4,1,0,65,0,0
11287,-119.402985074627,4,1,0,65,0,0
11537,-114.285714285714,4,1,0,65,0,0
11787,-109.58904109589,4,1,0,65,0,0
12037,-105.263157894737,4,1,0,85,0,0
12162,-103.220478943022,4,1,0,85,0,0
12287,-101.26582278481,4,1,0,85,0,0
12412,-99.3739441518434,4,1,0,85,0,0
12537,-97.5609756097561,4,1,0,85,0,0
12599,-96.6837474620516,4,1,0,85,0,0
12662,-95.8037938302357,4,1,0,85,0,0
12724,-94.9577438040072,4,1,0,85,0,0
12787,-94.1176470588235,4,1,0,85,0,0
12849,-93.3009889904833,4,1,0,85,0,0
12912,-92.4812725423102,4,1,0,85,0,0
12974,-91.6926462497708,4,1,0,85,0,0
13037,-90.9090909090909,4,1,0,85,0,0
13290,-100,4,1,0,85,0,0
13415,-90.9090909090909,4,1,0,85,0,0
13665,-100,4,1,0,85,0,0
13915,-125,4,1,0,75,0,0
14790,-90.9090909090909,4,1,0,75,0,0
15040,-111.111111111111,4,1,0,75,0,0
20662,-109.58904109589,4,1,0,75,0,0
20724,-108.849461195167,4,1,0,75,0,0
20787,-108.108108108108,4,1,0,75,0,0
20912,-106.666666666667,4,1,0,75,0,0
20974,-105.965878986966,4,1,0,75,0,0
21037,-105.263157894737,4,1,0,75,0,0
21287,-111.111111111111,4,1,0,80,0,0
21412,-108.695652173913,4,1,0,80,0,0
21537,-106.382978723404,4,1,0,80,0,0
21599,-105.27423939362,4,1,0,80,0,0
21662,-104.166666666667,4,1,0,80,0,0
21787,-102.040816326531,4,1,0,80,0,0
21849,-101.020305081321,4,1,0,80,0,0
21912,-100,4,1,0,80,0,0
22037,-98.0392156862745,4,1,0,85,0,0
22162,-96.1538461538462,4,1,0,85,0,0
22287,-94.3396226415095,4,1,0,85,0,0
22412,-92.5925925925926,4,1,0,85,0,0
22537,-90.9090909090909,4,1,0,85,0,0
22662,-95.2380952380953,4,1,0,85,0,0
22724,-97.5419430355053,4,1,0,85,0,0
22787,-100,4,1,0,85,0,0
22912,-105.263157894737,4,1,0,85,0,0
23037,-111.111111111111,4,1,0,75,0,0
28037,-100,4,1,0,75,0,0
28099,-102.543068088597,4,1,0,75,0,0
28162,-105.263157894737,4,1,0,75,0,0
28224,-108.084738434933,4,1,0,75,0,0
28287,-111.111111111111,4,1,0,75,0,0
28412,-100,4,1,0,75,0,0
28474,-101.510475881111,4,1,0,75,0,0
28537,-103.092783505155,4,1,0,75,0,0
28662,-106.382978723404,4,1,0,75,0,0
28787,-109.89010989011,4,1,0,75,0,0
28912,-113.636363636364,4,1,0,75,0,0
28974,-115.590900684298,4,1,0,75,0,0
29037,-117.647058823529,4,1,0,75,0,0
29165,-142.857142857143,4,1,0,75,0,0
30790,-83.3333333333333,4,1,0,75,0,0
31040,-100,4,1,0,65,0,0
38537,-102.564102564103,4,1,0,65,0,0
38662,-105.263157894737,4,1,0,65,0,0
38787,-108.108108108108,4,1,0,65,0,0
38912,-111.111111111111,4,1,0,65,0,0
39040,-95.2380952380953,4,1,0,75,0,0
43287,-142.857142857143,4,1,0,60,0,0
43412,-136.593361562628,4,1,0,60,0,0
43537,-130.8386759126,4,1,0,60,0,0
43662,-125.565042692115,4,1,0,60,0,0
43787,-120.685493603669,4,1,0,60,0,0
43912,-116.184500987568,4,1,0,60,0,0
44037,-111.994624258036,4,1,0,60,0,0
44099,-110.035211267606,4,1,0,60,0,0
44162,-108.108108108108,4,1,0,60,0,0
44287,-104.482290251802,4,1,0,60,0,0
44349,-102.764361319494,4,1,0,60,0,0
44412,-101.081572829273,4,1,0,60,0,0
44537,-97.9048364989231,4,1,0,60,0,0
44599,-96.3948332369385,4,1,0,60,0,0
44662,-94.9126803340926,4,1,0,60,0,0
44724,-93.5016362786349,4,1,0,60,0,0
44787,-92.1064750851985,4,1,0,60,0,0
44849,-90.7688118362531,4,1,0,60,0,0
44912,-89.4534394847482,4,1,0,60,0,0
44974,-88.1989768918681,4,1,0,60,0,0
45037,-86.9565217391304,4,1,0,85,0,0
45415,-89.2857142857143,4,1,0,85,0,0
45540,-86.9565217391304,4,1,0,85,0,0
45665,-89.2857142857143,4,1,0,85,0,0
45790,-86.9565217391304,4,1,0,85,0,0
45915,-89.2857142857143,4,1,0,85,0,0
46040,-86.9565217391304,4,1,0,85,0,0
46287,-125,4,1,0,65,0,0
46370,-122.458976242959,4,1,0,65,0,0
46453,-120.019203072492,4,1,0,65,0,0
46537,-117.647058823529,4,1,0,65,0,0
46790,-80,4,1,0,80,0,0
47046,-100,4,1,0,80,0,1
53162,-99.3739441518434,4,1,0,80,0,1
53287,-98.7654320987654,4,1,0,80,0,1
53537,-97.5609756097561,4,1,0,80,0,1
53662,-96.9649956365752,4,1,0,80,0,1
53787,-96.3855421686747,4,1,0,80,0,1
53912,-95.8037938302357,4,1,0,80,0,1
54037,-95.2380952380953,4,1,0,80,0,1
54162,-94.6700747893591,4,1,0,80,0,1
54287,-94.1176470588235,4,1,0,80,0,1
54412,-93.562874251497,4,1,0,80,0,1
54537,-93.0232558139535,4,1,0,80,0,1
54662,-92.4812725423102,4,1,0,80,0,1
54787,-91.9540229885058,4,1,0,80,0,1
54849,-91.6926462497708,4,1,0,80,0,1
54912,-91.424392027793,4,1,0,80,0,1
54974,-91.1660133102379,4,1,0,80,0,1
55037,-90.9090909090909,4,1,0,80,0,1
55290,-100,4,1,0,80,0,1
58849,-97.5800156128025,4,1,0,80,0,1
58912,-95.2380952380953,4,1,0,80,0,1
58974,-93.0405656866394,4,1,0,80,0,1
59046,-90.9090909090909,4,1,0,80,0,0
59290,-125,4,1,0,70,0,0
60040,-125,4,1,0,80,0,0
60287,-119.402985074627,4,1,0,80,0,0
60412,-116.795141322121,4,1,0,80,0,0
60662,-111.881852763482,4,1,0,80,0,0
60787,-109.58904109589,4,1,0,80,0,0
60912,-107.376785139053,4,1,0,80,0,0
61046,250,4,1,0,80,1,0
61046,-105.263157894737,4,1,0,80,0,0
64662,-109.58904109589,4,1,0,80,0,0
64787,-114.285714285714,4,1,0,80,0,0
64849,-116.767865483419,4,1,0,80,0,0
64912,-119.402985074627,4,1,0,80,0,0
64974,-122.115032360484,4,1,0,80,0,0
65037,-125,4,1,0,80,0,0
65162,-125,4,1,0,65,0,0
65287,-119.402985074627,4,1,0,65,0,0
65537,-114.285714285714,4,1,0,65,0,0
65787,-109.58904109589,4,1,0,65,0,0
66037,-105.263157894737,4,1,0,85,0,0
66162,-103.220478943022,4,1,0,85,0,0
66287,-101.26582278481,4,1,0,85,0,0
66412,-99.3739441518434,4,1,0,85,0,0
66537,-97.5609756097561,4,1,0,85,0,0
66599,-96.6837474620516,4,1,0,85,0,0
66662,-95.8037938302357,4,1,0,85,0,0
66724,-94.9577438040072,4,1,0,85,0,0
66787,-94.1176470588235,4,1,0,85,0,0
66849,-93.3009889904833,4,1,0,85,0,0
66912,-92.4812725423102,4,1,0,85,0,0
66974,-91.6926462497708,4,1,0,85,0,0
67037,-90.9090909090909,4,1,0,85,0,0
67290,-100,4,1,0,85,0,0
67415,-90.9090909090909,4,1,0,85,0,0
67665,-100,4,1,0,85,0,0
67915,-125,4,1,0,75,0,0
67980,-126.569461320373,4,1,0,75,0,0
68043,-128.205128205128,4,1,0,75,0,0
68168,-131.578947368421,4,1,0,75,0,0
68230,-133.319112627986,4,1,0,75,0,0
68293,-135.135135135135,4,1,0,75,0,0
68418,-138.888888888889,4,1,0,75,0,0
68480,-140.829202343398,4,1,0,75,0,0
68543,-142.857142857143,4,1,0,75,0,0
68790,-125,4,1,0,75,0,0
69040,-142.857142857143,4,1,0,65,0,0
74412,-125.992188484314,4,1,0,75,0,0
74474,-123.578843302027,4,1,0,75,0,0
74537,-121.212121212121,4,1,0,75,0,0
74662,-116.795141322121,4,1,0,75,0,0
74787,-112.676056338028,4,1,0,75,0,0
74912,-108.837614279495,4,1,0,75,0,0
75037,-105.263157894737,4,1,0,75,0,0
75287,-111.111111111111,4,1,0,80,0,0
75412,-108.695652173913,4,1,0,80,0,0
75537,-106.382978723404,4,1,0,80,0,0
75599,-105.27423939362,4,1,0,80,0,0
75662,-104.166666666667,4,1,0,80,0,0
75787,-102.040816326531,4,1,0,80,0,0
75849,-101.020305081321,4,1,0,80,0,0
75912,-100,4,1,0,80,0,0
76037,-98.0392156862745,4,1,0,85,0,0
76162,-96.1538461538462,4,1,0,85,0,0
76287,-94.3396226415095,4,1,0,85,0,0
76412,-92.5925925925926,4,1,0,85,0,0
76537,-90.9090909090909,4,1,0,85,0,0
76662,-95.2380952380953,4,1,0,85,0,0
76724,-97.5419430355053,4,1,0,85,0,0
76787,-100,4,1,0,85,0,0
76912,-105.263157894737,4,1,0,85,0,0
77037,-111.111111111111,4,1,0,75,0,0
82037,-100,4,1,0,75,0,0
82099,-100.623867981485,4,1,0,75,0,0
82162,-101.26582278481,4,1,0,75,0,0
82224,-101.905635381637,4,1,0,75,0,0
82287,-102.564102564103,4,1,0,75,0,0
82412,-103.896103896104,4,1,0,75,0,0
82537,-105.263157894737,4,1,0,75,0,0
82662,-106.666666666667,4,1,0,75,0,0
82787,-108.108108108108,4,1,0,75,0,0
82912,-109.58904109589,4,1,0,75,0,0
82974,-110.33873993159,4,1,0,75,0,0
83037,-111.111111111111,4,1,0,75,0,0
83165,-142.857142857143,4,1,0,75,0,0
84790,-83.3333333333333,4,1,0,75,0,0
85040,-100,4,1,0,65,0,0
92537,-102.564102564103,4,1,0,65,0,0
92662,-105.263157894737,4,1,0,65,0,0
92787,-108.108108108108,4,1,0,65,0,0
92912,-111.111111111111,4,1,0,65,0,0
93040,-95.2380952380953,4,1,0,75,0,0
97287,-142.857142857143,4,1,0,60,0,0
97412,-136.593361562628,4,1,0,60,0,0
97537,-130.8386759126,4,1,0,60,0,0
97662,-125.565042692115,4,1,0,60,0,0
97787,-120.685493603669,4,1,0,60,0,0
97912,-116.184500987568,4,1,0,60,0,0
98037,-111.994624258036,4,1,0,60,0,0
98099,-110.035211267606,4,1,0,60,0,0
98162,-108.108108108108,4,1,0,60,0,0
98287,-104.482290251802,4,1,0,60,0,0
98349,-102.764361319494,4,1,0,60,0,0
98412,-101.081572829273,4,1,0,60,0,0
98537,-97.9048364989231,4,1,0,60,0,0
98599,-96.3948332369385,4,1,0,60,0,0
98662,-94.9126803340926,4,1,0,60,0,0
98724,-93.5016362786349,4,1,0,60,0,0
98787,-92.1064750851985,4,1,0,60,0,0
98849,-90.7688118362531,4,1,0,60,0,0
98912,-89.4534394847482,4,1,0,60,0,0
98974,-88.1989768918681,4,1,0,60,0,0
99037,-86.9565217391304,4,1,0,70,0,0
99287,-92.7127758205081,4,1,0,70,0,0
99412,-95.8864704190239,4,1,0,70,0,0
99537,-99.2950054612253,4,1,0,70,0,0
99662,-102.944204241301,4,1,0,70,0,0
99787,-106.871860639094,4,1,0,70,0,0
99912,-111.111111111111,4,1,0,70,0,0
100040,-86.9565217391304,4,1,0,70,0,0
100287,-125,4,1,0,65,0,0
100370,-122.458976242959,4,1,0,65,0,0
100453,-120.019203072492,4,1,0,65,0,0
100537,-117.647058823529,4,1,0,65,0,0
101040,-71.4285714285714,4,1,0,80,0,0
101287,-100,4,1,0,80,0,0
101412,-105.263157894737,4,1,0,80,0,0
101474,-108.084738434933,4,1,0,80,0,0
101537,-111.111111111111,4,1,0,80,0,0
101662,-117.647058823529,4,1,0,80,0,0
101787,-125,4,1,0,80,0,0
101915,-105.263157894737,4,1,0,80,0,0
102040,-125,4,1,0,80,0,0
102165,-105.263157894737,4,1,0,80,0,0
102296,-108.108108108108,4,1,0,80,0,0
102421,-105.263157894737,4,1,0,80,0,0
102665,-125,4,1,0,80,0,0
103040,-71.4285714285714,4,1,0,80,0,0
103287,-100,4,1,0,80,0,0
103412,-105.263157894737,4,1,0,80,0,0
103474,-108.084738434933,4,1,0,80,0,0
103537,-111.111111111111,4,1,0,80,0,0
103662,-117.647058823529,4,1,0,80,0,0
103787,-125,4,1,0,80,0,0
103915,-105.263157894737,4,1,0,80,0,0
104040,-125,4,1,0,80,0,0
104165,-105.263157894737,4,1,0,80,0,0
104662,-125,4,1,0,80,0,0
104787,-120.004800192008,4,1,0,80,0,0
104912,-115.380177685474,4,1,0,80,0,0
104974,-113.224637681159,4,1,0,80,0,0
105037,-111.111111111111,4,1,0,80,0,0
105290,-125,4,1,0,70,0,0
106040,-125,4,1,0,75,0,0
106162,-119.402985074627,4,1,0,75,0,0
106287,-114.285714285714,4,1,0,75,0,0
106412,-109.58904109589,4,1,0,75,0,0
106537,-105.263157894737,4,1,0,75,0,0
106662,-101.26582278481,4,1,0,75,0,0
106724,-99.3936984395189,4,1,0,75,0,0
106787,-97.5609756097561,4,1,0,75,0,0
106912,-94.1176470588235,4,1,0,75,0,0
107037,-90.9090909090909,4,1,0,80,0,0
107290,-86.9565217391304,4,1,0,80,0,0
107665,-89.2857142857143,4,1,0,80,0,0
107790,-86.9565217391304,4,1,0,80,0,0
108165,-89.2857142857143,4,1,0,80,0,0
108290,-86.9565217391304,4,1,0,80,0,0
108415,-89.2857142857143,4,1,0,80,0,0
108540,-86.9565217391304,4,1,0,80,0,0
108665,-89.2857142857143,4,1,0,80,0,0
108790,-86.9565217391304,4,1,0,80,0,0
109046,-100,4,1,0,80,0,1
115287,-98.7654320987654,4,1,0,80,0,1
115349,-98.4639621898385,4,1,0,80,0,1
115412,-98.159509202454,4,1,0,80,0,1
115537,-97.5609756097561,4,1,0,80,0,1
115599,-97.2668028401906,4,1,0,80,0,1
115662,-96.969696969697,4,1,0,80,0,1
115787,-96.3855421686747,4,1,0,80,0,1
115849,-96.0984047664809,4,1,0,80,0,1
115912,-95.8083832335329,4,1,0,80,0,1
115974,-95.5246692458327,4,1,0,80,0,1
116037,-95.2380952380952,4,1,0,80,0,1
116162,-94.6745562130177,4,1,0,80,0,1
116287,-94.1176470588235,4,1,0,80,0,1
116349,-93.8438438438438,4,1,0,80,0,1
116412,-93.5672514619883,4,1,0,80,0,1
116537,-93.0232558139535,4,1,0,80,0,1
116599,-92.7557740469344,4,1,0,80,0,1
116662,-92.485549132948,4,1,0,80,0,1
116724,-92.2211463088486,4,1,0,80,0,1
116787,-91.9540229885057,4,1,0,80,0,1
116912,-91.4285714285714,4,1,0,80,0,1
117037,-90.9090909090909,4,1,0,80,0,1
117290,-100,4,1,0,80,0,1
123162,-99.3739441518434,4,1,0,80,0,1
123287,-98.7654320987654,4,1,0,80,0,1
123537,-97.5609756097561,4,1,0,80,0,1
123662,-96.9649956365752,4,1,0,80,0,1
123787,-96.3855421686747,4,1,0,80,0,1
123912,-95.8037938302357,4,1,0,80,0,1
124037,-95.2380952380953,4,1,0,80,0,1
124162,-94.6700747893591,4,1,0,80,0,1
124287,-94.1176470588235,4,1,0,80,0,1
124412,-93.562874251497,4,1,0,80,0,1
124537,-93.0232558139535,4,1,0,80,0,1
124662,-92.4812725423102,4,1,0,80,0,1
124787,-91.9540229885058,4,1,0,80,0,1
124849,-91.6926462497708,4,1,0,80,0,1
124912,-91.424392027793,4,1,0,80,0,1
124974,-91.1660133102379,4,1,0,80,0,1
125037,-90.9090909090909,4,1,0,85,0,1
125290,-95.2380952380953,4,1,0,85,0,1
128724,-93.764650726676,4,1,0,85,0,1
128787,-92.3105326317733,4,1,0,85,0,1
128849,-90.917356123284,4,1,0,85,0,1
128912,-89.5495656846064,4,1,0,85,0,1
128974,-88.2456759618779,4,1,0,85,0,1
129046,-86.9565217391304,4,1,0,85,0,0
129290,-125,4,1,0,70,0,0
130040,-125,4,1,0,80,0,0
130287,-119.402985074627,4,1,0,80,0,0
130412,-116.795141322121,4,1,0,80,0,0
130662,-111.881852763482,4,1,0,80,0,0
130787,-109.58904109589,4,1,0,80,0,0
130912,-107.376785139053,4,1,0,80,0,0
131037,-105.263157894737,4,1,0,80,0,0
131540,-107.52688172043,4,1,0,80,0,0
131790,-105.263157894737,4,1,0,80,0,0
132040,-107.52688172043,4,1,0,80,0,0
132290,-105.263157894737,4,1,0,80,0,0
132540,-107.52688172043,4,1,0,80,0,0
132790,-105.263157894737,4,1,0,80,0,0
132915,-107.52688172043,4,1,0,80,0,0
133040,-105.263157894737,4,1,0,80,0,0
133171,-105.263157894737,4,1,0,70,0,0
134037,-83.3333333333333,4,1,0,70,0,0
134540,-105.263157894737,4,1,0,70,0,0
135037,-142.857142857143,4,1,0,60,0,0
135287,-136.742786817995,4,1,0,60,0,0
135537,-131.147540983607,4,1,0,60,0,0
135787,-125.992188484314,4,1,0,60,0,0
136037,-121.212121212121,4,1,0,60,0,0
136162,-118.962645729241,4,1,0,60,0,0
136287,-116.795141322121,4,1,0,65,0,0
136412,-114.692051840807,4,1,0,65,0,0
136537,-112.676056338028,4,1,0,70,0,0
136662,-110.729708780866,4,1,0,70,0,0
136787,-108.837614279495,4,1,0,75,0,0
136849,-107.933081489477,4,1,0,75,0,0
136912,-107.020547945205,4,1,0,75,0,0
137037,-105.263157894737,4,1,0,80,0,0
140662,-109.58904109589,4,1,0,80,0,0
140787,-114.285714285714,4,1,0,80,0,0
140849,-116.767865483419,4,1,0,80,0,0
140912,-119.402985074627,4,1,0,80,0,0
140974,-122.115032360484,4,1,0,80,0,0
141037,-125,4,1,0,80,0,0
141162,-125,4,1,0,65,0,0
141287,-119.402985074627,4,1,0,65,0,0
141537,-114.285714285714,4,1,0,65,0,0
141787,-109.58904109589,4,1,0,65,0,0
142037,-105.263157894737,4,1,0,85,0,0
142162,-103.220478943022,4,1,0,85,0,0
142287,-101.26582278481,4,1,0,85,0,0
142412,-99.3739441518434,4,1,0,85,0,0
142537,-97.5609756097561,4,1,0,85,0,0
142599,-96.6837474620516,4,1,0,85,0,0
142662,-95.8037938302357,4,1,0,85,0,0
142724,-94.9577438040072,4,1,0,85,0,0
142787,-94.1176470588235,4,1,0,85,0,0
142849,-93.3009889904833,4,1,0,85,0,0
142912,-92.4812725423102,4,1,0,85,0,0
142974,-91.6926462497708,4,1,0,85,0,0
143037,-90.9090909090909,4,1,0,85,0,0
143290,-100,4,1,0,85,0,0
143415,-90.9090909090909,4,1,0,85,0,0
143665,-100,4,1,0,85,0,0
143915,-125,4,1,0,75,0,0
144790,-142.857142857143,4,1,0,75,0,0
145040,-166.666666666667,4,1,0,70,0,0
145915,-71.4285714285714,4,1,0,85,0,0

[HitObjects]
256,192,1046,5,12,0:0:0:0:
256,192,1296,1,0,0:0:0:0:
256,192,1421,1,8,0:0:0:0:
256,192,1483,1,8,0:0:0:0:
256,192,1546,1,8,0:0:0:0:
256,192,1671,1,0,0:0:0:0:
256,192,1796,1,0,0:0:0:0:
256,192,1921,1,12,0:0:0:0:
256,192,2171,1,12,0:0:0:0:
256,192,2296,1,0,0:0:0:0:
256,192,2421,1,12,0:0:0:0:
256,192,2671,1,0,0:0:0:0:
256,192,2733,1,8,0:0:0:0:
256,192,2796,1,8,0:0:0:0:
256,192,2921,1,8,0:0:0:0:
256,192,3046,1,4,0:0:0:0:
256,192,3296,1,8,0:0:0:0:
256,192,3421,1,0,0:0:0:0:
256,192,3483,1,0,0:0:0:0:
256,192,3546,1,0,0:0:0:0:
256,192,3671,1,8,0:0:0:0:
256,192,3796,1,0,0:0:0:0:
256,192,3921,1,12,0:0:0:0:
256,192,4171,1,4,0:0:0:0:
256,192,4421,1,12,0:0:0:0:
256,192,4671,1,0,0:0:0:0:
256,192,4796,1,8,0:0:0:0:
256,192,4921,1,8,0:0:0:0:
256,192,4983,1,8,0:0:0:0:
256,192,5046,1,4,0:0:0:0:
256,192,5296,1,8,0:0:0:0:
256,192,5546,1,8,0:0:0:0:
256,192,5796,1,8,0:0:0:0:
256,192,5921,1,8,0:0:0:0:
256,192,6046,1,4,0:0:0:0:
256,192,6296,1,8,0:0:0:0:
256,192,6421,1,4,0:0:0:0:
256,192,6671,1,8,0:0:0:0:
256,192,6796,1,0,0:0:0:0:
256,192,6921,1,8,0:0:0:0:
256,192,7046,1,4,0:0:0:0:
256,192,7171,1,8,0:0:0:0:
256,192,7296,1,0,0:0:0:0:
256,192,7358,1,0,0:0:0:0:
256,192,7421,1,0,0:0:0:0:
256,192,7546,1,8,0:0:0:0:
256,192,7608,1,8,0:0:0:0:
256,192,7671,1,8,0:0:0:0:
256,192,7796,1,0,0:0:0:0:
256,192,7921,1,8,0:0:0:0:
256,192,8171,1,8,0:0:0:0:
256,192,8296,1,8,0:0:0:0:
256,192,8358,1,8,0:0:0:0:
256,192,8421,1,0,0:0:0:0:
256,192,8546,1,0,0:0:0:0:
256,192,8608,1,0,0:0:0:0:
256,192,8671,1,8,0:0:0:0:
256,192,8796,1,0,0:0:0:0:
256,192,8921,1,8,0:0:0:0:
256,192,9046,1,0,0:0:0:0:
256,192,9296,1,0,0:0:0:0:
256,192,9358,1,0,0:0:0:0:
256,192,9421,1,0,0:0:0:0:
256,192,9546,1,8,0:0:0:0:
256,192,9608,1,8,0:0:0:0:
256,192,9671,1,8,0:0:0:0:
256,192,9796,1,0,0:0:0:0:
256,192,9921,1,8,0:0:0:0:
256,192,9983,1,8,0:0:0:0:
256,192,10046,1,0,0:0:0:0:
256,192,10171,1,8,0:0:0:0:
256,192,10296,1,0,0:0:0:0:
256,192,10358,1,0,0:0:0:0:
256,192,10421,1,8,0:0:0:0:
256,192,10483,1,8,0:0:0:0:
256,192,10546,1,0,0:0:0:0:
256,192,10671,1,0,0:0:0:0:
256,192,10796,1,8,0:0:0:0:
256,192,10858,1,8,0:0:0:0:
256,192,10921,1,8,0:0:0:0:
256,192,10983,1,8,0:0:0:0:
256,192,11046,1,4,0:0:0:0:
256,192,11296,1,0,0:0:0:0:
256,192,11546,1,0,0:0:0:0:
256,192,11796,1,0,0:0:0:0:
256,192,12046,1,8,0:0:0:0:
256,192,12171,1,0,0:0:0:0:
256,192,12296,1,8,0:0:0:0:
256,192,12421,1,0,0:0:0:0:
256,192,12546,1,8,0:0:0:0:
256,192,12608,1,0,0:0:0:0:
256,192,12671,1,8,0:0:0:0:
256,192,12733,1,8,0:0:0:0:
256,192,12796,1,0,0:0:0:0:
256,192,12858,1,8,0:0:0:0:
256,192,12921,1,0,0:0:0:0:
256,192,12983,1,0,0:0:0:0:
256,192,13046,1,12,0:0:0:0:
256,192,13296,1,0,0:0:0:0:
256,192,13421,1,12,0:0:0:0:
256,192,13671,1,12,0:0:0:0:
256,192,13921,1,0,0:0:0:0:
256,192,13983,1,8,0:0:0:0:
256,192,14046,1,0,0:0:0:0:
256,192,14171,1,8,0:0:0:0:
256,192,14233,1,8,0:0:0:0:
256,192,14296,1,0,0:0:0:0:
256,192,14421,1,8,0:0:0:0:
256,192,14483,1,0,0:0:0:0:
256,192,14546,1,8,0:0:0:0:
256,192,14796,1,12,0:0:0:0:
256,192,15046,1,0,0:0:0:0:
256,192,15171,1,0,0:0:0:0:
256,192,15296,1,8,0:0:0:0:
256,192,15421,1,0,0:0:0:0:
256,192,15546,1,8,0:0:0:0:
256,192,15608,1,8,0:0:0:0:
256,192,15671,1,8,0:0:0:0:
256,192,15796,1,0,0:0:0:0:
256,192,15921,1,8,0:0:0:0:
256,192,16046,1,8,0:0:0:0:
256,192,16171,1,0,0:0:0:0:
256,192,16296,1,8,0:0:0:0:
256,192,16358,1,8,0:0:0:0:
256,192,16421,1,8,0:0:0:0:
256,192,16546,1,0,0:0:0:0:
256,192,16671,1,8,0:0:0:0:
256,192,16796,1,0,0:0:0:0:
256,192,16921,1,0,0:0:0:0:
256,192,17046,1,8,0:0:0:0:
256,192,17108,1,8,0:0:0:0:
256,192,17171,1,8,0:0:0:0:
256,192,17296,1,0,0:0:0:0:
256,192,17421,1,0,0:0:0:0:
256,192,17546,1,8,0:0:0:0:
256,192,17671,1,0,0:0:0:0:
256,192,17796,1,8,0:0:0:0:
256,192,17921,1,8,0:0:0:0:
256,192,18046,1,0,0:0:0:0:
256,192,18171,1,0,0:0:0:0:
256,192,18296,1,8,0:0:0:0:
256,192,18421,1,8,0:0:0:0:
256,192,18546,1,4,0:0:0:0:
256,192,18796,1,12,0:0:0:0:
256,192,19046,1,8,0:0:0:0:
256,192,19171,1,0,0:0:0:0:
256,192,19296,1,0,0:0:0:0:
256,192,19421,1,8,0:0:0:0:
256,192,19546,1,8,0:0:0:0:
256,192,19671,1,0,0:0:0:0:
256,192,19796,1,0,0:0:0:0:
256,192,19921,1,0,0:0:0:0:
256,192,20046,1,8,0:0:0:0:
256,192,20171,1,0,0:0:0:0:
256,192,20296,1,8,0:0:0:0:
256,192,20421,1,0,0:0:0:0:
256,192,20546,1,8,0:0:0:0:
256,192,20671,1,0,0:0:0:0:
256,192,20733,1,8,0:0:0:0:
256,192,20796,1,0,0:0:0:0:
256,192,20921,1,8,0:0:0:0:
256,192,20983,1,0,0:0:0:0:
256,192,21046,1,8,0:0:0:0:
256,192,21296,1,8,0:0:0:0:
256,192,21421,1,0,0:0:0:0:
256,192,21546,1,8,0:0:0:0:
256,192,21608,1,0,0:0:0:0:
256,192,21671,1,0,0:0:0:0:
256,192,21796,1,8,0:0:0:0:
256,192,21858,1,8,0:0:0:0:
256,192,21921,1,0,0:0:0:0:
256,192,22046,1,12,0:0:0:0:
256,192,22296,1,12,0:0:0:0:
256,192,22421,1,4,0:0:0:0:
256,192,22546,1,12,0:0:0:0:
256,192,22671,1,0,0:0:0:0:
256,192,22733,1,0,0:0:0:0:
256,192,22796,1,0,0:0:0:0:
256,192,22921,1,8,0:0:0:0:
256,192,23046,1,4,0:0:0:0:
256,192,23296,1,8,0:0:0:0:
256,192,23421,1,0,0:0:0:0:
256,192,23546,1,8,0:0:0:0:
256,192,23608,1,8,0:0:0:0:
256,192,23671,1,0,0:0:0:0:
256,192,23796,1,8,0:0:0:0:
256,192,23921,1,0,0:0:0:0:
256,192,24046,1,8,0:0:0:0:
256,192,24108,1,8,0:0:0:0:
256,192,24171,1,8,0:0:0:0:
256,192,24296,1,0,0:0:0:0:
256,192,24421,1,8,0:0:0:0:
256,192,24483,1,8,0:0:0:0:
256,192,24546,1,0,0:0:0:0:
256,192,24608,1,0,0:0:0:0:
256,192,24671,1,8,0:0:0:0:
256,192,24796,1,0,0:0:0:0:
256,192,24858,1,0,0:0:0:0:
256,192,24921,1,0,0:0:0:0:
256,192,25046,1,8,0:0:0:0:
256,192,25296,1,8,0:0:0:0:
256,192,25421,1,0,0:0:0:0:
256,192,25546,1,8,0:0:0:0:
256,192,25671,1,8,0:0:0:0:
256,192,25796,1,8,0:0:0:0:
256,192,25921,1,0,0:0:0:0:
256,192,25983,1,0,0:0:0:0:
256,192,26046,1,0,0:0:0:0:
256,192,26171,1,8,0:0:0:0:
256,192,26233,1,8,0:0:0:0:
256,192,26296,1,0,0:0:0:0:
256,192,26421,1,8,0:0:0:0:
256,192,26546,1,0,0:0:0:0:
256,192,26608,1,0,0:0:0:0:
256,192,26671,1,8,0:0:0:0:
256,192,26796,1,8,0:0:0:0:
256,192,26921,1,0,0:0:0:0:
256,192,27171,1,8,0:0:0:0:
256,192,27233,1,0,0:0:0:0:
256,192,27296,1,8,0:0:0:0:
256,192,27358,1,8,0:0:0:0:
256,192,27421,1,0,0:0:0:0:
256,192,27546,1,8,0:0:0:0:
256,192,27671,1,0,0:0:0:0:
256,192,27796,1,8,0:0:0:0:
256,192,27921,1,8,0:0:0:0:
256,192,28046,1,0,0:0:0:0:
256,192,28108,1,0,0:0:0:0:
256,192,28171,1,8,0:0:0:0:
256,192,28233,1,8,0:0:0:0:
256,192,28296,1,0,0:0:0:0:
256,192,28421,1,8,0:0:0:0:
256,192,28483,1,0,0:0:0:0:
256,192,28546,1,8,0:0:0:0:
256,192,28671,1,0,0:0:0:0:
256,192,28796,1,8,0:0:0:0:
256,192,28921,1,8,0:0:0:0:
256,192,28983,1,8,0:0:0:0:
256,192,29046,1,4,0:0:0:0:
256,192,30671,1,0,0:0:0:0:
256,192,30796,1,12,0:0:0:0:
256,192,31046,1,12,0:0:0:0:
256,192,31171,1,0,0:0:0:0:
256,192,31296,1,8,0:0:0:0:
256,192,31421,1,8,0:0:0:0:
256,192,31546,1,0,0:0:0:0:
256,192,31671,1,0,0:0:0:0:
256,192,31796,1,8,0:0:0:0:
256,192,31921,1,0,0:0:0:0:
256,192,32046,1,8,0:0:0:0:
256,192,32171,1,0,0:0:0:0:
256,192,32296,1,8,0:0:0:0:
256,192,32421,1,8,0:0:0:0:
256,192,32546,1,0,0:0:0:0:
256,192,32796,1,8,0:0:0:0:
256,192,32921,1,0,0:0:0:0:
256,192,33046,1,8,0:0:0:0:
256,192,33171,1,8,0:0:0:0:
256,192,33296,1,0,0:0:0:0:
256,192,33421,1,0,0:0:0:0:
256,192,33546,1,8,0:0:0:0:
256,192,33671,1,0,0:0:0:0:
256,192,33921,1,0,0:0:0:0:
256,192,34046,1,8,0:0:0:0:
256,192,34171,1,0,0:0:0:0:
256,192,34296,1,0,0:0:0:0:
256,192,34421,1,8,0:0:0:0:
256,192,34546,1,8,0:0:0:0:
256,192,34796,1,0,0:0:0:0:
256,192,35046,1,8,0:0:0:0:
256,192,35171,1,0,0:0:0:0:
256,192,35296,1,0,0:0:0:0:
256,192,35421,1,0,0:0:0:0:
256,192,35546,1,8,0:0:0:0:
256,192,35671,1,0,0:0:0:0:
256,192,35796,1,8,0:0:0:0:
256,192,35921,1,8,0:0:0:0:
256,192,36046,1,0,0:0:0:0:
256,192,36171,1,0,0:0:0:0:
256,192,36296,1,8,0:0:0:0:
256,192,36421,1,8,0:0:0:0:
256,192,36546,1,0,0:0:0:0:
256,192,36671,1,8,0:0:0:0:
256,192,36796,1,0,0:0:0:0:
256,192,36921,1,8,0:0:0:0:
256,192,37046,1,0,0:0:0:0:
256,192,37171,1,0,0:0:0:0:
256,192,37296,1,8,0:0:0:0:
256,192,37421,1,8,0:0:0:0:
256,192,37546,1,0,0:0:0:0:
256,192,37796,1,8,0:0:0:0:
256,192,38046,1,0,0:0:0:0:
256,192,38171,1,0,0:0:0:0:
256,192,38421,1,8,0:0:0:0:
256,192,38546,1,0,0:0:0:0:
256,192,38671,1,8,0:0:0:0:
256,192,38796,1,0,0:0:0:0:
256,192,38921,1,0,0:0:0:0:
256,192,39046,1,12,0:0:0:0:
256,192,39296,1,8,0:0:0:0:
256,192,39421,1,8,0:0:0:0:
256,192,39546,1,0,0:0:0:0:
256,192,39671,1,0,0:0:0:0:
256,192,39796,1,8,0:0:0:0:
256,192,39921,1,0,0:0:0:0:
256,192,40046,1,12,0:0:0:0:
256,192,40296,1,0,0:0:0:0:
256,192,40421,1,8,0:0:0:0:
256,192,40671,1,0,0:0:0:0:
256,192,40796,1,8,0:0:0:0:
256,192,40921,1,8,0:0:0:0:
256,192,41046,1,4,0:0:0:0:
256,192,41296,1,8,0:0:0:0:
256,192,41421,1,8,0:0:0:0:
256,192,41546,1,0,0:0:0:0:
256,192,41671,1,8,0:0:0:0:
256,192,41796,1,8,0:0:0:0:
256,192,41921,1,8,0:0:0:0:
256,192,42046,1,4,0:0:0:0:
256,192,42296,1,8,0:0:0:0:
256,192,42421,1,0,0:0:0:0:
256,192,42546,1,8,0:0:0:0:
256,192,42671,1,0,0:0:0:0:
256,192,42796,1,8,0:0:0:0:
256,192,42921,1,8,0:0:0:0:
256,192,42983,1,8,0:0:0:0:
256,192,43046,1,8,0:0:0:0:
256,192,43296,1,8,0:0:0:0:
256,192,43421,1,0,0:0:0:0:
256,192,43546,1,8,0:0:0:0:
256,192,43671,1,0,0:0:0:0:
256,192,43796,1,8,0:0:0:0:
256,192,43921,1,0,0:0:0:0:
256,192,44046,1,8,0:0:0:0:
256,192,44108,1,0,0:0:0:0:
256,192,44171,1,0,0:0:0:0:
256,192,44296,1,8,0:0:0:0:
256,192,44358,1,8,0:0:0:0:
256,192,44421,1,0,0:0:0:0:
256,192,44546,1,8,0:0:0:0:
256,192,44608,1,8,0:0:0:0:
256,192,44671,1,0,0:0:0:0:
256,192,44733,1,0,0:0:0:0:
256,192,44796,1,8,0:0:0:0:
256,192,44858,1,0,0:0:0:0:
256,192,44921,1,0,0:0:0:0:
256,192,44983,1,0,0:0:0:0:
256,192,45046,1,12,0:0:0:0:
256,192,45296,1,12,0:0:0:0:
256,192,45421,1,0,0:0:0:0:
256,192,45546,1,12,0:0:0:0:
256,192,45671,1,8,0:0:0:0:
256,192,45796,1,4,0:0:0:0:
256,192,45921,1,0,0:0:0:0:
256,192,46046,1,12,0:0:0:0:
256,192,46296,1,0,0:0:0:0:
256,192,46379,1,0,0:0:0:0:
256,192,46462,1,8,0:0:0:0:
256,192,46546,1,8,0:0:0:0:
256,192,46796,1,4,0:0:0:0:
256,192,47046,1,12,0:0:0:0:
256,192,47171,1,0,0:0:0:0:
256,192,47296,1,8,0:0:0:0:
256,192,47358,1,0,0:0:0:0:
256,192,47421,1,8,0:0:0:0:
256,192,47546,1,0,0:0:0:0:
256,192,47671,1,8,0:0:0:0:
256,192,47733,1,8,0:0:0:0:
256,192,47796,1,0,0:0:0:0:
256,192,47858,1,0,0:0:0:0:
256,192,47921,1,8,0:0:0:0:
256,192,48046,1,0,0:0:0:0:
256,192,48171,1,8,0:0:0:0:
256,192,48233,1,8,0:0:0:0:
256,192,48296,1,0,0:0:0:0:
256,192,48421,1,8,0:0:0:0:
256,192,48483,1,8,0:0:0:0:
256,192,48546,1,8,0:0:0:0:
256,192,48608,1,8,0:0:0:0:
256,192,48671,1,0,0:0:0:0:
256,192,48796,1,8,0:0:0:0:
256,192,48858,1,8,0:0:0:0:
256,192,48921,1,8,0:0:0:0:
256,192,49046,1,0,0:0:0:0:
256,192,49296,1,8,0:0:0:0:
256,192,49358,1,0,0:0:0:0:
256,192,49421,1,8,0:0:0:0:
256,192,49546,1,0,0:0:0:0:
256,192,49671,1,8,0:0:0:0:
256,192,49733,1,8,0:0:0:0:
256,192,49796,1,0,0:0:0:0:
256,192,49921,1,8,0:0:0:0:
256,192,49983,1,8,0:0:0:0:
256,192,50046,1,8,0:0:0:0:
256,192,50171,1,0,0:0:0:0:
256,192,50233,1,0,0:0:0:0:
256,192,50296,1,0,0:0:0:0:
256,192,50421,1,8,0:0:0:0:
256,192,50671,1,8,0:0:0:0:
256,192,50733,1,8,0:0:0:0:
256,192,50796,1,0,0:0:0:0:
256,192,50921,1,0,0:0:0:0:
256,192,51046,1,8,0:0:0:0:
256,192,51108,1,8,0:0:0:0:
256,192,51171,1,0,0:0:0:0:
256,192,51233,1,0,0:0:0:0:
256,192,51296,1,0,0:0:0:0:
256,192,51421,1,8,0:0:0:0:
256,192,51671,1,8,0:0:0:0:
256,192,51733,1,8,0:0:0:0:
256,192,51796,1,0,0:0:0:0:
256,192,51921,1,8,0:0:0:0:
256,192,52046,1,8,0:0:0:0:
256,192,52171,1,0,0:0:0:0:
256,192,52233,1,0,0:0:0:0:
256,192,52296,1,8,0:0:0:0:
256,192,52421,1,0,0:0:0:0:
256,192,52546,1,8,0:0:0:0:
256,192,52671,1,0,0:0:0:0:
256,192,52733,1,0,0:0:0:0:
256,192,52796,1,8,0:0:0:0:
256,192,52858,1,0,0:0:0:0:
256,192,52921,1,8,0:0:0:0:
256,192,53046,1,0,0:0:0:0:
256,192,53171,1,8,0:0:0:0:
256,192,53296,1,4,0:0:0:0:
256,192,53546,1,0,0:0:0:0:
256,192,53671,1,0,0:0:0:0:
256,192,53796,1,12,0:0:0:0:
256,192,53921,1,0,0:0:0:0:
256,192,54046,1,8,0:0:0:0:
256,192,54171,1,0,0:0:0:0:
256,192,54296,1,12,0:0:0:0:
256,192,54421,1,0,0:0:0:0:
256,192,54546,1,12,0:0:0:0:
256,192,54671,1,0,0:0:0:0:
256,192,54796,1,8,0:0:0:0:
256,192,54858,1,8,0:0:0:0:
256,192,54921,1,8,0:0:0:0:
256,192,54983,1,8,0:0:0:0:
256,192,55046,1,4,0:0:0:0:
256,192,55296,1,8,0:0:0:0:
256,192,55358,1,0,0:0:0:0:
256,192,55421,1,8,0:0:0:0:
256,192,55546,1,0,0:0:0:0:
256,192,55671,1,8,0:0:0:0:
256,192,55733,1,0,0:0:0:0:
256,192,55796,1,8,0:0:0:0:
256,192,55858,1,8,0:0:0:0:
256,192,55921,1,0,0:0:0:0:
256,192,56046,1,8,0:0:0:0:
256,192,56171,1,0,0:0:0:0:
256,192,56233,1,0,0:0:0:0:
256,192,56296,1,8,0:0:0:0:
256,192,56421,1,0,0:0:0:0:
256,192,56483,1,0,0:0:0:0:
256,192,56546,1,8,0:0:0:0:
256,192,56608,1,0,0:0:0:0:
256,192,56671,1,0,0:0:0:0:
256,192,56796,1,8,0:0:0:0:
256,192,56858,1,8,0:0:0:0:
256,192,56921,1,8,0:0:0:0:
256,192,57046,1,0,0:0:0:0:
256,192,57296,1,8,0:0:0:0:
256,192,57358,1,0,0:0:0:0:
256,192,57421,1,8,0:0:0:0:
256,192,57546,1,0,0:0:0:0:
256,192,57671,1,8,0:0:0:0:
256,192,57796,1,0,0:0:0:0:
256,192,57921,1,8,0:0:0:0:
256,192,57983,1,8,0:0:0:0:
256,192,58046,1,8,0:0:0:0:
256,192,58171,1,0,0:0:0:0:
256,192,58233,1,0,0:0:0:0:
256,192,58296,1,0,0:0:0:0:
256,192,58421,1,8,0:0:0:0:
256,192,58671,1,0,0:0:0:0:
256,192,58796,1,8,0:0:0:0:
256,192,58858,1,8,0:0:0:0:
256,192,58921,1,0,0:0:0:0:
256,192,58983,1,0,0:0:0:0:
256,192,59046,1,12,0:0:0:0:
256,192,59296,1,8,0:0:0:0:
256,192,59546,1,8,0:0:0:0:
256,192,59796,1,8,0:0:0:0:
256,192,59921,1,8,0:0:0:0:
256,192,60046,1,4,0:0:0:0:
256,192,60296,1,8,0:0:0:0:
256,192,60421,1,4,0:0:0:0:
256,192,60671,1,8,0:0:0:0:
256,192,60796,1,4,0:0:0:0:
256,192,60921,1,8,0:0:0:0:
256,192,61046,1,4,0:0:0:0:
256,192,61171,1,8,0:0:0:0:
256,192,61296,1,0,0:0:0:0:
256,192,61358,1,0,0:0:0:0:
256,192,61421,1,0,0:0:0:0:
256,192,61546,1,8,0:0:0:0:
256,192,61608,1,8,0:0:0:0:
256,192,61671,1,8,0:0:0:0:
256,192,61796,1,0,0:0:0:0:
256,192,61921,1,8,0:0:0:0:
256,192,62171,1,8,0:0:0:0:
256,192,62296,1,8,0:0:0:0:
256,192,62358,1,8,0:0:0:0:
256,192,62421,1,0,0:0:0:0:
256,192,62546,1,0,0:0:0:0:
256,192,62608,1,0,0:0:0:0:
256,192,62671,1,8,0:0:0:0:
256,192,62796,1,0,0:0:0:0:
256,192,62921,1,8,0:0:0:0:
256,192,63046,1,0,0:0:0:0:
256,192,63296,1,0,0:0:0:0:
256,192,63358,1,0,0:0:0:0:
256,192,63421,1,0,0:0:0:0:
256,192,63546,1,8,0:0:0:0:
256,192,63608,1,8,0:0:0:0:
256,192,63671,1,8,0:0:0:0:
256,192,63796,1,0,0:0:0:0:
256,192,63921,1,8,0:0:0:0:
256,192,63983,1,8,0:0:0:0:
256,192,64046,1,0,0:0:0:0:
256,192,64171,1,0,0:0:0:0:
256,192,64296,1,8,0:0:0:0:
256,192,64358,1,8,0:0:0:0:
256,192,64421,1,0,0:0:0:0:
256,192,64483,1,0,0:0:0:0:
256,192,64546,1,8,0:0:0:0:
256,192,64671,1,0,0:0:0:0:
256,192,64796,1,8,0:0:0:0:
256,192,64858,1,8,0:0:0:0:
256,192,64921,1,8,0:0:0:0:
256,192,64983,1,8,0:0:0:0:
256,192,65046,1,4,0:0:0:0:
256,192,65296,1,0,0:0:0:0:
256,192,65546,1,0,0:0:0:0:
256,192,65796,1,0,0:0:0:0:
256,192,66046,1,8,0:0:0:0:
256,192,66171,1,0,0:0:0:0:
256,192,66296,1,8,0:0:0:0:
256,192,66421,1,0,0:0:0:0:
256,192,66546,1,8,0:0:0:0:
256,192,66608,1,0,0:0:0:0:
256,192,66671,1,8,0:0:0:0:
256,192,66733,1,8,0:0:0:0:
256,192,66796,1,0,0:0:0:0:
256,192,66858,1,8,0:0:0:0:
256,192,66921,1,0,0:0:0:0:
256,192,66983,1,0,0:0:0:0:
256,192,67046,1,12,0:0:0:0:
256,192,67296,1,0,0:0:0:0:
256,192,67421,1,12,0:0:0:0:
256,192,67671,1,12,0:0:0:0:
256,192,67921,1,0,0:0:0:0:
256,192,67983,1,8,0:0:0:0:
256,192,68046,1,0,0:0:0:0:
256,192,68171,1,8,0:0:0:0:
256,192,68233,1,8,0:0:0:0:
256,192,68296,1,0,0:0:0:0:
256,192,68421,1,8,0:0:0:0:
256,192,68483,1,0,0:0:0:0:
256,192,68546,1,0,0:0:0:0:
256,192,68796,1,12,0:0:0:0:
256,192,69046,1,0,0:0:0:0:
256,192,69171,1,0,0:0:0:0:
256,192,69296,1,8,0:0:0:0:
256,192,69421,1,0,0:0:0:0:
256,192,69546,1,8,0:0:0:0:
256,192,69796,1,0,0:0:0:0:
256,192,69921,1,8,0:0:0:0:
256,192,70046,1,8,0:0:0:0:
256,192,70171,1,0,0:0:0:0:
256,192,70296,1,8,0:0:0:0:
256,192,70546,1,8,0:0:0:0:
256,192,70671,1,8,0:0:0:0:
256,192,70796,1,0,0:0:0:0:
256,192,70921,1,0,0:0:0:0:
256,192,71046,1,8,0:0:0:0:
256,192,71296,1,8,0:0:0:0:
256,192,71421,1,0,0:0:0:0:
256,192,71546,1,8,0:0:0:0:
256,192,71671,1,0,0:0:0:0:
256,192,71796,1,8,0:0:0:0:
256,192,71921,1,8,0:0:0:0:
256,192,72046,1,8,0:0:0:0:
256,192,72171,1,0,0:0:0:0:
256,192,72296,1,8,0:0:0:0:
256,192,72421,1,8,0:0:0:0:
256,192,72546,1,0,0:0:0:0:
256,192,72796,1,8,0:0:0:0:
256,192,73046,1,0,0:0:0:0:
256,192,73171,1,0,0:0:0:0:
256,192,73421,1,8,0:0:0:0:
256,192,73546,1,0,0:0:0:0:
256,192,73671,1,0,0:0:0:0:
256,192,73796,1,8,0:0:0:0:
256,192,73921,1,8,0:0:0:0:
256,192,74046,1,0,0:0:0:0:
256,192,74421,1,8,0:0:0:0:
256,192,74483,1,8,0:0:0:0:
256,192,74546,1,8,0:0:0:0:
256,192,74671,1,0,0:0:0:0:
256,192,74796,1,8,0:0:0:0:
256,192,74921,1,8,0:0:0:0:
256,192,75046,1,4,0:0:0:0:
256,192,75296,1,8,0:0:0:0:
256,192,75421,1,0,0:0:0:0:
256,192,75546,1,8,0:0:0:0:
256,192,75608,1,0,0:0:0:0:
256,192,75671,1,0,0:0:0:0:
256,192,75796,1,8,0:0:0:0:
256,192,75858,1,8,0:0:0:0:
256,192,75921,1,0,0:0:0:0:
256,192,76046,1,12,0:0:0:0:
256,192,76296,1,12,0:0:0:0:
256,192,76421,1,4,0:0:0:0:
256,192,76546,1,12,0:0:0:0:
256,192,76671,1,0,0:0:0:0:
256,192,76733,1,0,0:0:0:0:
256,192,76796,1,0,0:0:0:0:
256,192,76921,1,8,0:0:0:0:
256,192,77046,1,4,0:0:0:0:
256,192,77296,1,8,0:0:0:0:
256,192,77421,1,0,0:0:0:0:
256,192,77546,1,8,0:0:0:0:
256,192,77608,1,8,0:0:0:0:
256,192,77671,1,0,0:0:0:0:
256,192,77796,1,8,0:0:0:0:
256,192,77921,1,0,0:0:0:0:
256,192,77983,1,0,0:0:0:0:
256,192,78046,1,0,0:0:0:0:
256,192,78171,1,8,0:0:0:0:
256,192,78296,1,0,0:0:0:0:
256,192,78358,1,8,0:0:0:0:
256,192,78421,1,8,0:0:0:0:
256,192,78483,1,8,0:0:0:0:
256,192,78546,1,0,0:0:0:0:
256,192,78671,1,8,0:0:0:0:
256,192,78796,1,0,0:0:0:0:
256,192,78858,1,8,0:0:0:0:
256,192,78921,1,0,0:0:0:0:
256,192,78983,1,0,0:0:0:0:
256,192,79046,1,8,0:0:0:0:
256,192,79296,1,8,0:0:0:0:
256,192,79421,1,0,0:0:0:0:
256,192,79546,1,8,0:0:0:0:
256,192,79671,1,8,0:0:0:0:
256,192,79796,1,8,0:0:0:0:
256,192,79921,1,0,0:0:0:0:
256,192,79983,1,0,0:0:0:0:
256,192,80046,1,0,0:0:0:0:
256,192,80171,1,8,0:0:0:0:
256,192,80296,1,0,0:0:0:0:
256,192,80421,1,8,0:0:0:0:
256,192,80483,1,8,0:0:0:0:
256,192,80546,1,0,0:0:0:0:
256,192,80671,1,8,0:0:0:0:
256,192,80796,1,0,0:0:0:0:
256,192,80921,1,8,0:0:0:0:
256,192,81171,1,0,0:0:0:0:
256,192,81233,1,8,0:0:0:0:
256,192,81296,1,8,0:0:0:0:
256,192,81358,1,8,0:0:0:0:
256,192,81421,1,0,0:0:0:0:
256,192,81546,1,8,0:0:0:0:
256,192,81671,1,8,0:0:0:0:
256,192,81796,1,0,0:0:0:0:
256,192,81921,1,0,0:0:0:0:
256,192,82046,1,8,0:0:0:0:
256,192,82108,1,8,0:0:0:0:
256,192,82171,1,8,0:0:0:0:
256,192,82233,1,8,0:0:0:0:
256,192,82296,1,0,0:0:0:0:
256,192,82421,1,8,0:0:0:0:
256,192,82546,1,0,0:0:0:0:
256,192,82671,1,8,0:0:0:0:
256,192,82796,1,0,0:0:0:0:
256,192,82921,1,8,0:0:0:0:
256,192,82983,1,8,0:0:0:0:
256,192,83046,1,4,0:0:0:0:
256,192,84671,1,0,0:0:0:0:
256,192,84796,1,12,0:0:0:0:
256,192,85046,1,4,0:0:0:0:
256,192,85171,1,8,0:0:0:0:
256,192,85296,1,8,0:0:0:0:
256,192,85421,1,0,0:0:0:0:
256,192,85546,1,0,0:0:0:0:
256,192,85671,1,8,0:0:0:0:
256,192,85796,1,0,0:0:0:0:
256,192,85921,1,0,0:0:0:0:
256,192,86046,1,8,0:0:0:0:
256,192,86171,1,0,0:0:0:0:
256,192,86296,1,8,0:0:0:0:
256,192,86421,1,8,0:0:0:0:
256,192,86546,1,0,0:0:0:0:
256,192,86796,1,8,0:0:0:0:
256,192,86921,1,0,0:0:0:0:
256,192,87046,1,8,0:0:0:0:
256,192,87171,1,8,0:0:0:0:
256,192,87296,1,0,0:0:0:0:
256,192,87421,1,0,0:0:0:0:
256,192,87546,1,8,0:0:0:0:
256,192,87671,1,0,0:0:0:0:
256,192,87921,1,0,0:0:0:0:
256,192,88046,1,8,0:0:0:0:
256,192,88171,1,0,0:0:0:0:
256,192,88296,1,8,0:0:0:0:
256,192,88421,1,8,0:0:0:0:
256,192,88546,1,0,0:0:0:0:
256,192,88796,1,0,0:0:0:0:
256,192,89046,1,8,0:0:0:0:
256,192,89171,1,0,0:0:0:0:
256,192,89296,1,8,0:0:0:0:
256,192,89421,1,8,0:0:0:0:
256,192,89546,1,0,0:0:0:0:
256,192,89671,1,8,0:0:0:0:
256,192,89796,1,0,0:0:0:0:
256,192,89921,1,0,0:0:0:0:
256,192,90046,1,8,0:0:0:0:
256,192,90171,1,0,0:0:0:0:
256,192,90296,1,8,0:0:0:0:
256,192,90421,1,8,0:0:0:0:
256,192,90546,1,8,0:0:0:0:
256,192,90671,1,0,0:0:0:0:
256,192,90796,1,0,0:0:0:0:
256,192,90921,1,0,0:0:0:0:
256,192,91046,1,8,0:0:0:0:
256,192,91171,1,8,0:0:0:0:
256,192,91421,1,0,0:0:0:0:
256,192,91671,1,8,0:0:0:0:
256,192,91796,1,0,0:0:0:0:
256,192,91921,1,0,0:0:0:0:
256,192,92046,1,8,0:0:0:0:
256,192,92171,1,8,0:0:0:0:
256,192,92421,1,0,0:0:0:0:
256,192,92546,1,8,0:0:0:0:
256,192,92671,1,8,0:0:0:0:
256,192,92796,1,0,0:0:0:0:
256,192,92921,1,8,0:0:0:0:
256,192,93046,1,4,0:0:0:0:
256,192,93296,1,8,0:0:0:0:
256,192,93421,1,8,0:0:0:0:
256,192,93546,1,0,0:0:0:0:
256,192,93671,1,8,0:0:0:0:
256,192,93796,1,8,0:0:0:0:
256,192,93921,1,0,0:0:0:0:
256,192,94046,1,12,0:0:0:0:
256,192,94296,1,0,0:0:0:0:
256,192,94421,1,8,0:0:0:0:
256,192,94671,1,0,0:0:0:0:
256,192,94796,1,0,0:0:0:0:
256,192,94921,1,8,0:0:0:0:
256,192,95046,1,4,0:0:0:0:
256,192,95296,1,8,0:0:0:0:
256,192,95421,1,8,0:0:0:0:
256,192,95546,1,0,0:0:0:0:
256,192,95671,1,8,0:0:0:0:
256,192,95796,1,0,0:0:0:0:
256,192,95921,1,0,0:0:0:0:
256,192,96046,1,12,0:0:0:0:
256,192,96296,1,8,0:0:0:0:
256,192,96421,1,0,0:0:0:0:
256,192,96546,1,8,0:0:0:0:
256,192,96671,1,0,0:0:0:0:
256,192,96796,1,8,0:0:0:0:
256,192,96921,1,8,0:0:0:0:
256,192,96983,1,8,0:0:0:0:
256,192,97046,1,8,0:0:0:0:
256,192,97296,1,8,0:0:0:0:
256,192,97421,1,0,0:0:0:0:
256,192,97546,1,8,0:0:0:0:
256,192,97671,1,0,0:0:0:0:
256,192,97796,1,8,0:0:0:0:
256,192,97921,1,0,0:0:0:0:
256,192,98046,1,8,0:0:0:0:
256,192,98108,1,0,0:0:0:0:
256,192,98171,1,0,0:0:0:0:
256,192,98296,1,8,0:0:0:0:
256,192,98358,1,8,0:0:0:0:
256,192,98421,1,0,0:0:0:0:
256,192,98546,1,8,0:0:0:0:
256,192,98608,1,0,0:0:0:0:
256,192,98671,1,8,0:0:0:0:
256,192,98733,1,8,0:0:0:0:
256,192,98796,1,0,0:0:0:0:
256,192,98858,1,8,0:0:0:0:
256,192,98921,1,0,0:0:0:0:
256,192,98983,1,0,0:0:0:0:
256,192,99046,1,12,0:0:0:0:
256,192,99296,1,0,0:0:0:0:
256,192,99421,1,0,0:0:0:0:
256,192,99546,1,8,0:0:0:0:
256,192,99671,1,8,0:0:0:0:
256,192,99796,1,0,0:0:0:0:
256,192,99921,1,8,0:0:0:0:
256,192,100046,1,4,0:0:0:0:
256,192,100296,1,0,0:0:0:0:
256,192,100379,1,0,0:0:0:0:
256,192,100462,1,8,0:0:0:0:
256,192,100546,1,8,0:0:0:0:
256,192,101046,1,12,0:0:0:0:
256,192,101296,1,0,0:0:0:0:
256,192,101421,1,8,0:0:0:0:
256,192,101483,1,8,0:0:0:0:
256,192,101546,1,8,0:0:0:0:
256,192,101671,1,0,0:0:0:0:
256,192,101796,1,0,0:0:0:0:
256,192,101921,1,12,0:0:0:0:
256,192,102171,1,12,0:0:0:0:
256,192,102296,1,0,0:0:0:0:
256,192,102421,1,12,0:0:0:0:
256,192,102671,1,0,0:0:0:0:
256,192,102733,1,8,0:0:0:0:
256,192,102796,1,8,0:0:0:0:
256,192,102921,1,8,0:0:0:0:
256,192,103046,1,4,0:0:0:0:
256,192,103296,1,8,0:0:0:0:
256,192,103421,1,0,0:0:0:0:
256,192,103483,1,0,0:0:0:0:
256,192,103546,1,0,0:0:0:0:
256,192,103671,1,8,0:0:0:0:
256,192,103796,1,0,0:0:0:0:
256,192,103921,1,12,0:0:0:0:
256,192,104171,1,4,0:0:0:0:
256,192,104421,1,12,0:0:0:0:
256,192,104671,1,0,0:0:0:0:
256,192,104796,1,8,0:0:0:0:
256,192,104921,1,0,0:0:0:0:
256,192,104983,1,0,0:0:0:0:
256,192,105046,1,12,0:0:0:0:
256,192,105296,1,0,0:0:0:0:
256,192,105546,1,0,0:0:0:0:
256,192,105796,1,0,0:0:0:0:
256,192,106046,1,0,0:0:0:0:
256,192,106171,1,8,0:0:0:0:
256,192,106296,1,8,0:0:0:0:
256,192,106421,1,0,0:0:0:0:
256,192,106546,1,8,0:0:0:0:
256,192,106671,1,8,0:0:0:0:
256,192,106733,1,8,0:0:0:0:
256,192,106796,1,8,0:0:0:0:
256,192,106921,1,8,0:0:0:0:
256,192,107046,1,4,0:0:0:0:
256,192,107296,1,12,0:0:0:0:
256,192,107546,1,4,0:0:0:0:
256,192,107671,1,0,0:0:0:0:
256,192,107796,1,12,0:0:0:0:
256,192,108046,1,4,0:0:0:0:
256,192,108171,1,0,0:0:0:0:
256,192,108296,1,12,0:0:0:0:
256,192,108421,1,0,0:0:0:0:
256,192,108546,1,12,0:0:0:0:
256,192,108671,1,0,0:0:0:0:
256,192,108796,1,12,0:0:0:0:
256,192,109046,1,12,0:0:0:0:
256,192,109171,1,0,0:0:0:0:
256,192,109296,1,8,0:0:0:0:
256,192,109358,1,0,0:0:0:0:
256,192,109421,1,8,0:0:0:0:
256,192,109546,1,0,0:0:0:0:
256,192,109671,1,8,0:0:0:0:
256,192,109733,1,8,0:0:0:0:
256,192,109796,1,0,0:0:0:0:
256,192,109921,1,8,0:0:0:0:
256,192,109983,1,0,0:0:0:0:
256,192,110046,1,0,0:0:0:0:
256,192,110108,1,0,0:0:0:0:
256,192,110171,1,8,0:0:0:0:
256,192,110296,1,0,0:0:0:0:
256,192,110421,1,8,0:0:0:0:
256,192,110483,1,8,0:0:0:0:
256,192,110546,1,8,0:0:0:0:
256,192,110608,1,8,0:0:0:0:
256,192,110671,1,0,0:0:0:0:
256,192,110796,1,8,0:0:0:0:
256,192,110858,1,8,0:0:0:0:
256,192,110921,1,0,0:0:0:0:
256,192,111046,1,8,0:0:0:0:
256,192,111296,1,8,0:0:0:0:
256,192,111358,1,0,0:0:0:0:
256,192,111421,1,8,0:0:0:0:
256,192,111546,1,0,0:0:0:0:
256,192,111671,1,8,0:0:0:0:
256,192,111733,1,8,0:0:0:0:
256,192,111796,1,0,0:0:0:0:
256,192,111921,1,8,0:0:0:0:
256,192,111983,1,8,0:0:0:0:
256,192,112046,1,8,0:0:0:0:
256,192,112171,1,0,0:0:0:0:
256,192,112233,1,0,0:0:0:0:
256,192,112296,1,0,0:0:0:0:
256,192,112421,1,8,0:0:0:0:
256,192,112671,1,8,0:0:0:0:
256,192,112733,1,8,0:0:0:0:
256,192,112796,1,0,0:0:0:0:
256,192,112921,1,0,0:0:0:0:
256,192,113046,1,8,0:0:0:0:
256,192,113108,1,0,0:0:0:0:
256,192,113171,1,0,0:0:0:0:
256,192,113233,1,0,0:0:0:0:
256,192,113296,1,8,0:0:0:0:
256,192,113421,1,0,0:0:0:0:
256,192,113546,1,0,0:0:0:0:
256,192,113671,1,8,0:0:0:0:
256,192,113733,1,8,0:0:0:0:
256,192,113796,1,0,0:0:0:0:
256,192,113858,1,0,0:0:0:0:
256,192,113921,1,8,0:0:0:0:
256,192,114046,1,0,0:0:0:0:
256,192,114296,1,8,0:0:0:0:
256,192,114421,1,8,0:0:0:0:
256,192,114483,1,8,0:0:0:0:
256,192,114546,1,0,0:0:0:0:
256,192,114671,1,0,0:0:0:0:
256,192,114733,1,0,0:0:0:0:
256,192,114796,1,8,0:0:0:0:
256,192,114921,1,0,0:0:0:0:
256,192,115046,1,8,0:0:0:0:
256,192,115296,1,8,0:0:0:0:
256,192,115358,1,0,0:0:0:0:
256,192,115421,1,0,0:0:0:0:
256,192,115546,1,8,0:0:0:0:
256,192,115608,1,8,0:0:0:0:
256,192,115671,1,0,0:0:0:0:
256,192,115796,1,8,0:0:0:0:
256,192,115858,1,0,0:0:0:0:
256,192,115921,1,0,0:0:0:0:
256,192,115983,1,0,0:0:0:0:
256,192,116046,1,8,0:0:0:0:
256,192,116171,1,0,0:0:0:0:
256,192,116296,1,8,0:0:0:0:
256,192,116358,1,8,0:0:0:0:
256,192,116421,1,0,0:0:0:0:
256,192,116546,1,8,0:0:0:0:
256,192,116608,1,8,0:0:0:0:
256,192,116671,1,8,0:0:0:0:
256,192,116733,1,8,0:0:0:0:
256,192,116796,1,0,0:0:0:0:
256,192,116921,1,0,0:0:0:0:
256,192,117046,1,12,0:0:0:0:
256,192,117296,1,8,0:0:0:0:
256,192,117358,1,0,0:0:0:0:
256,192,117421,1,8,0:0:0:0:
256,192,117546,1,0,0:0:0:0:
256,192,117671,1,8,0:0:0:0:
256,192,117733,1,8,0:0:0:0:
256,192,117796,1,0,0:0:0:0:
256,192,117858,1,0,0:0:0:0:
256,192,117921,1,8,0:0:0:0:
256,192,118046,1,0,0:0:0:0:
256,192,118171,1,8,0:0:0:0:
256,192,118233,1,8,0:0:0:0:
256,192,118296,1,0,0:0:0:0:
256,192,118421,1,8,0:0:0:0:
256,192,118483,1,0,0:0:0:0:
256,192,118546,1,8,0:0:0:0:
256,192,118608,1,8,0:0:0:0:
256,192,118671,1,0,0:0:0:0:
256,192,118796,1,8,0:0:0:0:
256,192,118858,1,8,0:0:0:0:
256,192,118921,1,8,0:0:0:0:
256,192,119046,1,0,0:0:0:0:
256,192,119296,1,8,0:0:0:0:
256,192,119358,1,0,0:0:0:0:
256,192,119421,1,8,0:0:0:0:
256,192,119546,1,0,0:0:0:0:
256,192,119671,1,8,0:0:0:0:
256,192,119733,1,8,0:0:0:0:
256,192,119796,1,0,0:0:0:0:
256,192,119921,1,8,0:0:0:0:
256,192,119983,1,8,0:0:0:0:
256,192,120046,1,8,0:0:0:0:
256,192,120171,1,0,0:0:0:0:
256,192,120233,1,0,0:0:0:0:
256,192,120296,1,0,0:0:0:0:
256,192,120421,1,8,0:0:0:0:
256,192,120546,1,8,0:0:0:0:
256,192,120671,1,0,0:0:0:0:
256,192,120796,1,0,0:0:0:0:
256,192,121046,1,8,0:0:0:0:
256,192,121108,1,8,0:0:0:0:
256,192,121171,1,0,0:0:0:0:
256,192,121233,1,0,0:0:0:0:
256,192,121296,1,0,0:0:0:0:
256,192,121421,1,8,0:0:0:0:
256,192,121546,1,0,0:0:0:0:
256,192,121608,1,0,0:0:0:0:
256,192,121671,1,8,0:0:0:0:
256,192,121796,1,0,0:0:0:0:
256,192,121921,1,8,0:0:0:0:
256,192,121983,1,8,0:0:0:0:
256,192,122046,1,8,0:0:0:0:
256,192,122171,1,0,0:0:0:0:
256,192,122296,1,8,0:0:0:0:
256,192,122358,1,8,0:0:0:0:
256,192,122421,1,0,0:0:0:0:
256,192,122546,1,8,0:0:0:0:
256,192,122608,1,8,0:0:0:0:
256,192,122671,1,0,0:0:0:0:
256,192,122796,1,8,0:0:0:0:
256,192,122921,1,8,0:0:0:0:
256,192,123046,1,0,0:0:0:0:
256,192,123171,1,8,0:0:0:0:
256,192,123296,1,4,0:0:0:0:
256,192,123546,1,0,0:0:0:0:
256,192,123671,1,0,0:0:0:0:
256,192,123796,1,12,0:0:0:0:
256,192,123921,1,0,0:0:0:0:
256,192,124046,1,8,0:0:0:0:
256,192,124171,1,0,0:0:0:0:
256,192,124296,1,12,0:0:0:0:
256,192,124421,1,0,0:0:0:0:
256,192,124546,1,12,0:0:0:0:
256,192,124671,1,0,0:0:0:0:
256,192,124796,1,8,0:0:0:0:
256,192,124858,1,8,0:0:0:0:
256,192,124921,1,8,0:0:0:0:
256,192,124983,1,8,0:0:0:0:
256,192,125046,1,4,0:0:0:0:
256,192,125296,1,8,0:0:0:0:
256,192,125358,1,0,0:0:0:0:
256,192,125421,1,8,0:0:0:0:
256,192,125546,1,0,0:0:0:0:
256,192,125671,1,8,0:0:0:0:
256,192,125733,1,8,0:0:0:0:
256,192,125796,1,0,0:0:0:0:
256,192,125858,1,0,0:0:0:0:
256,192,125921,1,8,0:0:0:0:
256,192,126046,1,0,0:0:0:0:
256,192,126171,1,8,0:0:0:0:
256,192,126296,1,0,0:0:0:0:
256,192,126421,1,8,0:0:0:0:
256,192,126483,1,0,0:0:0:0:
256,192,126546,1,8,0:0:0:0:
256,192,126608,1,8,0:0:0:0:
256,192,126671,1,0,0:0:0:0:
256,192,126796,1,8,0:0:0:0:
256,192,126858,1,8,0:0:0:0:
256,192,126921,1,8,0:0:0:0:
256,192,126983,1,8,0:0:0:0:
256,192,127046,1,0,0:0:0:0:
256,192,127296,1,8,0:0:0:0:
256,192,127358,1,0,0:0:0:0:
256,192,127421,1,8,0:0:0:0:
256,192,127546,1,0,0:0:0:0:
256,192,127608,1,8,0:0:0:0:
256,192,127671,1,0,0:0:0:0:
256,192,127733,1,8,0:0:0:0:
256,192,127796,1,0,0:0:0:0:
256,192,127921,1,8,0:0:0:0:
256,192,127983,1,8,0:0:0:0:
256,192,128046,1,8,0:0:0:0:
256,192,128171,1,0,0:0:0:0:
256,192,128233,1,0,0:0:0:0:
256,192,128296,1,0,0:0:0:0:
256,192,128421,1,8,0:0:0:0:
256,192,128671,1,0,0:0:0:0:
256,192,128733,1,0,0:0:0:0:
256,192,128796,1,8,0:0:0:0:
256,192,128858,1,8,0:0:0:0:
256,192,128921,1,0,0:0:0:0:
256,192,128983,1,0,0:0:0:0:
256,192,129046,1,12,0:0:0:0:
256,192,129296,1,8,0:0:0:0:
256,192,129546,1,8,0:0:0:0:
256,192,129796,1,8,0:0:0:0:
256,192,130046,1,4,0:0:0:0:
256,192,130296,1,8,0:0:0:0:
256,192,130421,1,4,0:0:0:0:
256,192,130671,1,8,0:0:0:0:
256,192,130796,1,4,0:0:0:0:
256,192,130921,1,8,0:0:0:0:
256,192,131046,1,4,0:0:0:0:
256,192,131296,1,12,0:0:0:0:
256,192,131546,1,0,0:0:0:0:
256,192,131671,1,0,0:0:0:0:
256,192,131796,1,12,0:0:0:0:
256,192,132046,1,8,0:0:0:0:
256,192,132171,1,8,0:0:0:0:
256,192,132296,1,4,0:0:0:0:
256,192,132546,1,0,0:0:0:0:
256,192,132671,1,0,0:0:0:0:
256,192,132796,1,12,0:0:0:0:
256,192,132921,1,0,0:0:0:0:
256,192,133046,1,12,0:0:0:0:
256,192,134046,1,4,0:0:0:0:
256,192,134546,1,12,0:0:0:0:
256,192,135046,1,0,0:0:0:0:
256,192,135296,1,0,0:0:0:0:
256,192,135546,1,0,0:0:0:0:
256,192,135796,1,0,0:0:0:0:
256,192,136046,1,8,0:0:0:0:
256,192,136171,1,8,0:0:0:0:
256,192,136296,1,8,0:0:0:0:
256,192,136421,1,8,0:0:0:0:
256,192,136546,1,8,0:0:0:0:
256,192,136671,1,0,0:0:0:0:
256,192,136796,1,8,0:0:0:0:
256,192,136858,1,8,0:0:0:0:
256,192,136921,1,8,0:0:0:0:
256,192,137046,1,4,0:0:0:0:
256,192,137296,1,0,0:0:0:0:
256,192,137358,1,0,0:0:0:0:
256,192,137421,1,0,0:0:0:0:
256,192,137546,1,8,0:0:0:0:
256,192,137608,1,8,0:0:0:0:
256,192,137671,1,8,0:0:0:0:
256,192,137796,1,0,0:0:0:0:
256,192,137921,1,8,0:0:0:0:
256,192,138171,1,8,0:0:0:0:
256,192,138296,1,8,0:0:0:0:
256,192,138358,1,8,0:0:0:0:
256,192,138421,1,0,0:0:0:0:
256,192,138546,1,0,0:0:0:0:
256,192,138608,1,0,0:0:0:0:
256,192,138671,1,8,0:0:0:0:
256,192,138796,1,0,0:0:0:0:
256,192,138921,1,8,0:0:0:0:
256,192,139046,1,0,0:0:0:0:
256,192,139296,1,0,0:0:0:0:
256,192,139358,1,0,0:0:0:0:
256,192,139421,1,0,0:0:0:0:
256,192,139546,1,8,0:0:0:0:
256,192,139608,1,8,0:0:0:0:
256,192,139671,1,8,0:0:0:0:
256,192,139796,1,0,0:0:0:0:
256,192,139921,1,8,0:0:0:0:
256,192,139983,1,8,0:0:0:0:
256,192,140046,1,0,0:0:0:0:
256,192,140171,1,8,0:0:0:0:
256,192,140296,1,0,0:0:0:0:
256,192,140358,1,8,0:0:0:0:
256,192,140421,1,8,0:0:0:0:
256,192,140483,1,0,0:0:0:0:
256,192,140546,1,8,0:0:0:0:
256,192,140671,1,0,0:0:0:0:
256,192,140796,1,8,0:0:0:0:
256,192,140858,1,8,0:0:0:0:
256,192,140921,1,8,0:0:0:0:
256,192,140983,1,8,0:0:0:0:
256,192,141046,1,4,0:0:0:0:
256,192,141296,1,0,0:0:0:0:
256,192,141546,1,0,0:0:0:0:
256,192,141796,1,0,0:0:0:0:
256,192,142046,1,8,0:0:0:0:
256,192,142171,1,0,0:0:0:0:
256,192,142296,1,8,0:0:0:0:
256,192,142421,1,0,0:0:0:0:
256,192,142546,1,8,0:0:0:0:
256,192,142608,1,0,0:0:0:0:
256,192,142671,1,8,0:0:0:0:
256,192,142733,1,8,0:0:0:0:
256,192,142796,1,0,0:0:0:0:
256,192,142858,1,8,0:0:0:0:
256,192,142921,1,0,0:0:0:0:
256,192,142983,1,0,0:0:0:0:
256,192,143046,1,12,0:0:0:0:
256,192,143296,1,0,0:0:0:0:
256,192,143421,1,12,0:0:0:0:
256,192,143671,1,12,0:0:0:0:
256,192,143921,1,0,0:0:0:0:
256,192,143983,1,8,0:0:0:0:
256,192,144046,1,0,0:0:0:0:
256,192,144171,1,8,0:0:0:0:
256,192,144233,1,8,0:0:0:0:
256,192,144296,1,0,0:0:0:0:
256,192,144421,1,8,0:0:0:0:
256,192,144483,1,0,0:0:0:0:
256,192,144546,1,8,0:0:0:0:
256,192,144796,1,0,0:0:0:0:
256,192,145046,1,8,0:0:0:0:
256,192,145296,1,8,0:0:0:0:
256,192,145421,1,8,0:0:0:0:
256,192,145483,1,8,0:0:0:0:
256,192,145546,1,8,0:0:0:0:
256,192,145671,1,8,0:0:0:0:
256,192,145796,1,0,0:0:0:0:
256,192,145921,1,12,0:0:0:0:
