osu file format v14

[General]
AudioFilename: audio.mp3
AudioLeadIn: 0
PreviewTime: 12096
Countdown: 1
SampleSet: Normal
StackLeniency: 0.7
Mode: 0
LetterboxInBreaks: 0
WidescreenStoryboard: 1

[Editor]
Bookmarks: 0,6193,24774,35612,37161,49548,61935,68129,71225,74322,86709,91354,97548,103741,108387,111483
DistanceSpacing: 1.4
BeatDivisor: 4
GridSize: 4
TimelineZoom: 1.9

[Metadata]
Title:Overcast
TitleUnicode:Overcast
Artist:isocosa
ArtistUnicode:isocosa
Creator:Agrrox
Version:chill
Source:BMS
Tags:
BeatmapID:1576086
BeatmapSetID:748070

[Difficulty]
HPDrainRate:7
CircleSize:4
OverallDifficulty:8
ApproachRate:8
SliderMultiplier:1.00000000596046
SliderTickRate:1

[Events]
//Background and Video events
0,0,"overcast_bga.png",0,0
//Break Periods
//Storyboard Layer 0 (Background)
//Storyboard Layer 1 (Fail)
//Storyboard Layer 2 (Pass)
//Storyboard Layer 3 (Foreground)
//Storyboard Sound Samples

[TimingPoints]
0,387.096774193548,4,1,0,50,1,0
0,-100,4,2,0,50,0,0
12387,-100,4,1,0,50,0,0

[Colours]
Combo1 : 198,229,90
Combo2 : 0,0,255
Combo3 : 0,255,0
Combo4 : 0,255,255

[HitObjects]
88,192,0,6,0,P|124:168|176:172,3,75.0000004470348
160,240,1161,2,0,L|224:240,1,50.0000002980232
260,240,1548,6,0,P|296:235|326:213,4,75.0000004470348
176,184,3096,2,0,P|212:160|264:164,3,75.0000004470348
208,224,4258,2,0,L|264:224,1,50.000000298023
296,192,4645,2,0,P|303:234|278:280,4,75.0000004470348
236,112,6193,2,0,L|320:112,1,75.0000004470345
344,180,6774,2,0,L|264:180,1,75.0000004470345
212,228,7354,2,0,L|280:228,1,50.000000298023
296,268,7741,6,0,L|296:360,1,75.0000004470345
220,332,8322,2,0,L|128:332,2,75.0000004470345
216,232,9290,6,0,L|136:232,1,75.0000004470345
140,116,9870,2,0,L|232:116,1,75.0000004470345
252,180,10451,2,0,L|320:180,1,50.000000298023
328,224,10838,6,0,L|328:304,1,75.0000004470345
252,300,11419,2,0,L|252:204,2,75.0000004470345
172,236,12387,2,0,L|172:144,1,75.0000004470345
184,136,12967,2,0,L|268:136,1,75.0000004470345
236,192,13548,2,0,L|168:192,1,50.000000298023
176,240,13935,6,0,L|176:320,1,75.0000004470345
252,312,14516,2,0,L|336:312,2,75.0000004470345
248,212,15483,2,0,L|248:120,1,75.0000004470345
320,116,16064,2,0,L|320:212,1,75.0000004470345
316,268,16645,2,0,L|388:268,1,50.000000298023
416,268,17032,6,0,L|416:180,3,75.0000004470345
416,116,18193,2,0,L|416:44,1,50.000000298023
368,56,18580,2,0,L|276:56,1,75.0000004470345
216,56,19161,2,0,L|124:56,1,75.0000004470345
144,132,19741,2,0,L|144:192,2,50.000000298023
144,56,20419,2,0,L|48:56,3,75.0000004470345
52,304,21677,2,0,L|144:304,3,75.0000004470345
128,228,22838,2,0,L|192:228,1,50.000000298023
228,228,23225,6,0,L|320:228,3,75.0000004470345
256,168,24387,1,0,0:0:0:0:
352,140,24774,6,0,P|240:64|40:208,1,400.000002384184
92,280,26709,1,0,0:0:0:0:
184,320,27096,1,0,0:0:0:0:
284,316,27483,1,0,0:0:0:0:
376,280,27870,6,0,P|368:140|128:88,1,400.000002384184
68,136,29806,1,0,0:0:0:0:
60,236,30193,1,0,0:0:0:0:
136,300,30580,1,0,0:0:0:0:
236,288,30967,6,0,B|388:288|388:288|320:208|320:208|320:56,1,400.000002384184
252,140,32903,1,0,0:0:0:0:
204,52,33290,1,0,0:0:0:0:
156,140,33677,1,0,0:0:0:0:
104,56,34064,6,0,B|32:172|64:296|64:296|188:204,1,400.000002384184
256,192,35999,12,0,37548,0:0:0:0:
256,192,38322,5,0,0:0:0:0:
260,92,38709,2,0,P|335:132|168:248,1,400.000002384184
252,196,40645,1,0,0:0:0:0:
260,92,41032,1,0,0:0:0:0:
344,144,41419,1,0,0:0:0:0:
340,244,41806,6,0,P|260:292|264:96,1,400.000002384184
256,196,43741,1,0,0:0:0:0:
292,104,44129,1,0,0:0:0:0:
384,144,44516,1,0,0:0:0:0:
352,240,44903,1,0,0:0:0:0:
416,316,45290,1,0,0:0:0:0:
316,324,45677,1,0,0:0:0:0:
272,236,46064,1,0,0:0:0:0:
204,308,46451,1,0,0:0:0:0:
148,224,46838,1,0,0:0:0:0:
256,192,47225,12,0,49161,0:0:0:0:
328,120,49548,6,0,L|412:120,3,75.0000004470345
392,196,50709,2,0,L|392:252,1,50.000000298023
316,196,51096,6,0,L|228:196,2,75.0000004470345
316,120,51967,2,0,L|316:24,1,75.0000004470345
216,44,52645,2,0,L|216:132,3,75.0000004470345
216,196,53806,2,0,L|148:196,1,50.000000298023
116,196,54193,6,0,L|116:276,4,75.0000004470345
296,216,55741,2,0,L|296:124,3,75.0000004470345
220,88,56903,2,0,L|164:88,1,50.000000298023
88,128,57290,2,0,L|88:224,1,75.0000004470345
172,308,57870,2,0,L|264:308,2,75.0000004470345
212,180,58838,2,0,L|304:180,1,75.0000004470345
400,104,59419,2,0,L|400:184,1,75.0000004470345
264,180,59999,2,0,L|264:236,9,50.000000298023
188,280,61935,2,0,P|148:172|340:132,1,350.000002086161
327,117,63483,2,0,P|331:249|168:264,1,325.000001937149
169,265,65032,2,0,P|156:124|328:112,1,350.000002086161
326,110,66580,2,0,P|208:84|176:272,1,350.000002086161
169,265,68129,2,0,P|344:244|324:104,1,350.000002086161
327,107,69677,2,0,P|168:100|172:260,1,350.000002086161
165,253,71225,2,0,P|340:252|320:104,1,350.000002086161
332,116,72774,2,0,L|40:328,1,350.000002086161
