osu file format v14

[General]
AudioFilename: audio.mp3
AudioLeadIn: 0
PreviewTime: 12096
Countdown: 1
SampleSet: Normal
StackLeniency: 0.7
Mode: 0
LetterboxInBreaks: 0
WidescreenStoryboard: 0

[Editor]
Bookmarks: 0,6193,24774,35612,37161,49548,61935,68129,71225,74322,86709,91354,97548,103741,108387,111483
DistanceSpacing: 1
BeatDivisor: 4
GridSize: 4
TimelineZoom: 1.9

[Metadata]
Title:Overcast
TitleUnicode:Overcast
Artist:isocosa
ArtistUnicode:isocosa
Creator:Agrrox
Version:Insane
Source:BMS
Tags:
BeatmapID:1576066
BeatmapSetID:748070

[Difficulty]
HPDrainRate:7
CircleSize:4
OverallDifficulty:8
ApproachRate:9
SliderMultiplier:2
SliderTickRate:1

[Events]
//Background and Video events
0,0,"overcast_bga.png",0,0
//Break Periods
2,26329,96948
2,111683,121335
//Storyboard Layer 0 (Background)
//Storyboard Layer 1 (Fail)
//Storyboard Layer 2 (Pass)
//Storyboard Layer 3 (Foreground)
//Storyboard Sound Samples

[TimingPoints]
0,387.096774193548,4,1,0,50,1,0
0,-100,4,2,0,50,0,0
12387,-100,4,1,0,50,0,0

[Colours]
Combo1 : 198,229,90
Combo2 : 0,0,255
Combo3 : 0,255,0
Combo4 : 0,255,255

[HitObjects]
96,88,0,5,0,0:0:0:0:
127,119,290,1,0,0:0:0:0:
366,119,580,1,0,0:0:0:0:
397,87,870,1,0,0:0:0:0:
256,280,1161,5,0,0:0:0:0:
234,258,1354,1,0,0:0:0:0:
344,140,1548,1,0,0:0:0:0:
376,288,1838,2,0,L|323:289,1,50
139,296,2129,1,0,0:0:0:0:
170,264,2419,1,0,0:0:0:0:
364,124,2709,5,0,0:0:0:0:
364,124,3096,1,0,0:0:0:0:
395,155,3387,1,0,0:0:0:0:
172,248,3677,1,0,0:0:0:0:
140,216,3967,1,0,0:0:0:0:
368,288,4258,5,0,0:0:0:0:
389,266,4451,1,0,0:0:0:0:
276,152,4645,1,0,0:0:0:0:
244,183,4935,1,0,0:0:0:0:
52,328,5225,6,0,L|76:276,1,50
84,128,5516,2,0,L|136:160,1,50
236,272,5806,2,0,L|168:284,1,50
88,60,6193,5,0,0:0:0:0:
158,130,6387,1,0,0:0:0:0:
228,59,6580,1,0,0:0:0:0:
298,129,6774,1,0,0:0:0:0:
298,129,6870,1,0,0:0:0:0:
298,129,6967,2,0,L|377:47,1,100
367,56,7741,5,0,0:0:0:0:
281,141,7935,1,0,0:0:0:0:
281,261,8129,1,0,0:0:0:0:
372,180,8322,1,0,0:0:0:0:
384,212,8419,1,0,0:0:0:0:
408,188,8516,1,0,0:0:0:0:
399,61,8709,1,0,0:0:0:0:
399,61,9290,5,0,0:0:0:0:
324,152,9483,1,0,0:0:0:0:
238,66,9677,1,0,0:0:0:0:
153,150,9870,1,0,0:0:0:0:
153,150,9967,1,0,0:0:0:0:
153,150,10064,2,0,L|208:264,1,100
304,292,10451,5,0,0:0:0:0:
304,292,10548,1,0,0:0:0:0:
304,292,10645,2,0,L|396:236,1,100,8|0,0:0|0:0,0:0:0:0:
388,120,11032,1,0,0:0:0:0:
388,120,11129,1,0,0:0:0:0:
388,120,11225,5,0,0:0:0:0:
244,84,11419,1,0,0:0:0:0:
248,308,11709,2,0,L|208:264,1,50
152,192,11999,1,0,0:0:0:0:
152,192,12387,6,0,L|240:164,1,50
272,160,12580,1,0,0:0:0:0:
272,160,12677,2,0,L|236:233,1,50
104,176,12967,2,0,L|136:128,1,50
280,100,13258,2,0,L|252:148,1,50
112,104,13548,2,0,L|136:60,1,50
208,76,13741,2,0,L|180:128,1,50
148,188,13935,6,0,P|116:196|128:184,1,100
116,132,14225,1,0,0:0:0:0:
116,132,14322,1,0,0:0:0:0:
84,316,14516,2,0,L|140:288,1,50
173,270,14709,1,0,0:0:0:0:
216,244,14806,2,0,L|216:188,1,50
328,132,15096,2,0,L|268:132,1,50
56,132,15483,6,0,L|136:132,1,50
188,260,15677,1,0,0:0:0:0:
188,260,15774,2,0,L|228:212,1,50
340,132,16064,2,0,L|360:188,1,50
372,328,16258,1,0,0:0:0:0:
372,328,16354,2,0,L|336:260,1,50
240,176,16645,2,0,L|260:224,1,50
196,264,16838,2,0,L|172:212,1,50
140,152,17032,6,0,L|252:88,1,100
300,124,17322,2,0,L|324:176,1,50
280,312,17612,2,0,P|240:320|212:304,2,50
280,312,17903,1,0,0:0:0:0:
280,312,17999,1,0,0:0:0:0:
336,228,18193,1,0,0:0:0:0:
180,100,18580,5,0,0:0:0:0:
128,212,18774,1,0,0:0:0:0:
128,212,18870,2,0,L|180:212,1,50
280,212,19161,2,0,L|352:212,1,50
380,212,19354,1,0,0:0:0:0:
380,212,19451,2,0,L|340:268,1,50
264,300,19741,5,0,0:0:0:0:
256,192,22838,12,0,24774,0:0:0:0:
128,236,25161,5,0,0:0:0:0:
228,244,25354,1,0,0:0:0:0:
276,236,25451,1,0,0:0:0:0:
328,216,25548,1,0,0:0:0:0:
364,180,25645,1,0,0:0:0:0:
392,140,25741,1,0,0:0:0:0:
292,120,25935,1,0,0:0:0:0:
192,116,26129,1,0,0:0:0:0:
76,168,97548,6,0,B|0:20|176:132|176:132|548:24|-32:304|376:324,1,700
180,232,103741,6,0,B|68:76|252:256|252:256|156:4|328:272|328:272|312:176,1,600
76,168,108387,6,0,B|228:24|228:24|176:132|176:132|320:84|320:84|112:248|112:248|340:144|340:144|176:296|176:296|364:198|364:198|248:352,1,1600
256,192,121935,12,0,123864,0:0:0:0:
