osu file format v14

[General]
AudioFilename: audio.mp3
AudioLeadIn: 0
PreviewTime: 89349
Countdown: 1
SampleSet: Drum
StackLeniency: 0.7
Mode: 0
LetterboxInBreaks: 0
WidescreenStoryboard: 1

[Editor]
DistanceSpacing: 1.3
BeatDivisor: 8
GridSize: 4
TimelineZoom: 3.5

[Metadata]
Title:V.I.P.
TitleUnicode:V.I.P.
Artist:ismk
ArtistUnicode:ismk
Creator:Rucker
Version:Suiler
Source:SDVX
Tags:
BeatmapID:2782826
BeatmapSetID:1026034

[Difficulty]
HPDrainRate:4
CircleSize:4.1
OverallDifficulty:8.5
ApproachRate:9.6
SliderMultiplier:2
SliderTickRate:1

[Events]
//Background and Video events
0,0,"gettyimages-925306698.jpg",0,0
//Break Periods
//Storyboard Layer 0 (Background)
//Storyboard Layer 1 (Fail)
//Storyboard Layer 2 (Pass)
//Storyboard Layer 3 (Foreground)
//Storyboard Layer 4 (Overlay)
//Storyboard Sound Samples

[TimingPoints]
1302,355.029585798817,4,1,0,100,1,0
7603,-100,4,1,0,5,0,0
7692,-100,4,1,0,100,0,0
31124,-200,4,1,0,100,0,0
42485,-100,4,1,0,100,0,0
53846,-333.333333333333,4,1,0,5,0,0
59526,-200,4,1,0,35,0,0
63787,-1000,4,1,0,35,0,0
63787,-1000,4,1,0,5,0,0
65207,-100,4,3,0,80,0,0
76568,-100,4,2,0,80,0,0
85088,-200,4,1,0,80,0,0
85444,-133.333333333333,4,1,0,80,0,0
85799,-100,4,1,0,80,0,0
86154,-66.6666666666667,4,1,0,80,0,0
86509,-50,4,1,0,80,0,0
86686,-45.4545454545455,4,1,0,80,0,0
86864,-41.6666666666667,4,1,0,80,0,0
87041,-38.4615384615385,4,1,0,80,0,0
87219,-35.7142857142857,4,1,0,80,0,0
87396,-33.3333333333333,4,1,0,80,0,0
87574,-31.25,4,1,0,80,0,0
87751,-29.4117647058824,4,1,0,80,0,0
87929,-200,4,1,0,80,0,0
88639,-66.6666666666667,4,1,0,80,0,0

[HitObjects]
51,174,1302,6,0,L|72:99,1,50,4|0,0:0|0:0,0:0:0:0:
154,133,1479,2,0,L|175:58,1,50,4|0,0:0|0:0,0:0:0:0:
256,88,1657,1,8,0:0:0:0:
264,68,1745,1,0,0:0:0:0:
272,48,1834,1,0,0:0:0:0:
432,252,2100,6,0,L|504:220,2,50
356,200,2367,1,8,0:0:0:0:
336,220,2455,1,0,0:0:0:0:
324,248,2544,1,0,0:0:0:0:
327,277,2633,1,0,0:0:0:0:
343,302,2722,2,0,L|265:294,1,50
182,366,2899,2,0,L|257:356,1,50
228,236,3077,1,8,0:0:0:0:
212,244,3165,1,0,0:0:0:0:
196,252,3254,1,0,0:0:0:0:
63,131,3520,6,0,L|-9:163,2,50
164,36,3787,1,8,0:0:0:0:
188,52,3875,1,0,0:0:0:0:
200,80,3964,1,0,0:0:0:0:
196,108,4053,1,0,0:0:0:0:
180,132,4142,2,0,L|112:116,1,50,4|0,0:0|0:0,0:0:0:0:
175,234,4319,2,0,L|253:257,1,50
292,352,4497,1,8,0:0:0:0:
284,324,4586,1,0,0:0:0:0:
276,296,4674,1,0,0:0:0:0:
152,132,4941,6,0,L|140:76,2,50
248,224,5207,1,8,0:0:0:0:
256,200,5296,1,0,0:0:0:0:
264,176,5384,1,0,0:0:0:0:
272,152,5473,1,0,0:0:0:0:
280,124,5562,2,0,L|297:74,1,50,4|0,0:0|0:0,0:0:0:0:
397,27,5739,2,0,L|407:76,1,50
440,240,5917,1,8,0:0:0:0:
432,200,6006,1,0,0:0:0:0:
424,160,6094,1,0,0:0:0:0:
127,267,6361,5,0,0:0:0:0:
127,267,6449,1,0,0:0:0:0:
127,267,6538,1,0,0:0:0:0:
162,302,6627,1,12,0:0:0:0:
211,310,6716,1,0,0:0:0:0:
253,284,6804,1,0,0:0:0:0:
275,239,6893,1,0,0:0:0:0:
256,192,6982,1,4,0:0:0:0:
256,192,7071,12,0,7603,0:0:0:0:
68,288,7692,6,0,P|50:256|53:218,1,50
148,209,7870,2,0,P|142:181|113:158,1,50
64,67,8047,2,0,L|47:121,1,50
175,77,8225,2,0,L|201:-8,1,50
283,168,8402,6,0,L|271:93,1,50,6|0,0:0|0:0,0:0:0:0:
378,229,8580,1,0,0:0:0:0:
414,243,8668,2,0,L|434:153,1,50,2|8,0:0|0:0,0:0:0:0:
378,43,8846,5,0,0:0:0:0:
351,73,8935,1,2,0:0:0:0:
311,79,9023,1,0,0:0:0:0:
271,70,9112,2,0,L|194:44,1,50,2|0,0:0|0:0,0:0:0:0:
108,115,9290,1,0,0:0:0:0:
72,133,9378,2,0,P|53:109|55:68,1,50,2|8,0:0|0:0,0:0:0:0:
91,323,9556,5,0,0:0:0:0:
82,283,9645,1,2,0:0:0:0:
105,250,9733,1,0,0:0:0:0:
143,239,9822,2,0,P|173:225|194:176,1,50,2|0,0:0|0:0,0:0:0:0:
315,316,10000,1,0,0:0:0:0:
281,337,10088,2,0,L|271:245,1,50,2|8,0:0|0:0,0:0:0:0:
261,87,10266,5,0,0:0:0:0:
285,130,10355,1,2,0:0:0:0:
261,174,10444,5,0,0:0:0:0:
232,165,10532,1,2,0:0:0:0:
203,156,10621,1,0,0:0:0:0:
173,148,10710,1,0,0:0:0:0:
143,155,10799,5,0,0:0:0:0:
110,192,10887,1,10,0:0:0:0:
102,241,10976,1,0,0:0:0:0:
123,286,11065,1,0,0:0:0:0:
167,309,11154,1,0,0:0:0:0:
216,305,11242,6,0,L|283:293,1,50,2|0,0:0|0:0,0:0:0:0:
410,200,11420,1,0,0:0:0:0:
436,242,11509,2,0,L|373:233,1,50,2|8,0:0|0:0,0:0:0:0:
211,118,11686,1,0,0:0:0:0:
239,76,11775,1,2,0:0:0:0:
287,61,11864,1,0,0:0:0:0:
336,65,11952,2,0,L|352:119,1,50,2|0,0:0|0:0,0:0:0:0:
372,331,12130,5,0,0:0:0:0:
327,308,12219,1,2,0:0:0:0:
304,264,12307,1,8,0:0:0:0:
309,214,12396,1,0,0:0:0:0:
344,178,12485,2,0,P|352:143|336:109,1,50,2|0,0:0|0:0,0:0:0:0:
160,44,12662,5,2,0:0:0:0:
168,52,12751,1,0,0:0:0:0:
176,60,12840,1,0,0:0:0:0:
184,68,12929,1,0,0:0:0:0:
192,76,13017,1,10,0:0:0:0:
200,84,13106,1,0,0:0:0:0:
208,92,13195,1,0,0:0:0:0:
216,100,13284,1,0,0:0:0:0:
224,108,13373,5,2,0:0:0:0:
271,94,13461,1,0,0:0:0:0:
319,83,13550,1,2,0:0:0:0:
389,118,13639,5,0,0:0:0:0:
343,138,13728,1,10,0:0:0:0:
296,154,13816,1,0,0:0:0:0:
254,220,13905,5,2,0:0:0:0:
302,208,13994,1,0,0:0:0:0:
341,238,14083,2,0,L|322:289,1,50,2|0,0:0|0:0,0:0:0:0:
191,345,14260,5,0,0:0:0:0:
173,298,14349,2,0,L|154:235,1,50,2|8,0:0|0:0,0:0:0:0:
16,96,14526,1,0,0:0:0:0:
28,136,14615,1,2,0:0:0:0:
40,176,14704,1,0,0:0:0:0:
52,212,14793,2,0,L|72:283,1,50,2|0,0:0|0:0,0:0:0:0:
191,345,14970,1,0,0:0:0:0:
200,308,15059,2,0,L|216:228,1,50,2|8,0:0|0:0,0:0:0:0:
404,248,15236,5,0,0:0:0:0:
368,228,15325,1,2,0:0:0:0:
336,208,15414,1,0,0:0:0:0:
300,188,15503,2,0,L|232:152,1,50,2|0,0:0|0:0,0:0:0:0:
180,24,15680,1,0,0:0:0:0:
172,64,15769,2,0,L|156:136,1,50,2|8,0:0|0:0,0:0:0:0:
288,312,15946,5,0,0:0:0:0:
260,260,16035,1,2,0:0:0:0:
320,264,16124,5,0,0:0:0:0:
349,257,16213,1,2,0:0:0:0:
369,234,16302,1,0,0:0:0:0:
372,204,16390,1,2,0:0:0:0:
357,177,16479,5,0,0:0:0:0:
306,144,16568,1,10,0:0:0:0:
292,85,16657,1,0,0:0:0:0:
322,34,16745,1,2,0:0:0:0:
380,18,16834,1,0,0:0:0:0:
430,50,16923,6,0,L|413:107,1,50,2|0,0:0|0:0,0:0:0:0:
224,217,17100,1,0,0:0:0:0:
265,173,17189,2,0,L|251:91,1,50,2|8,0:0|0:0,0:0:0:0:
430,50,17367,5,0,0:0:0:0:
381,83,17455,1,2,0:0:0:0:
372,142,17544,1,0,0:0:0:0:
415,184,17633,2,0,L|488:163,1,50,2|0,0:0|0:0,0:0:0:0:
414,321,17810,5,0,0:0:0:0:
381,270,17899,2,0,L|316:247,1,50,2|8,0:0|0:0,0:0:0:0:
120,167,18077,1,0,0:0:0:0:
164,206,18165,2,0,L|248:191,1,50,2|0,0:0|0:0,0:0:0:0:
307,347,18343,5,2,0:0:0:0:
249,330,18432,1,0,0:0:0:0:
226,274,18520,1,0,0:0:0:0:
249,218,18609,1,0,0:0:0:0:
304,194,18698,1,10,0:0:0:0:
362,206,18787,1,0,0:0:0:0:
412,174,18875,1,2,0:0:0:0:
428,116,18964,1,0,0:0:0:0:
399,63,19053,1,2,0:0:0:0:
341,44,19142,1,0,0:0:0:0:
285,65,19230,1,2,0:0:0:0:
269,123,19319,1,0,0:0:0:0:
222,161,19408,1,10,0:0:0:0:
162,153,19497,1,0,0:0:0:0:
127,103,19586,1,2,0:0:0:0:
142,45,19674,1,0,0:0:0:0:
192,12,19763,2,0,L|265:45,1,50,6|0,0:0|0:0,0:0:0:0:
40,161,19941,5,0,0:0:0:0:
86,124,20029,2,0,L|172:109,1,50,2|8,0:0|0:0,0:0:0:0:
282,338,20207,1,0,0:0:0:0:
224,319,20296,1,2,0:0:0:0:
202,263,20384,1,0,0:0:0:0:
227,208,20473,2,0,L|256:124,1,50,2|0,0:0|0:0,0:0:0:0:
361,35,20651,5,0,0:0:0:0:
396,82,20739,2,0,L|373:147,1,50,2|8,0:0|0:0,0:0:0:0:
114,149,20917,1,0,0:0:0:0:
156,191,21006,1,2,0:0:0:0:
214,201,21094,1,0,0:0:0:0:
267,172,21183,2,0,P|290:146|288:107,1,50,2|0,0:0|0:0,0:0:0:0:
468,250,21361,5,0,0:0:0:0:
428,205,21449,2,0,L|350:187,1,50,2|8,0:0|0:0,0:0:0:0:
207,63,21627,5,0,0:0:0:0:
280,30,21716,1,2,0:0:0:0:
341,80,21804,5,0,0:0:0:0:
366,134,21893,1,2,0:0:0:0:
348,191,21982,1,0,0:0:0:0:
295,221,22071,1,2,0:0:0:0:
236,208,22159,1,2,0:0:0:0:
175,208,22248,1,8,0:0:0:0:
127,244,22337,1,0,0:0:0:0:
117,303,22426,1,2,0:0:0:0:
151,352,22515,1,0,0:0:0:0:
208,364,22603,2,0,L|268:355,1,50,2|0,0:0|0:0,0:0:0:0:
468,293,22781,5,0,0:0:0:0:
413,268,22870,2,0,L|344:259,1,50,2|8,0:0|0:0,0:0:0:0:
217,99,23047,5,0,0:0:0:0:
275,84,23136,1,2,0:0:0:0:
333,69,23225,1,0,0:0:0:0:
391,57,23313,2,0,L|470:37,1,50,2|0,0:0|0:0,0:0:0:0:
350,258,23491,5,0,0:0:0:0:
362,199,23580,2,0,B|373:139,1,50,2|8,0:0|0:0,0:0:0:0:
172,45,23757,1,0,0:0:0:0:
228,65,23846,2,0,L|290:89,1,50,2|0,0:0|0:0,0:0:0:0:
60,232,24023,5,2,0:0:0:0:
64,216,24112,1,0,0:0:0:0:
68,200,24201,1,0,0:0:0:0:
72,184,24290,1,0,0:0:0:0:
76,168,24378,1,10,0:0:0:0:
80,152,24467,1,0,0:0:0:0:
84,136,24556,1,0,0:0:0:0:
88,120,24645,1,0,0:0:0:0:
92,108,24733,5,2,0:0:0:0:
149,126,24822,1,0,0:0:0:0:
207,112,24911,1,2,0:0:0:0:
248,68,25000,1,0,0:0:0:0:
257,9,25088,1,10,0:0:0:0:
289,59,25177,1,0,0:0:0:0:
344,81,25266,1,2,0:0:0:0:
403,70,25355,1,0,0:0:0:0:
450,33,25444,2,0,L|438:113,1,50
287,273,25621,5,0,0:0:0:0:
321,223,25710,2,0,L|341:140,1,50,0|10,0:0|0:0,0:0:0:0:
177,31,25887,5,0,0:0:0:0:
230,58,25976,1,0,0:0:0:0:
252,113,26065,1,0,0:0:0:0:
237,171,26154,2,0,L|172:188,1,50,2|0,0:0|0:0,0:0:0:0:
105,356,26331,5,0,0:0:0:0:
88,298,26420,2,0,L|67:222,1,50,0|10,0:0|0:0,0:0:0:0:
177,31,26597,5,0,0:0:0:0:
143,81,26686,1,0,0:0:0:0:
150,140,26775,1,0,0:0:0:0:
188,183,26864,2,0,L|265:193,1,50,2|0,0:0|0:0,0:0:0:0:
428,293,27041,1,0,0:0:0:0:
369,306,27130,2,0,L|298:319,1,50,0|8,0:0|0:0,0:0:0:0:
330,79,27307,5,0,0:0:0:0:
330,79,27396,1,0,0:0:0:0:
330,79,27485,1,0,0:0:0:0:
278,109,27574,1,0,0:0:0:0:
217,106,27662,1,0,0:0:0:0:
170,68,27751,1,0,0:0:0:0:
154,9,27840,1,0,0:0:0:0:
99,34,27929,1,10,0:0:0:0:
65,83,28018,1,0,0:0:0:0:
57,142,28106,1,0,0:0:0:0:
76,198,28195,1,0,0:0:0:0:
117,241,28284,2,0,L|183:194,1,50,6|0,0:0|0:0,0:0:0:0:
278,310,28461,5,0,0:0:0:0:
239,356,28550,2,0,L|187:290,1,50,2|8,0:0|0:0,0:0:0:0:
276,94,28728,5,0,0:0:0:0:
294,150,28816,1,2,0:0:0:0:
311,207,28905,1,0,0:0:0:0:
329,264,28994,2,0,L|397:277,1,50,6|0,0:0|0:0,0:0:0:0:
276,94,29171,5,0,0:0:0:0:
335,87,29260,2,0,L|425:79,1,50,2|8,0:0|0:0,0:0:0:0:
194,46,29438,1,0,0:0:0:0:
135,34,29526,2,0,L|61:23,1,50,2|0,0:0|0:0,0:0:0:0:
101,278,29704,5,6,0:0:0:0:
67,240,29793,1,0,0:0:0:0:
66,190,29881,1,0,0:0:0:0:
93,147,29970,1,0,0:0:0:0:
140,130,30059,1,8,0:0:0:0:
187,146,30148,1,0,0:0:0:0:
212,188,30236,1,0,0:0:0:0:
209,238,30325,1,0,0:0:0:0:
177,276,30414,5,12,0:0:0:0:
142,203,30503,1,8,0:0:0:0:
150,124,30591,1,12,0:0:0:0:
195,57,30680,1,8,0:0:0:0:
266,21,30769,1,12,0:0:0:0:
346,16,30858,1,12,0:0:0:0:
420,44,30947,1,12,0:0:0:0:
471,104,31035,1,12,0:0:0:0:
492,178,31124,6,0,L|454:191,3,25,6|0|0|0,0:0|0:0|0:0|0:0,0:0:0:0:
475,260,31479,2,0,L|447:268,3,25
381,221,31834,2,0,L|353:229,3,25
363,305,32189,2,0,L|333:314,3,25
199,351,32544,2,0,L|208:316,3,25
284,298,32899,2,0,L|294:261,3,25
207,249,33254,6,0,L|217:185,1,50,2|0,0:0|0:0,0:0:0:0:
128,204,33520,2,0,L|138:141,1,50,2|0,0:0|0:0,0:0:0:0:
49,161,33787,1,2,0:0:0:0:
51,146,33875,1,0,0:0:0:0:
55,131,33964,2,0,L|61:90,2,25,2|0|0,0:0|0:0|0:0,0:0:0:0:
144,73,34230,1,0,0:0:0:0:
147,58,34319,2,0,L|156:11,2,25
204,132,34586,1,0,0:0:0:0:
202,146,34674,2,0,L|197:189,1,25
73,247,34852,5,0,0:0:0:0:
85,239,34941,1,0,0:0:0:0:
97,231,35029,1,0,0:0:0:0:
109,223,35118,1,0,0:0:0:0:
121,215,35207,2,0,L|154:192,1,25
143,321,35384,2,0,L|110:348,1,25
267,252,35562,1,0,0:0:0:0:
270,266,35651,2,0,L|280:312,1,25
432,334,35828,5,0,0:0:0:0:
416,330,35917,1,0,0:0:0:0:
400,326,36006,1,0,0:0:0:0:
384,322,36094,2,0,L|374:283,1,25,2|0,0:0|0:0,0:0:0:0:
441,205,36272,1,0,0:0:0:0:
457,201,36361,2,0,L|467:157,1,25,2|0,0:0|0:0,0:0:0:0:
330,48,36538,1,0,0:0:0:0:
346,52,36627,1,2,0:0:0:0:
362,56,36716,1,0,0:0:0:0:
374,60,36804,2,0,L|388:101,2,25,2|0|0,0:0|0:0|0:0,0:0:0:0:
310,200,37071,5,0,0:0:0:0:
294,196,37159,2,0,L|305:154,2,25
256,64,37426,1,0,0:0:0:0:
240,60,37515,2,0,L|203:54,1,25
125,180,37692,2,0,L|168:167,1,25
256,64,37870,1,0,0:0:0:0:
240,68,37958,1,0,0:0:0:0:
224,72,38047,1,0,0:0:0:0:
208,76,38136,1,0,0:0:0:0:
192,80,38225,2,0,L|163:88,1,25
47,163,38402,5,0,0:0:0:0:
61,166,38491,2,0,L|99:173,1,25
152,305,38668,1,0,0:0:0:0:
168,301,38757,1,0,0:0:0:0:
184,297,38846,1,0,0:0:0:0:
200,293,38935,2,0,L|210:251,1,25,2|0,0:0|0:0,0:0:0:0:
289,68,39112,1,0,0:0:0:0:
273,64,39201,2,0,L|263:98,1,25,2|0,0:0|0:0,0:0:0:0:
358,201,39378,1,0,0:0:0:0:
346,197,39467,2,0,L|337:231,1,25,2|0,0:0|0:0,0:0:0:0:
409,344,39645,5,6,0:0:0:0:
411,329,39733,1,0,0:0:0:0:
413,314,39822,1,0,0:0:0:0:
415,299,39911,1,0,0:0:0:0:
417,284,40000,1,0,0:0:0:0:
419,269,40088,1,0,0:0:0:0:
420,254,40177,2,0,L|425:211,1,25,0|2,0:0|0:0,0:0:0:0:
293,285,40355,5,6,0:0:0:0:
293,269,40443,1,0,0:0:0:0:
293,253,40532,1,0,0:0:0:0:
293,237,40621,1,0,0:0:0:0:
293,221,40710,1,0,0:0:0:0:
293,205,40798,1,0,0:0:0:0:
293,189,40887,2,0,L|293:157,1,25,0|2,0:0|0:0,0:0:0:0:
179,247,41065,5,6,0:0:0:0:
177,232,41154,1,0,0:0:0:0:
174,217,41242,2,0,L|168:176,1,25
66,210,41420,5,6,0:0:0:0:
62,195,41509,1,0,0:0:0:0:
57,180,41597,2,0,L|47:139,1,25
120,80,41775,6,0,L|104:56,1,18.75,6|0,0:0|0:0,0:0:0:0:
120,80,41864,2,0,L|125:51,1,18.75
120,80,41952,2,0,L|144:64,1,18.75,2|0,0:0|0:0,0:0:0:0:
120,80,42041,2,0,L|148:85,1,18.75
120,80,42130,2,0,L|135:104,1,18.75,6|0,0:0|0:0,0:0:0:0:
120,80,42219,2,0,L|114:108,1,18.75
120,80,42307,2,0,L|96:95,1,18.75,2|0,0:0|0:0,0:0:0:0:
120,80,42396,2,0,L|91:74,1,18.75
126,80,42485,5,6,0:0:0:0:
257,26,42662,1,0,0:0:0:0:
219,225,42840,2,0,L|243:146,1,50,8|0,0:0|0:0,0:0:0:0:
349,110,43017,1,0,0:0:0:0:
349,110,43106,2,0,L|310:253,1,100
446,345,43461,1,0,0:0:0:0:
446,345,43550,2,0,L|417:214,1,100,8|0,0:0|0:0,0:0:0:0:
406,50,43905,5,0,0:0:0:0:
151,94,44083,1,0,0:0:0:0:
200,87,44171,1,0,0:0:0:0:
241,59,44260,1,8,0:0:0:0:
406,50,44438,1,0,0:0:0:0:
295,207,44615,1,0,0:0:0:0:
216,26,44793,1,0,0:0:0:0:
414,144,44970,5,8,0:0:0:0:
414,144,45148,2,0,P|361:152|290:132,1,100
140,56,45503,1,0,0:0:0:0:
26,252,45680,1,8,0:0:0:0:
62,217,45769,1,0,0:0:0:0:
112,219,45858,1,0,0:0:0:0:
147,184,45946,1,0,0:0:0:0:
310,310,46124,1,0,0:0:0:0:
310,310,46213,2,0,L|321:343,2,33.3333333333333
288,260,46390,5,8,0:0:0:0:
130,336,46568,1,0,0:0:0:0:
261,186,46745,1,0,0:0:0:0:
83,249,46923,1,0,0:0:0:0:
256,345,47100,1,8,0:0:0:0:
116,181,47278,1,0,0:0:0:0:
342,226,47455,1,0,0:0:0:0:
292,231,47544,1,0,0:0:0:0:
319,52,47722,1,0,0:0:0:0:
279,81,47810,1,8,0:0:0:0:
80,156,47988,5,0,0:0:0:0:
96,108,48077,1,0,0:0:0:0:
112,60,48165,1,4,0:0:0:0:
64,208,48343,1,0,0:0:0:0:
184,28,48520,1,8,0:0:0:0:
204,76,48609,1,0,0:0:0:0:
264,92,48698,1,0,0:0:0:0:
244,48,48787,1,0,0:0:0:0:
48,136,48964,5,0,0:0:0:0:
180,312,49142,1,0,0:0:0:0:
144,280,49230,2,0,P|136:216|176:176,1,100,8|0,0:0|0:0,0:0:0:0:
312,68,49586,1,0,0:0:0:0:
344,276,49763,1,0,0:0:0:0:
324,228,49852,1,0,0:0:0:0:
336,180,49941,1,8,0:0:0:0:
456,68,50118,1,0,0:0:0:0:
260,188,50296,5,0,0:0:0:0:
432,140,50473,1,0,0:0:0:0:
228,60,50651,1,8,0:0:0:0:
360,224,50828,1,0,0:0:0:0:
436,88,51006,1,0,0:0:0:0:
248,176,51183,1,0,0:0:0:0:
444,292,51361,1,8,0:0:0:0:
477,255,51449,1,0,0:0:0:0:
481,205,51538,1,0,0:0:0:0:
463,157,51627,1,0,0:0:0:0:
316,52,51804,5,0,0:0:0:0:
316,52,51893,2,0,L|328:8,2,33.3333333333333
300,100,52071,1,8,0:0:0:0:
128,39,52248,1,0,0:0:0:0:
104,264,52426,2,0,L|119:205,1,50,12|0,0:0|0:0,0:0:0:0:
238,130,52603,2,0,L|226:182,1,50
154,305,52781,2,0,L|142:234,1,50,12|0,0:0|0:0,0:0:0:0:
189,92,52958,2,0,L|203:161,1,50
218,322,53136,2,0,L|184:263,1,50,12|0,0:0|0:0,0:0:0:0:
132,81,53313,2,0,L|157:137,1,50
283,321,53491,5,4,3:0:0:0:
345,271,53580,1,0,3:0:0:0:
372,195,53669,1,0,3:0:0:0:
352,117,53758,1,0,3:0:0:0:
300,58,53846,2,0,P|213:49|141:98,1,172.499994735718,4|0,0:0|0:0,0:0:0:0:
144,93,54911,5,0,0:0:0:0:
37,260,55266,2,0,P|124:271|194:221,1,172.499994735718,4|0,0:0|0:0,0:0:0:0:
190,225,56331,1,0,0:0:0:0:
447,324,56686,2,0,L|347:306,2,89.999997253418
271,221,58106,2,0,L|360:210,2,89.999997253418
48,164,59526,5,0,0:0:0:0:
124,140,59704,1,0,0:0:0:0:
200,120,59881,1,0,0:0:0:0:
276,100,60059,2,0,B|304:16|304:16|336:44|308:88,1,150
352,344,60946,5,0,0:0:0:0:
340,264,61124,1,0,0:0:0:0:
328,184,61302,1,0,0:0:0:0:
316,104,61479,2,0,B|248:92|216:124|216:124|172:96,1,150
112,308,62367,5,0,0:0:0:0:
144,236,62544,1,0,0:0:0:0:
172,160,62722,1,0,0:0:0:0:
208,88,62899,2,0,P|236:24|320:24,1,150
256,340,63787,6,0,L|256:263,1,77.5
256,262,65207,5,6,0:0:0:0:
342,113,65384,1,2,0:0:0:0:
398,281,65562,1,2,0:0:0:0:
198,181,65739,1,2,0:0:0:0:
196,140,65828,1,0,0:0:0:0:
214,104,65917,1,0,0:0:0:0:
246,80,66006,1,0,0:0:0:0:
285,74,66094,1,2,0:0:0:0:
417,253,66272,6,0,P|442:198|432:151,1,100,0|2,0:0|0:0,0:0:0:0:
436,160,66538,1,0,0:0:0:0:
436,160,66627,1,0,0:0:0:0:
318,321,66804,1,2,0:0:0:0:
256,133,66982,1,2,0:0:0:0:
278,312,67159,1,2,0:0:0:0:
278,312,67248,1,0,0:0:0:0:
278,312,67337,2,0,L|210:318,1,50,2|0,0:0|0:0,0:0:0:0:
166,222,67515,2,0,L|111:208,1,50,2|0,0:0|0:0,0:0:0:0:
75,101,67692,1,2,0:0:0:0:
67,113,67781,1,0,0:0:0:0:
59,125,67870,1,2,0:0:0:0:
303,119,68047,5,2,0:0:0:0:
119,75,68225,1,2,0:0:0:0:
202,250,68402,1,2,0:0:0:0:
322,59,68580,1,2,0:0:0:0:
290,82,68668,1,0,0:0:0:0:
276,119,68757,1,0,0:0:0:0:
278,159,68846,1,0,0:0:0:0:
297,194,68935,1,2,0:0:0:0:
238,338,69112,5,0,0:0:0:0:
447,290,69290,1,2,0:0:0:0:
407,294,69378,1,0,0:0:0:0:
368,282,69467,1,0,0:0:0:0:
335,257,69556,1,0,0:0:0:0:
312,223,69645,1,2,0:0:0:0:
308,184,69733,1,0,0:0:0:0:
324,147,69822,2,0,L|334:83,1,50
203,7,70000,2,0,L|215:70,1,50,2|0,0:0|0:0,0:0:0:0:
8,64,70177,1,2,0:0:0:0:
27,70,70266,1,0,0:0:0:0:
46,76,70355,2,0,L|108:95,1,50,2|0,0:0|0:0,0:0:0:0:
204,216,70532,1,2,0:0:0:0:
183,209,70621,1,0,0:0:0:0:
164,203,70710,2,0,L|109:186,1,50,2|0,0:0|0:0,0:0:0:0:
112,344,70887,5,6,0:0:0:0:
128,340,70976,1,0,0:0:0:0:
144,336,71065,1,2,0:0:0:0:
160,332,71154,1,0,0:0:0:0:
176,328,71242,1,2,0:0:0:0:
192,324,71331,1,0,0:0:0:0:
208,320,71420,1,2,0:0:0:0:
224,316,71509,1,0,0:0:0:0:
240,312,71597,1,0,0:0:0:0:
256,308,71686,1,0,0:0:0:0:
272,304,71775,1,2,0:0:0:0:
288,300,71864,1,0,0:0:0:0:
300,296,71952,1,0,0:0:0:0:
316,292,72041,1,0,0:0:0:0:
332,288,72130,2,0,L|380:275,1,50,2|0,0:0|0:0,0:0:0:0:
112,344,72307,5,0,0:0:0:0:
128,340,72396,1,0,0:0:0:0:
144,336,72485,1,2,0:0:0:0:
160,332,72574,1,0,0:0:0:0:
176,328,72662,1,2,0:0:0:0:
192,324,72751,1,0,0:0:0:0:
208,320,72840,1,2,0:0:0:0:
224,316,72929,1,0,0:0:0:0:
236,312,73017,1,2,0:0:0:0:
252,308,73106,1,0,0:0:0:0:
268,304,73195,1,2,0:0:0:0:
284,300,73284,1,0,0:0:0:0:
300,296,73373,1,2,0:0:0:0:
312,292,73461,1,0,0:0:0:0:
328,288,73550,2,0,L|396:268,1,50,2|0,0:0|0:0,0:0:0:0:
112,344,73728,5,6,0:0:0:0:
150,332,73816,1,0,0:0:0:0:
188,322,73905,1,2,0:0:0:0:
227,312,73994,1,0,0:0:0:0:
265,301,74083,1,2,0:0:0:0:
304,291,74171,1,0,0:0:0:0:
343,281,74260,2,0,L|412:260,1,50,2|0,0:0|0:0,0:0:0:0:
112,344,74438,5,4,0:0:0:0:
150,332,74526,1,0,0:0:0:0:
188,322,74615,1,2,0:0:0:0:
227,312,74704,1,0,0:0:0:0:
265,301,74793,1,0,0:0:0:0:
304,291,74881,1,0,0:0:0:0:
343,281,74970,2,0,L|416:256,1,50,2|0,0:0|0:0,0:0:0:0:
112,344,75148,5,4,0:0:0:0:
180,324,75236,1,0,0:0:0:0:
248,304,75325,2,0,L|328:280,1,50,2|0,0:0|0:0,0:0:0:0:
117,352,75503,5,6,0:0:0:0:
205,328,75591,1,0,0:0:0:0:
293,304,75680,2,0,L|373:280,1,50,2|0,0:0|0:0,0:0:0:0:
119,359,75858,6,0,L|142:352,1,25,6|0,0:0|0:0,0:0:0:0:
145,351,75946,2,0,L|168:344,1,25,6|0,0:0|0:0,0:0:0:0:
176,342,76035,2,0,L|199:335,1,25,6|0,0:0|0:0,0:0:0:0:
207,334,76124,2,0,L|230:327,1,25,6|0,0:0|0:0,0:0:0:0:
237,326,76213,2,0,L|260:319,1,25,6|0,0:0|0:0,0:0:0:0:
266,318,76302,2,0,L|289:311,1,25,6|0,0:0|0:0,0:0:0:0:
296,310,76390,2,0,L|319:303,1,25,6|0,0:0|0:0,0:0:0:0:
327,302,76479,2,0,L|350:295,1,25,6|0,0:0|0:0,0:0:0:0:
356,294,76568,6,0,L|345:242,1,50,6|0,0:0|0:0,0:0:0:0:
442,214,76745,2,0,L|453:150,1,50
356,100,76923,1,0,0:0:0:0:
352,76,77012,1,0,0:0:0:0:
348,52,77100,1,0,0:0:0:0:
128,40,77367,5,0,0:0:0:0:
132,64,77455,2,0,L|141:120,1,50
8,272,77633,5,0,0:0:0:0:
12,248,77722,1,0,0:0:0:0:
16,224,77810,1,0,0:0:0:0:
20,200,77899,1,0,0:0:0:0:
24,176,77988,2,0,L|32:124,1,50,4|0,0:0|0:0,0:0:0:0:
128,28,78165,2,0,L|136:84,1,50
224,208,78343,1,0,0:0:0:0:
220,184,78432,1,0,0:0:0:0:
216,160,78520,1,0,0:0:0:0:
448,328,78787,5,0,0:0:0:0:
422,326,78875,2,0,L|344:319,1,50
216,232,79053,5,0,0:0:0:0:
255,253,79142,1,0,0:0:0:0:
299,252,79230,1,0,0:0:0:0:
341,236,79319,1,0,0:0:0:0:
375,206,79408,2,0,L|385:140,1,50,4|0,0:0|0:0,0:0:0:0:
275,33,79586,2,0,L|285:94,1,50
446,165,79763,1,0,0:0:0:0:
440,151,79852,1,0,0:0:0:0:
434,137,79941,1,0,0:0:0:0:
183,351,80207,5,0,0:0:0:0:
163,356,80296,2,0,L|182:274,1,50
124,60,80473,1,0,0:0:0:0:
108,102,80562,1,0,0:0:0:0:
116,146,80651,1,0,0:0:0:0:
142,181,80739,1,0,0:0:0:0:
182,200,80828,2,0,L|207:137,1,50,4|0,0:0|0:0,0:0:0:0:
302,150,81006,2,0,L|296:101,1,50
411,78,81183,1,0,0:0:0:0:
406,63,81272,1,0,0:0:0:0:
401,48,81361,1,0,0:0:0:0:
78,64,81627,5,0,0:0:0:0:
69,76,81716,2,0,L|92:150,1,50
115,331,81893,5,0,0:0:0:0:
112,285,81982,1,0,0:0:0:0:
131,244,82071,1,0,0:0:0:0:
165,216,82159,1,0,0:0:0:0:
209,208,82248,2,0,L|265:203,1,50,4|0,0:0|0:0,0:0:0:0:
376,308,82426,2,0,L|315:300,1,50
353,113,82603,5,0,0:0:0:0:
323,147,82692,1,0,0:0:0:0:
310,190,82781,1,0,0:0:0:0:
317,234,82870,1,0,0:0:0:0:
338,273,82958,2,0,L|391:263,1,50,4|0,0:0|0:0,0:0:0:0:
495,183,83136,2,0,L|444:175,1,50,0|0,3:0|3:0,3:0:0:0:
288,28,83313,5,0,0:0:0:0:
280,72,83402,1,0,0:0:0:0:
272,116,83491,1,0,0:0:0:0:
264,160,83580,1,0,0:0:0:0:
252,204,83668,2,0,L|188:196,1,50,4|0,0:0|0:0,0:0:0:0:
88,280,83846,2,0,L|153:287,1,50
364,304,84023,5,0,0:0:0:0:
320,288,84112,1,0,0:0:0:0:
276,272,84201,1,0,0:0:0:0:
232,256,84290,1,0,0:0:0:0:
188,240,84378,2,0,L|120:216,1,50,4|0,0:0|0:0,0:0:0:0:
256,128,84556,2,0,L|338:150,1,50
236,356,84733,5,0,0:0:0:0:
256,292,84822,1,0,0:0:0:0:
276,228,84911,1,0,0:0:0:0:
300,168,85000,1,0,0:0:0:0:
320,104,85088,2,0,P|351:64|350:20,1,87.5,4|0,0:0|0:0,0:0:0:0:
332,5,85444,6,0,P|281:46|274:116,1,131.25000500679,4|0,0:0|0:0,0:0:0:0:
294,145,85799,6,0,P|368:88|366:4,1,175,4|0,0:0|0:0,0:0:0:0:
342,0,86154,6,0,P|229:79|245:211,1,262.500010013581,4|0,0:0|0:0,0:0:0:0:
179,233,86509,6,0,L|359:222,1,150,4|0,0:0|0:0,0:0:0:0:
343,246,86686,2,0,L|144:230,1,165.000005035401,4|0,0:0|0:0,0:0:0:0:
163,262,86864,6,0,L|382:242,1,179.999994506836,4|0,0:0|0:0,0:0:0:0:
357,279,87041,2,0,L|130:258,1,194.999991073609,4|0,0:0|0:0,0:0:0:0:
147,296,87219,6,0,L|385:276,1,209.999993591309,4|0,0:0|0:0,0:0:0:0:
370,321,87396,2,0,L|93:290,1,225.000008583069,4|0,0:0|0:0,0:0:0:0:
130,341,87574,6,0,L|383:319,1,240,4|0,0:0|0:0,0:0:0:0:
383,368,87751,2,0,L|89:336,1,255.000004863739,4|0,0:0|0:0,0:0:0:0:
104,376,87929,6,0,L|104:269,1,100,4|0,0:0|0:0,0:0:0:0:
40,104,88461,2,0,L|40:152,1,25
184,256,88639,5,0,0:0:0:0:
169,250,88728,1,0,0:0:0:0:
145,231,88816,1,0,0:0:0:0:
125,190,88905,1,0,0:0:0:0:
121,129,88994,1,0,0:0:0:0:
157,63,89083,1,0,0:0:0:0:
239,27,89171,1,0,0:0:0:0:
343,37,89260,1,0,0:0:0:0:
415,113,89349,6,0,L|293:97,1,75.0000028610231,12|0,0:0|0:0,0:0:0:0:
221,221,89526,2,0,L|307:212,1,75.0000028610231,2|0,0:0|0:0,0:0:0:0:
397,350,89704,1,2,0:0:0:0:
424,296,89793,1,0,0:0:0:0:
392,245,89881,2,0,L|372:170,1,75.0000028610231
212,83,90059,5,8,0:0:0:0:
248,35,90148,1,0,0:0:0:0:
306,21,90236,1,0,0:0:0:0:
365,28,90325,1,0,0:0:0:0:
409,68,90414,1,2,0:0:0:0:
368,112,90503,1,0,0:0:0:0:
311,131,90591,1,0,0:0:0:0:
252,116,90680,1,0,0:0:0:0:
212,83,90769,2,0,P|167:89|125:70,1,75.0000028610231,8|0,0:0|0:0,0:0:0:0:
8,162,90946,2,0,P|57:155|95:188,1,75.0000028610231
120,355,91124,6,0,L|108:273,1,75.0000028610231,10|0,0:0|0:0,0:0:0:0:
233,137,91302,2,0,L|220:224,1,75.0000028610231
436,319,91479,1,8,0:0:0:0:
379,340,91568,2,0,P|342:334|300:317,1,75.0000028610231
285,181,91745,1,0,0:0:0:0:
316,129,91834,1,2,0:0:0:0:
305,69,91923,1,0,0:0:0:0:
257,31,92012,2,0,P|239:60|233:133,1,75.0000028610231
79,254,92189,6,0,L|72:163,1,75.0000028610231,8|0,0:0|0:0,0:0:0:0:
165,41,92367,2,0,L|169:116,1,75.0000028610231
167,347,92544,1,2,0:0:0:0:
198,295,92633,1,0,0:0:0:0:
249,264,92722,2,0,L|321:244,1,75.0000028610231
440,80,92899,5,8,0:0:0:0:
444,108,92988,1,0,0:0:0:0:
448,140,93077,1,0,0:0:0:0:
452,168,93165,1,0,0:0:0:0:
456,196,93254,1,2,0:0:0:0:
456,256,93343,1,0,0:0:0:0:
415,300,93432,1,0,0:0:0:0:
355,305,93520,1,0,0:0:0:0:
307,268,93609,2,0,L|296:194,1,75.0000028610231,8|0,0:0|0:0,0:0:0:0:
410,47,93787,2,0,L|396:149,1,75.0000028610231
204,106,93964,6,0,P|208:64|248:40,1,75.0000028610231,2|0,0:0|0:0,0:0:0:0:
320,209,94142,2,0,P|316:251|276:275,1,75.0000028610231
99,114,94319,1,8,0:0:0:0:
156,130,94408,2,0,L|143:32,1,75.0000028610231
145,335,94586,1,0,0:0:0:0:
87,350,94674,1,2,0:0:0:0:
35,319,94763,1,0,0:0:0:0:
26,259,94852,2,0,L|42:180,1,75.0000028610231
190,55,95029,6,0,L|117:68,1,75.0000028610231,12|0,0:0|0:0,0:0:0:0:
311,115,95207,2,0,L|407:139,1,75.0000028610231
262,308,95384,1,2,0:0:0:0:
217,267,95473,1,0,0:0:0:0:
227,207,95562,2,0,P|242:166|239:122,1,75.0000028610231
352,32,95739,1,8,0:0:0:0:
363,91,95828,2,0,L|385:208,1,75.0000028610231
452,336,96006,1,0,0:0:0:0:
460,276,96094,1,2,0:0:0:0:
472,216,96183,1,0,0:0:0:0:
480,156,96272,2,0,L|492:76,1,75.0000028610231
156,160,96449,5,8,0:0:0:0:
172,102,96538,1,0,0:0:0:0:
209,55,96627,1,0,0:0:0:0:
263,30,96716,1,0,0:0:0:0:
324,24,96804,5,2,0:0:0:0:
320,52,96893,1,0,0:0:0:0:
316,80,96982,1,0,0:0:0:0:
312,108,97071,1,0,0:0:0:0:
308,136,97159,5,8,0:0:0:0:
296,196,97248,2,0,L|280:276,1,75.0000028610231
125,356,97426,1,0,0:0:0:0:
163,310,97515,1,2,0:0:0:0:
173,251,97603,1,0,0:0:0:0:
164,191,97692,2,0,P|157:154|168:117,1,75.0000028610231
315,32,97870,6,0,L|241:41,1,75.0000028610231,12|0,0:0|0:0,0:0:0:0:
92,108,98047,2,0,L|173:119,1,75.0000028610231
264,320,98225,1,2,0:0:0:0:
256,292,98313,1,0,0:0:0:0:
248,264,98402,1,0,0:0:0:0:
240,236,98491,1,0,0:0:0:0:
232,208,98580,2,0,P|236:164|284:144,1,75.0000028610231,12|0,0:0|0:0,0:0:0:0:
420,56,98757,2,0,P|416:100|368:120,1,75.0000028610231
100,40,98935,5,2,0:0:0:0:
100,106,99023,1,0,0:0:0:0:
143,158,99112,1,0,0:0:0:0:
210,165,99201,1,0,0:0:0:0:
268,131,99290,2,0,L|296:48,1,75.0000028610231,12|0,0:0|0:0,0:0:0:0:
432,233,99467,2,0,L|409:137,1,75.0000028610231
188,263,99645,2,0,P|232:259|282:236,1,75.0000028610231,14|0,0:0|0:0,0:0:0:0:
438,341,99822,2,0,P|395:333|354:305,1,75.0000028610231
308,56,100000,5,6,0:0:0:0:
320,136,100088,1,0,0:0:0:0:
336,216,100177,2,0,L|240:188,1,75.0000028610231
40,304,100355,5,6,0:0:0:0:
64,224,100444,1,0,0:0:0:0:
94,148,100532,2,0,L|186:132,1,75.0000028610231
296,32,100710,5,14,0:0:0:0:
262,90,100799,1,0,0:0:0:0:
279,154,100887,1,0,0:0:0:0:
339,184,100976,1,0,0:0:0:0:
406,175,101065,2,0,L|393:102,1,75.0000028610231,2|0,0:0|0:0,0:0:0:0:
243,20,101242,2,0,L|231:105,1,75.0000028610231
81,250,101420,1,2,0:0:0:0:
44,193,101509,2,0,P|52:150|78:124,1,75.0000028610231
349,38,101686,1,0,0:0:0:0:
307,91,101775,1,2,0:0:0:0:
332,153,101864,1,0,0:0:0:0:
287,202,101952,2,0,P|289:248|272:278,1,75.0000028610231
97,292,102130,5,2,0:0:0:0:
140,344,102219,1,0,0:0:0:0:
206,351,102307,1,0,0:0:0:0:
258,307,102396,1,0,0:0:0:0:
271,240,102485,1,0,0:0:0:0:
228,187,102574,1,0,0:0:0:0:
198,127,102662,1,0,0:0:0:0:
219,62,102751,1,0,0:0:0:0:
273,22,102840,1,2,0:0:0:0:
340,26,102929,2,0,L|353:117,1,75.0000028610231,0|2,0:0|0:0,0:0:0:0:
430,327,103106,5,0,0:0:0:0:
379,282,103195,1,2,0:0:0:0:
382,214,103284,1,0,0:0:0:0:
425,162,103373,2,0,L|411:60,1,75.0000028610231,2|0,0:0|0:0,0:0:0:0:
160,35,103550,5,0,0:0:0:0:
192,94,103639,1,0,0:0:0:0:
182,161,103728,1,0,0:0:0:0:
127,200,103816,1,0,0:0:0:0:
59,200,103905,5,2,0:0:0:0:
41,186,103994,1,0,0:0:0:0:
21,174,104083,2,0,L|41:102,1,75.0000028610231
250,41,104260,5,2,0:0:0:0:
211,105,104349,1,0,0:0:0:0:
206,180,104438,1,0,0:0:0:0:
233,249,104526,1,0,0:0:0:0:
293,293,104615,2,0,L|387:252,1,75.0000028610231,2|0,0:0|0:0,0:0:0:0:
425,54,104793,2,0,P|420:97|445:137,1,75.0000028610231
485,288,104970,6,0,L|462:193,1,75.0000028610231,2|0,0:0|0:0,0:0:0:0:
321,93,105148,2,0,L|344:188,1,75.0000028610231,2|0,0:0|0:0,0:0:0:0:
366,316,105325,6,0,L|391:209,1,75.0000028610231,2|0,0:0|0:0,0:0:0:0:
441,56,105503,2,0,L|416:163,1,75.0000028610231
440,338,105680,6,0,L|430:243,1,75.0000028610231,2|0,0:0|0:0,0:0:0:0:
374,40,105858,2,0,L|387:149,1,75.0000028610231
395,345,106035,6,0,L|403:230,1,75.0000028610231,2|0,0:0|0:0,0:0:0:0:
413,32,106213,2,0,L|407:126,1,75.0000028610231
247,272,106390,5,4,0:0:0:0:
196,215,106479,1,0,0:0:0:0:
188,140,106568,1,0,0:0:0:0:
225,74,106657,1,0,0:0:0:0:
285,32,106745,5,2,0:0:0:0:
280,60,106834,1,0,0:0:0:0:
274,89,106923,2,0,L|261:166,1,75.0000028610231
89,34,107100,1,2,0:0:0:0:
96,93,107189,2,0,L|113:211,1,75.0000028610231
231,350,107367,5,0,0:0:0:0:
191,305,107455,1,2,0:0:0:0:
187,244,107544,1,0,0:0:0:0:
220,193,107633,2,0,L|239:107,1,75.0000028610231
40,56,107810,5,2,0:0:0:0:
52,114,107899,1,0,0:0:0:0:
101,148,107988,1,0,0:0:0:0:
161,144,108077,1,0,0:0:0:0:
205,104,108165,2,0,P|241:86|254:54,1,75.0000028610231
454,165,108343,2,0,P|418:147|405:115,1,75.0000028610231
208,233,108520,5,2,0:0:0:0:
265,215,108609,2,0,L|351:184,1,75.0000028610231,0|2,0:0|0:0,0:0:0:0:
0,116,108787,5,0,0:0:0:0:
56,132,108875,1,2,0:0:0:0:
116,144,108964,1,0,0:0:0:0:
176,152,109053,2,0,L|268:172,1,75.0000028610231,2|0,0:0|0:0,0:0:0:0:
144,352,109230,5,4,0:0:0:0:
80,329,109319,1,0,0:0:0:0:
57,265,109408,1,0,0:0:0:0:
76,200,109497,1,0,0:0:0:0:
134,166,109586,5,2,0:0:0:0:
163,172,109674,1,0,0:0:0:0:
191,180,109763,2,0,L|222:276,1,75.0000028610231
344,352,109941,5,2,0:0:0:0:
316,344,110029,1,0,0:0:0:0:
288,336,110118,1,0,0:0:0:0:
260,328,110207,1,0,0:0:0:0:
232,320,110296,5,2,0:0:0:0:
304,282,110384,1,0,0:0:0:0:
348,212,110473,1,0,0:0:0:0:
363,130,110562,1,0,0:0:0:0:
331,53,110651,2,0,L|252:57,1,75.0000028610231,4|6,0:0|0:0,0:0:0:0:
45,124,110828,1,4,0:0:0:0:
127,134,110917,2,0,L|234:143,1,75.0000028610231,0|4,0:0|0:0,0:0:0:0:
203,343,111094,2,0,P|227:305|224:249,1,75.0000028610231,0|4,0:0|0:0,0:0:0:0:
357,78,111272,1,0,0:0:0:0:
325,154,111361,2,0,P|304:187|309:246,1,75.0000028610231,2|0,0:0|0:0,0:0:0:0:
472,255,111538,5,2,0:0:0:0:
425,323,111627,1,0,0:0:0:0:
346,349,111716,1,2,0:0:0:0:
273,308,111805,1,0,0:0:0:0:
237,234,111893,1,2,0:0:0:0:
270,158,111982,2,0,L|288:86,1,75.0000028610231,0|4,0:0|0:0,0:0:0:0:
472,255,112159,6,0,L|452:140,1,75.0000028610231
382,21,112337,2,0,L|358:133,1,75.0000028610231
308,252,112515,2,0,P|284:219|282:168,1,75.0000028610231
148,35,112692,1,0,0:0:0:0:
184,109,112781,2,0,L|167:228,1,75.0000028610231,2|0,0:0|0:0,0:0:0:0:
89,355,112958,1,2,0:0:0:0:
47,283,113047,1,0,0:0:0:0:
78,206,113136,1,2,0:0:0:0:
151,168,113225,1,0,0:0:0:0:
231,184,113313,1,2,0:0:0:0:
312,170,113402,2,0,L|299:66,1,75.0000028610231,0|4,0:0|0:0,0:0:0:0:
399,342,113580,5,0,0:0:0:0:
383,325,113668,1,0,0:0:0:0:
390,288,113757,1,0,0:0:0:0:
424,247,113846,1,4,0:0:0:0:
403,182,113935,1,0,0:0:0:0:
456,120,114023,1,0,0:0:0:0:
404,55,114112,1,0,0:0:0:0:
466,43,114201,5,6,0:0:0:0:
439,137,114290,1,0,0:0:0:0:
375,210,114378,1,2,0:0:0:0:
282,241,114467,1,0,0:0:0:0:
185,226,114556,1,6,0:0:0:0:
100,176,114645,1,0,0:0:0:0:
61,87,114733,1,2,0:0:0:0:
68,78,114822,1,0,0:0:0:0:
256,192,115266,5,4,0:0:0:0:
