osu file format v14

[General]
AudioFilename: audio.mp3
AudioLeadIn: 0
PreviewTime: 60534
Countdown: 0
SampleSet: Soft
StackLeniency: 0.3
Mode: 0
LetterboxInBreaks: 0
WidescreenStoryboard: 1

[Editor]
Bookmarks: 7835,15108,22381,29653,44199,51472,60562,67835,75108,82381,89653,96926,104199,111472,118744,127835,135108,142381,149653,156926,164199,171472,178744,186017,193290,200562,207835,215108,222381,223972,228972
DistanceSpacing: 1.1
BeatDivisor: 4
GridSize: 32
TimelineZoom: 2

[Metadata]
Title:ultimate breaKING
TitleUnicode:ultimate breaKING
Artist:isle
ArtistUnicode:isle
Creator:Lasse
Version:ultimate cooKING
Source:ハーレムキングダム
Tags:japanese rock pop visual novel eroge opening harem kingdom sono makers haremkingdom
BeatmapID:3987019
BeatmapSetID:1930137

[Difficulty]
HPDrainRate:5
CircleSize:4.2
OverallDifficulty:8.3
ApproachRate:9.1
SliderMultiplier:2.52
SliderTickRate:1

[Events]
//Background and Video events
0,0,"ev_th_07b_9.jpg",0,0
//Break Periods
//Storyboard Layer 0 (Background)
//Storyboard Layer 1 (Fail)
//Storyboard Layer 2 (Pass)
//Storyboard Layer 3 (Foreground)
//Storyboard Layer 4 (Overlay)
//Storyboard Sound Samples

[TimingPoints]
563,454.545454545454,4,2,1,40,1,0
563,-200,4,2,1,40,0,0
2381,-181.818181818182,4,2,1,45,0,0
4199,-166.666666666667,4,2,1,50,0,0
5562,-111.111111111111,4,2,1,60,0,0
6017,-90.9090909090909,4,2,2,65,0,0
6131,-90.9090909090909,4,2,1,65,0,0
6869,-90.9090909090909,4,2,1,5,0,0
6926,-90.9090909090909,4,2,2,65,0,0
7040,-90.9090909090909,4,2,1,65,0,0
7608,-90.9090909090909,4,2,1,60,0,0
7835,-83.3333333333333,4,2,2,70,0,1
7949,-83.3333333333333,4,2,1,70,0,1
13062,-125,4,2,1,70,0,1
13233,-111.111111111111,4,2,1,5,0,1
13290,-71.4285714285714,4,2,1,70,0,1
13744,-111.111111111111,4,2,1,70,0,1
13915,-111.111111111111,4,2,1,5,0,1
13972,-66.6666666666667,4,2,1,70,0,1
14426,-76.9230769230769,4,2,1,70,0,1
15051,-76.9230769230769,4,2,1,70,0,0
15108,-83.3333333333333,4,2,2,70,0,1
15222,-83.3333333333333,4,2,1,70,0,1
20562,-76.9230769230769,4,2,1,70,0,1
22381,-111.111111111111,4,2,2,60,0,0
22494,-111.111111111111,4,2,1,60,0,0
27381,-100,4,2,1,60,0,0
27835,-83.3333333333333,4,2,2,65,0,0
27949,-83.3333333333333,4,2,1,65,0,0
28687,-83.3333333333333,4,2,1,5,0,0
28744,-83.3333333333333,4,2,2,65,0,0
28858,-83.3333333333333,4,2,1,65,0,0
29085,-100,4,2,1,65,0,0
29653,-125,4,2,2,50,0,0
29881,-125,4,2,1,50,0,0
35108,-125,4,2,1,55,0,0
36017,-90.9090909090909,4,2,1,60,0,0
36926,-125,4,2,2,50,0,0
37040,-125,4,2,1,50,0,0
42381,-125,4,2,1,55,0,0
43290,-90.9090909090909,4,2,1,60,0,0
44199,-111.111111111111,4,2,2,55,0,0
44312,-111.111111111111,4,2,1,55,0,0
51472,-100,4,2,2,60,0,0
51585,-100,4,2,1,60,0,0
56926,-100,4,2,1,62,0,0
58744,-100,4,2,1,65,0,0
60108,-200,4,2,1,55,0,0
60562,-83.3333333333333,4,2,2,70,0,1
60676,-83.3333333333333,4,2,1,70,0,1
65790,-125,4,2,1,70,0,1
65960,-111.111111111111,4,2,1,5,0,1
66017,-71.4285714285714,4,2,1,70,0,1
66472,-111.111111111111,4,2,1,70,0,1
66643,-111.111111111111,4,2,1,5,0,1
66699,-66.6666666666667,4,2,1,70,0,1
67153,-76.9230769230769,4,2,1,70,0,1
67778,-100,4,2,1,70,0,0
67835,-83.3333333333333,4,2,2,70,0,1
67949,-83.3333333333333,4,2,1,70,0,1
75051,-100,4,2,1,70,0,0
75108,-83.3333333333333,4,2,2,70,0,1
75222,-83.3333333333333,4,2,1,70,0,1
75733,-83.3333333333333,4,2,1,5,0,1
75790,-83.3333333333333,4,2,1,70,0,1
80562,-66.6666666666667,4,2,1,70,0,1
81017,-100,4,2,1,70,0,1
81187,-100,4,2,1,5,0,1
81244,-62.5,4,2,1,70,0,1
81699,-76.9230769230769,4,2,1,70,0,1
82324,-100,4,2,1,70,0,0
82381,-83.3333333333333,4,2,2,70,0,1
82494,-83.3333333333333,4,2,1,70,0,1
89653,-111.111111111111,4,2,2,60,0,0
89767,-111.111111111111,4,2,1,60,0,0
95108,-83.3333333333333,4,2,2,65,0,0
95222,-83.3333333333333,4,2,1,65,0,0
95960,-83.3333333333333,4,2,1,5,0,0
96017,-83.3333333333333,4,2,2,65,0,0
96131,-83.3333333333333,4,2,1,65,0,0
96358,-100,4,2,1,65,0,0
96926,-166.666666666667,4,2,2,60,0,0
96983,-166.666666666667,4,2,1,60,0,0
97267,-83.3333333333333,4,2,1,60,0,0
97608,-111.111111111111,4,2,1,60,0,0
98062,-111.111111111111,4,2,1,50,0,0
98517,-133.333333333333,4,2,1,50,0,0
98744,-166.666666666667,4,2,1,60,0,0
99085,-83.3333333333333,4,2,1,60,0,0
99426,-111.111111111111,4,2,1,60,0,0
99881,-200,4,2,1,50,0,0
100108,-133.333333333333,4,2,1,50,0,0
100562,-166.666666666667,4,2,1,60,0,0
100903,-83.3333333333333,4,2,1,60,0,0
101244,-111.111111111111,4,2,1,60,0,0
101472,-200,4,2,1,60,0,0
101699,-200,4,2,2,58,0,0
101926,-200,4,2,1,56,0,0
102153,-200,4,2,2,54,0,0
102267,-200,4,2,1,50,0,0
102381,-90.9090909090908,4,2,1,60,0,0
103290,-90.9090909090908,4,2,1,65,0,0
103972,-90.9090909090908,4,2,1,60,0,0
104199,-125,4,2,2,50,0,0
104312,-125,4,2,1,50,0,0
109653,-125,4,2,1,55,0,0
110562,-90.9090909090909,4,2,1,60,0,0
111472,-111.111111111111,4,2,2,55,0,0
111585,-111.111111111111,4,2,1,55,0,0
118744,-100,4,2,2,60,0,0
118858,-100,4,2,1,60,0,0
124199,-100,4,2,1,62,0,0
126017,-100,4,2,1,65,0,0
127381,-200,4,2,1,55,0,0
127835,-83.3333333333333,4,2,2,70,0,1
127949,-83.3333333333333,4,2,1,70,0,1
133062,-125,4,2,1,70,0,1
133233,-125,4,2,1,5,0,1
133290,-71.4285714285714,4,2,1,70,0,1
133744,-111.111111111111,4,2,1,70,0,1
133915,-111.111111111111,4,2,1,5,0,1
133972,-66.6666666666667,4,2,1,70,0,1
134426,-76.9230769230769,4,2,1,70,0,1
135051,-100,4,2,1,70,0,0
135108,-83.3333333333333,4,2,2,70,0,1
135222,-83.3333333333333,4,2,1,70,0,1
142324,-100,4,2,1,70,0,0
142381,-83.3333333333333,4,2,1,70,0,1
143006,-83.3333333333333,4,2,1,5,0,1
143062,-83.3333333333333,4,2,1,70,0,1
147835,-66.6666666666667,4,2,1,70,0,1
148290,-100,4,2,1,70,0,1
148460,-100,4,2,1,5,0,1
148517,-62.5,4,2,1,70,0,1
148744,-76.9230769230769,4,2,1,70,0,1
149597,-100,4,2,1,70,0,0
149653,-83.3333333333333,4,2,2,70,0,1
149767,-83.3333333333333,4,2,1,70,0,1
156926,-100,4,2,2,60,0,0
157040,-100,4,2,1,60,0,0
165562,-125,4,2,1,60,0,0
166017,-111.111111111111,4,2,1,60,0,0
167835,-100,4,2,1,60,0,0
168972,-133.333333333333,4,2,1,60,0,0
169199,-100,4,2,1,60,0,0
169426,-133.333333333333,4,2,1,60,0,0
169653,-100,4,2,1,62,0,0
171472,-90.9090909090909,4,2,2,65,0,0
171585,-90.9090909090909,4,2,1,65,0,0
182381,-111.111111111111,4,2,1,60,0,0
182570,-111.111111111111,4,2,1,50,0,0
182722,-111.111111111111,4,2,1,60,0,0
182949,-111.111111111111,4,2,1,50,0,0
183062,-111.111111111111,4,2,1,60,0,0
183176,-111.111111111111,4,2,1,50,0,0
183290,-100,4,2,1,65,0,0
183479,-100,4,2,1,55,0,0
183631,-100,4,2,1,65,0,0
183858,-100,4,2,1,55,0,0
183972,-100,4,2,1,65,0,0
184085,-100,4,2,1,55,0,0
184199,-100,4,2,1,65,0,0
185108,-83.3333333333333,4,2,1,65,0,0
185449,-76.9230769230769,4,2,1,65,0,0
185790,-71.4285714285714,4,2,1,65,0,0
186017,-100,4,2,2,55,0,1
186131,-166.666666666667,4,2,1,55,0,0
192381,-142.857142857143,4,2,1,55,0,0
193290,-125,4,2,1,60,0,1
193403,-125,4,2,1,60,0,0
193744,-166.666666666667,4,2,1,60,0,0
194199,-125,4,2,1,60,0,0
194653,-166.666666666667,4,2,1,60,0,0
195108,-125,4,2,1,60,0,0
195562,-166.666666666667,4,2,1,60,0,0
196017,-125,4,2,1,60,0,0
196472,-166.666666666667,4,2,1,60,0,0
196926,-125,4,2,1,60,0,0
197381,-166.666666666667,4,2,1,60,0,0
197835,-125,4,2,1,60,0,0
198290,-166.666666666667,4,2,1,60,0,0
198517,-166.666666666667,4,2,1,62,0,0
199653,-125,4,2,1,64,0,0
199881,-111.111111111111,4,2,1,66,0,0
200108,-100,4,2,1,68,0,0
200335,-90.909090909091,4,2,1,70,0,0
200562,-66.6666666666667,4,2,2,75,0,1
200619,-66.6666666666667,4,2,1,70,0,1
200903,-71.4285714285714,4,2,1,70,0,1
201187,-71.4285714285714,4,2,1,5,0,1
201244,-76.9230769230769,4,2,1,70,0,1
201699,-83.3333333333333,4,2,1,70,0,1
206017,-66.6666666666667,4,2,1,70,0,1
206472,-100,4,2,1,70,0,1
206642,-100,4,2,1,5,0,1
206699,-62.5,4,2,1,70,0,1
207153,-76.9230769230769,4,2,1,70,0,1
207778,-100,4,2,1,70,0,0
207835,-83.3333333333333,4,2,2,70,0,1
207892,-83.3333333333333,4,2,1,70,0,1
215108,-111.111111111111,4,2,2,60,0,0
215222,-111.111111111111,4,2,1,60,0,0
220562,-76.9230769230769,4,2,2,65,0,0
220676,-76.9230769230769,4,2,1,65,0,0
221415,-76.9230769230769,4,2,1,5,0,0
221472,-71.4285714285714,4,2,2,65,0,0
221585,-71.4285714285714,4,2,1,65,0,0
222324,-71.4285714285714,4,2,1,5,0,0
222381,-100,4,2,2,55,0,0
222494,-100,4,2,1,55,0,0
223915,-100,4,2,1,5,0,0
223972,-289.855072463768,4,2,2,50,0,0
224028,-289.855072463768,4,2,1,45,0,0
224653,-289.855072463768,4,2,2,40,0,0
225108,-289.855072463768,4,2,1,35,0,0
225562,-289.855072463768,4,2,2,30,0,0
226017,-289.855072463768,4,2,1,25,0,0
226472,-289.855072463768,4,2,2,20,0,0
226926,-289.855072463768,4,2,1,18,0,0
227381,-289.855072463768,4,2,2,16,0,0
227835,-289.855072463768,4,2,1,14,0,0
228290,-289.855072463768,4,2,2,12,0,0
228631,-289.855072463768,4,2,1,5,0,0
228744,-166.666666666667,4,2,1,40,0,0
228858,-166.666666666667,4,2,2,35,0,0
228972,-166.666666666667,4,2,2,30,0,0

[Colours]
Combo1 : 142,162,140
Combo2 : 184,86,133
Combo3 : 225,130,185
Combo4 : 138,164,104

[HitObjects]
58,294,563,6,0,L|47:221,1,63,6|0,1:2|3:2,0:2:0:0:
48,231,903,1,0,1:2:0:0:
48,231,1017,1,2,3:3:0:0:
181,184,1244,5,0,1:2:0:0:
172,196,1358,1,0,3:2:0:0:
165,211,1472,1,0,3:2:0:0:
161,226,1585,1,0,3:2:0:0:
160,242,1699,1,0,3:2:0:0:
159,257,1812,1,0,3:2:0:0:
162,273,1926,1,2,1:3:0:0:
255,312,2153,5,0,3:2:0:0:
255,312,2267,1,0,3:2:0:0:
255,312,2381,2,0,L|244:239,1,69.3000021148682,2|0,1:2|3:2,0:2:0:0:
244,243,2722,1,0,3:2:0:0:
244,243,2835,1,2,1:3:0:0:
346,294,3062,5,0,1:2:0:0:
363,296,3176,1,0,3:2:0:0:
380,297,3290,1,0,3:2:0:0:
397,297,3403,1,0,3:2:0:0:
414,294,3517,1,0,3:2:0:0:
431,289,3631,1,0,3:2:0:0:
447,282,3744,1,2,1:3:0:0:
324,181,3972,5,0,1:2:0:0:
324,181,4085,1,0,1:2:0:0:
324,181,4199,2,0,L|311:93,1,75.5999976928712,2|0,1:2|3:2,0:2:0:0:
312,106,4540,1,0,1:2:0:0:
312,106,4653,1,2,3:3:0:0:
471,51,4881,5,0,1:2:0:0:
480,71,4994,1,0,3:2:0:0:
485,92,5108,1,0,3:2:0:0:
486,114,5222,1,0,3:2:0:0:
483,136,5335,1,0,3:2:0:0:
477,157,5449,1,0,3:2:0:0:
467,177,5562,38,2,B|423:166|423:166|399:176|399:176|335:160,1,113.399996539307,14|8,0:1|0:2,0:1:0:0:
256,192,5903,1,8,0:2:0:0:
295,255,6017,22,2,B|352:324|352:324|341:263,1,138.600004229736,14|0,0:1|0:2,0:1:0:0:
181,194,6358,2,2,B|93:210|93:210|152:230,1,138.600004229736,14|0,0:1|0:2,0:1:0:0:
291,126,6699,2,2,B|317:52|317:52|276:88,1,103.950003172302,14|0,0:1|0:2,0:1:0:0:
298,68,6926,6,0,P|364:85|415:24,1,138.600004229736,6|8,1:1|0:2,0:2:0:0:
346,12,7267,1,2,1:1:0:0:
346,12,7381,1,4,1:2:0:0:
493,261,7608,37,10,0:1:0:0:
420,243,7722,1,8,0:2:0:0:
440,315,7835,22,0,B|455:345|497:341|497:341|485:324,1,75.5999976928712,6|0,1:2|0:2,0:2:0:0:
358,196,8062,2,0,P|314:195|283:219,1,75.5999976928712,2|0,0:2|0:2,0:2:0:0:
233,332,8290,1,12,0:2:0:0:
166,369,8403,2,0,P|123:367|85:345,1,75.5999976928712,2|0,0:2|0:2,0:2:0:0:
113,183,8631,6,0,B|53:140|-4:179|-4:179|21:208,1,151.199995385742,2|0,1:2|0:2,0:2:0:0:
102,268,8972,2,0,P|141:263|180:238,1,75.5999976928712,2|0,1:2|0:2,0:2:0:0:
190,142,9199,2,0,P|165:113|132:95,1,75.5999976928712,8|0,0:2|0:2,0:2:0:0:
333,5,9426,5,2,3:2:0:0:
317,5,9540,1,0,3:2:0:0:
304,14,9653,2,0,P|291:49|292:86,1,75.5999976928712,0|0,1:2|0:2,0:2:0:0:
381,169,9881,2,0,P|416:182|453:181,1,75.5999976928712,2|0,0:2|0:2,0:2:0:0:
314,254,10108,1,8,0:2:0:0:
362,307,10222,2,0,B|382:325|382:325|360:260,1,75.5999976928712,2|0,0:2|0:2,0:2:0:0:
214,196,10449,6,0,B|134:189|134:189|98:222|53:209,1,151.199995385742,2|0,1:2|0:2,0:2:0:0:
47,105,10790,2,0,B|44:87|44:87|64:102|71:140,1,75.5999976928712,2|0,1:2|0:2,0:2:0:0:
122,284,11017,2,0,B|118:314|90:330|90:330|144:320|155:269,1,151.199995385742,8|0,0:2|0:2,0:2:0:0:
246,94,11358,5,2,0:2:0:0:
254,80,11472,2,0,B|245:20|163:-8|111:44|111:44|134:65|138:102,1,226.799993078614,2|0,1:2|0:2,0:2:0:0:
317,198,11926,2,0,B|366:191|366:191|410:235|465:215,1,151.199995385742,8|0,0:2|0:2,0:2:0:0:
491,75,12267,5,0,1:2:0:0:
466,80,12381,2,0,P|434:118|438:168,1,75.5999976928712,2|0,0:2|0:2,0:2:0:0:
406,294,12608,2,0,P|414:330|441:356,1,75.5999976928712,0|0,1:2|0:2,0:2:0:0:
317,198,12835,2,0,P|283:176|233:172,1,75.5999976928712,8|0,0:2|0:2,0:2:0:0:
91,236,13062,6,0,B|72:271|72:271|72:307,1,75.6,2|0,0:2|0:2,0:2:0:0:
78,327,13290,6,2,P|134:347|102:226,1,264.599991925049,6|0,1:1|0:2,0:1:0:0:
373,51,13744,38,0,B|351:89|351:89|356:129,1,85.0499974044801,10|0,0:2|0:2,0:2:0:0:
363,146,13972,6,2,P|434:167|376:52,1,283.500010814667,6|0,0:1|0:2,0:1:0:0:
263,97,14426,38,0,B|199:106|199:106|230:116,1,81.8999962509157,2|0,1:1|0:2,0:2:0:0:
209,297,14653,2,0,B|145:306|145:306|176:316,1,81.8999962509157,12|0,0:2|0:2,0:2:0:0:
54,177,14881,2,0,B|-10:186|-10:186|21:196,1,81.8999962509157,8|8,0:2|0:2,0:2:0:0:
131,202,15108,22,0,P|133:161|118:128,1,75.5999976928712,6|0,1:2|0:2,0:2:0:0:
221,312,15335,2,0,P|253:331|292:334,1,75.5999976928712,2|0,0:2|0:2,0:2:0:0:
388,209,15562,1,8,0:2:0:0:
453,247,15676,2,0,B|473:275|470:301|470:301|442:272,1,75.5999976928712,2|0,0:2|0:2,0:2:0:0:
280,207,15903,6,0,B|279:149|326:119|326:119|319:95|321:71,1,151.199995385742,2|0,1:2|0:2,0:2:0:0:
424,58,16244,2,0,P|416:96|395:78,1,75.5999976928712,2|0,1:2|0:2,0:2:0:0:
221,125,16472,2,0,P|227:83|248:101,1,75.5999976928712,8|0,0:2|0:2,0:2:0:0:
361,260,16699,5,2,3:2:0:0:
356,276,16812,1,0,3:2:0:0:
346,291,16926,2,0,P|310:312|262:311,1,75.5999976928712,0|0,1:2|0:2,0:2:0:0:
152,356,17153,2,0,P|114:353|78:328,1,75.5999976928712,2|0,0:2|0:2,0:2:0:0:
7,240,17381,1,8,0:2:0:0:
0,164,17494,2,0,P|9:130|34:89,1,75.5999976928712,2|0,0:2|0:2,0:2:0:0:
180,77,17722,6,0,B|159:24|79:32|79:32|96:47|106:74,1,151.199995385742,2|0,1:2|0:2,0:2:0:0:
214,193,18062,2,0,P|214:235|247:278,1,75.5999976928712,2|0,1:2|0:2,0:2:0:0:
366,283,18290,2,0,B|402:195|286:162|286:162|296:188|292:221,1,226.799993078614,8|0,0:2|0:2,0:2:0:0:
403,74,18744,5,2,1:2:0:0:
444,130,18858,1,2,0:2:0:0:
512,107,18972,1,2,0:2:0:0:
512,36,19085,1,2,0:2:0:0:
444,16,19199,1,10,0:2:0:0:
303,203,19426,5,2,0:2:0:0:
235,223,19540,1,2,1:2:0:0:
215,54,19767,37,2,0:2:0:0:
147,34,19881,1,2,1:2:0:0:
369,137,20108,6,0,B|290:115|290:115|227:141|227:141|146:120,1,226.799993078614,10|0,0:2|0:2,0:2:0:0:
0,205,20562,6,0,P|-3:241|20:296,1,81.8999962509157,2|0,1:2|0:2,0:2:0:0:
108,375,20790,2,0,L|213:366,1,81.8999962509157,8|0,0:2|0:2,0:2:0:0:
237,204,21017,2,0,L|342:195,1,81.8999962509157,8|0,0:2|0:2,0:2:0:0:
462,315,21244,5,8,0:2:0:0:
512,262,21358,1,8,0:2:0:0:
491,190,21472,1,8,0:2:0:0:
420,172,21585,1,8,0:2:0:0:
368,225,21699,1,8,0:2:0:0:
387,295,21812,1,8,0:2:0:0:
337,346,21926,1,8,0:2:0:0:
266,329,22040,1,8,0:2:0:0:
247,259,22153,1,8,0:2:0:0:
297,206,22267,1,8,0:2:0:0:
368,225,22381,6,0,B|396:229|396:229|421:217,1,56.6999982696534,6|0,1:2|0:2,0:2:0:0:
407,121,22608,2,0,B|379:117|379:117|353:128,1,56.6999982696534,0|0,1:2|0:2,0:2:0:0:
485,162,22835,2,0,B|506:174|506:174|481:74,1,113.399996539307,12|0,0:2|0:2,0:2:0:0:
419,43,23176,6,0,B|345:27|345:27|316:-4,1,113.399996539307,2|0,1:2|0:2,0:2:0:0:
272,62,23517,1,0,1:2:0:0:
269,90,23631,1,0,1:2:0:0:
263,117,23744,2,0,B|237:141|237:141|157:158,1,113.399996539307,8|0,0:2|0:2,0:2:0:0:
12,109,24199,5,2,1:2:0:0:
56,270,24426,1,0,1:2:0:0:
80,284,24540,1,0,1:2:0:0:
106,294,24653,2,0,L|219:273,1,113.399996539307,8|0,0:2|0:2,0:2:0:0:
325,238,24994,6,0,B|399:248|399:248|406:269|422:281,1,113.399996539307,2|0,1:2|0:2,0:2:0:0:
471,224,25335,1,0,1:2:0:0:
285,172,25562,2,0,P|247:250|307:312,1,170.09999480896,12|0,0:2|0:2,0:2:0:0:
415,358,26017,6,0,P|443:357|473:341,1,56.6999982696534,6|0,1:2|0:2,0:2:0:0:
512,265,26244,2,0,P|507:234|496:206,1,56.6999982696534,0|0,1:2|0:2,0:2:0:0:
448,129,26472,2,0,B|431:86|477:57|477:57|495:104,1,113.399996539307,8|0,0:2|0:2,0:2:0:0:
484,195,26812,6,0,P|417:201|378:162,1,113.399996539307,2|0,1:2|0:2,0:2:0:0:
325,107,27153,1,0,1:2:0:0:
315,80,27267,1,0,1:2:0:0:
303,53,27381,38,2,P|238:40|179:92,1,126,14|8,0:1|0:2,0:1:0:0:
113,84,27722,1,8,0:2:0:0:
64,148,27835,22,2,B|23:202|47:251|47:251|102:287,1,151.199995385742,14|0,2:1|0:2,0:1:0:0:
247,253,28176,2,2,B|220:190|166:186|166:186|107:216,1,151.199995385742,14|0,0:1|0:2,3:1:0:0:
88,366,28517,2,2,B|129:375|159:337|159:337|160:303,1,113.399996539307,14|0,0:1|0:2,0:1:0:0:
165,299,28744,6,0,P|217:351|303:334,1,151.199995385742,14|0,2:1|0:2,0:2:0:0:
399,276,29085,1,2,1:1:0:0:
399,276,29199,2,0,L|384:202,1,63,8|8,0:2|0:2,0:2:0:0:
281,128,29426,2,0,L|266:54,1,63,10|8,2:1|0:2,0:2:0:0:
320,7,29653,5,6,1:2:0:0:
196,94,29881,1,0,1:2:0:0:
311,199,30108,2,0,P|266:205|216:161,1,100.8,8|0,0:2|0:2,0:2:0:0:
184,110,30449,2,0,P|134:104|95:134,1,100.8,0|0,1:2|0:2,0:2:0:0:
34,184,30790,1,0,1:2:0:0:
30,203,30903,1,0,1:2:0:0:
26,222,31017,2,0,L|42:329,1,100.8,8|0,0:2|0:2,0:2:0:0:
187,384,31472,5,2,1:2:0:0:
273,279,31699,1,0,1:2:0:0:
197,234,31926,1,8,0:2:0:0:
267,364,32153,1,2,0:2:0:0:
267,364,32267,2,0,B|297:345|333:349|333:349|345:335|367:325,1,100.8,0|0,1:2|0:2,0:2:0:0:
433,334,32608,1,0,1:2:0:0:
450,343,32722,1,0,1:2:0:0:
469,348,32835,2,0,P|493:326|485:254,1,100.8,8|0,0:2|0:2,0:2:0:0:
376,117,33290,5,6,1:2:0:0:
512,75,33517,1,0,1:2:0:0:
425,182,33744,1,2,1:2:0:0:
423,188,33858,1,0,3:2:0:0:
422,194,33972,1,0,3:2:0:0:
419,200,34085,2,0,B|368:209|368:209|323:187,1,100.8,2|0,1:2|0:2,0:2:0:0:
262,148,34426,1,0,1:2:0:0:
252,129,34540,1,0,1:2:0:0:
243,110,34653,2,0,B|192:101|192:101|147:122,1,100.8,8|8,0:2|0:2,0:2:0:0:
86,160,34994,1,8,0:2:0:0:
73,186,35108,5,2,1:2:0:0:
197,244,35335,1,0,1:2:0:0:
183,49,35562,1,10,0:2:0:0:
89,292,35790,1,0,1:2:0:0:
89,292,35903,1,0,1:2:0:0:
144,350,36017,38,0,P|215:354|265:295,1,138.600004229736,6|0,1:1|1:2,0:2:0:0:
176,29,36472,2,0,P|108:23|59:69,1,138.600004229736,14|0,0:1|1:2,0:2:0:0:
14,130,36812,1,0,1:2:0:0:
82,163,36926,22,0,P|127:147|135:100,1,100.8,6|0,1:2|1:2,0:2:0:0:
345,41,37381,2,0,B|332:12|332:12|311:78,1,100.8,12|0,0:2|0:2,0:2:0:0:
256,130,37722,2,0,B|269:159|269:159|290:93,1,100.8,0|0,1:2|0:2,0:2:0:0:
243,36,38062,1,0,1:2:0:0:
218,43,38176,1,0,1:2:0:0:
193,48,38290,2,0,B|154:52|154:52|135:44|135:44|83:50,1,100.8,8|0,0:2|0:2,0:2:0:0:
10,147,38744,5,2,1:2:0:0:
7,159,38858,1,0,3:2:0:0:
5,171,38972,1,0,1:2:0:0:
3,184,39085,1,0,3:2:0:0:
1,196,39199,2,0,L|15:304,1,100.8,8|0,0:2|0:2,0:2:0:0:
59,355,39540,2,0,P|107:366|151:335,1,100.8,2|0,1:2|0:2,0:2:0:0:
216,300,39881,1,0,1:2:0:0:
221,275,39994,1,0,1:2:0:0:
227,250,40108,2,0,L|213:142,1,100.8,8|0,0:2|1:2,0:2:0:0:
242,85,40449,1,0,1:2:0:0:
187,41,40562,6,0,P|138:32|98:60,1,100.8,6|0,1:2|1:2,0:2:0:0:
287,141,41017,2,0,B|324:149|324:149|344:142|344:142|395:153,1,100.8,8|0,0:2|0:2,0:2:0:0:
460,128,41358,2,0,P|481:172|476:222,1,100.8,2|0,1:2|0:2,0:2:0:0:
504,295,41699,1,0,1:2:0:0:
508,319,41812,1,0,1:2:0:0:
497,342,41926,2,0,P|424:344|392:315,1,100.8,8|0,0:2|0:2,0:2:0:0:
209,168,42381,5,2,1:2:0:0:
454,101,42608,1,8,0:2:0:0:
276,307,42835,1,10,0:2:0:0:
306,35,43062,2,0,P|308:17|313:37,1,50.4,8|8,2:2|0:2,0:2:0:0:
376,89,43290,37,6,1:1:0:0:
347,108,43403,1,8,0:2:0:0:
313,116,43517,2,0,P|267:109|241:83,1,69.3000021148682,8|0,0:2|0:2,0:2:0:0:
139,30,43744,2,0,P|93:37|67:63,1,69.3000021148682,14|0,0:1|0:2,0:2:0:0:
17,155,43972,2,0,L|33:241,1,69.3000021148682,8|8,0:2|2:2,0:2:0:0:
138,272,44199,22,0,L|126:384,2,113.399996539307,6|0|8,1:2|1:0|0:0,0:0:0:0:
333,195,44881,1,2,3:2:0:0:
317,218,44994,1,0,1:0:0:0:
293,233,45108,2,0,P|246:235|202:179,1,113.399996539307,2|0,0:0|3:0,0:0:0:0:
174,124,45449,1,0,1:0:0:0:
220,71,45562,2,0,B|263:64|263:64|287:75|287:75|342:68,1,113.399996539307,8|0,0:0|0:0,0:0:0:0:
470,21,46017,6,0,L|465:87,1,56.6999982696534,2|0,1:2|0:0,0:0:0:0:
480,154,46244,2,0,L|485:88,1,56.6999982696534,0|0,1:0|0:0,0:0:0:0:
413,192,46472,2,0,P|458:230|509:226,1,113.399996539307,8|0,0:2|0:2,0:2:0:0:
435,303,46812,2,0,B|393:304|393:304|373:321|373:321|314:326,1,113.399996539307,2|0,1:2|0:2,0:2:0:0:
265,363,47153,1,0,1:2:0:0:
237,355,47267,1,0,1:2:0:0:
209,347,47381,1,8,0:2:0:0:
109,209,47608,1,0,1:2:0:0:
109,209,47722,1,0,1:2:0:0:
49,264,47835,6,0,P|33:313|49:374,2,113.399996539307,6|0|8,1:2|1:2|0:2,0:2:0:0:
235,166,48517,1,2,3:2:0:0:
251,189,48631,1,0,1:2:0:0:
266,212,48744,2,0,B|294:245|339:235|339:235|385:200,1,113.399996539307,2|0,0:2|3:2,0:2:0:0:
416,164,49085,1,0,1:2:0:0:
396,93,49199,2,0,B|360:80|360:80|329:87|329:87|266:69,1,113.399996539307,8|0,0:2|0:2,0:2:0:0:
114,19,49653,6,0,P|85:20|58:27,1,56.6999982696534,2|0,1:2|0:2,0:2:0:0:
71,118,49881,2,0,P|99:116|126:109,1,56.6999982696534,0|0,1:2|0:2,0:2:0:0:
0,84,50108,2,0,P|-9:144|33:194,1,113.399996539307,8|0,0:2|2:2,0:2:0:0:
99,237,50449,1,0,1:2:0:0:
122,253,50562,2,0,L|251:236,1,113.399996539307,2|0,0:2|1:2,0:2:0:0:
257,254,50903,1,0,1:2:0:0:
280,270,51017,1,8,0:2:0:0:
387,113,51244,1,8,0:2:0:0:
452,86,51358,1,8,0:2:0:0:
505,138,51472,6,0,P|505:174|493:207,1,63,6|0,1:2|0:2,0:2:0:0:
425,264,51699,2,0,P|395:262|356:247,1,63,0|0,1:2|0:2,0:2:0:0:
292,152,51926,2,0,B|255:117|191:137|191:137|224:159,1,126,8|0,0:2|0:2,0:2:0:0:
243,213,52267,2,0,B|258:223|258:223|194:243|157:208,1,126,0|0,1:2|0:2,0:2:0:0:
112,148,52608,1,2,1:2:0:0:
103,117,52722,1,0,1:2:0:0:
86,88,52835,2,0,B|22:93|22:93|27:173,1,126,8|0,0:2|0:2,0:2:0:0:
0,252,53176,5,2,0:2:0:0:
23,266,53290,2,0,B|56:267|56:267|88:246,1,63,0|0,1:2|0:2,0:2:0:0:
203,357,53517,2,0,B|170:356|170:356|144:372,1,63,0|0,1:2|0:2,0:2:0:0:
255,245,53744,2,0,B|307:282|307:282|375:264,1,126,8|0,0:2|0:2,0:2:0:0:
458,241,54085,1,0,1:2:0:0:
474,214,54199,2,0,B|491:154|491:154|454:92,1,126,2|0,0:2|1:2,0:2:0:0:
404,50,54540,1,0,1:2:0:0:
344,91,54653,2,0,B|283:106|283:106|231:69,1,126,8|0,0:2|0:2,0:2:0:0:
3,42,55108,6,0,P|31:34|73:36,1,63,2|0,1:2|0:2,0:2:0:0:
74,180,55335,2,0,P|43:188|12:187,1,63,0|0,1:2|0:2,0:2:0:0:
153,104,55562,2,0,P|183:95|214:96,1,63,8|0,0:2|0:2,0:2:0:0:
311,184,55790,1,2,0:2:0:0:
267,244,55903,2,0,P|208:228|198:168,1,126,0|0,1:2|0:2,0:2:0:0:
214,96,56244,1,0,1:2:0:0:
224,66,56358,1,0,1:2:0:0:
234,36,56472,1,8,0:2:0:0:
446,11,56699,1,0,1:2:0:0:
446,11,56812,1,0,1:2:0:0:
496,77,56926,6,0,L|488:219,1,126,6|8,1:2|0:2,0:2:0:0:
417,233,57267,1,8,0:2:0:0:
443,307,57381,2,0,P|471:320|502:321,1,63,10|8,0:2|0:2,0:2:0:0:
489,203,57608,2,0,P|468:174|431:151,1,63,8|8,0:2|0:2,0:2:0:0:
340,88,57835,5,8,2:3:0:0:
312,103,57949,1,8,0:2:0:0:
282,113,58062,1,8,0:2:0:0:
250,115,58176,1,8,0:2:0:0:
166,148,58290,5,4,2:3:0:0:
127,127,58403,1,8,0:2:0:0:
82,129,58517,2,0,P|66:162|64:198,1,63,8|0,0:2|0:2,0:2:0:0:
117,260,58744,5,10,0:1:0:0:
186,254,58858,1,8,0:2:0:0:
255,248,58972,1,8,0:2:0:0:
324,242,59085,1,10,0:1:0:0:
408,39,59312,5,10,0:1:0:0:
328,246,59540,5,10,0:1:0:0:
386,289,59653,2,2,P|444:310|485:260,1,126,6|8,1:2|0:2,0:1:0:0:
512,193,59994,1,8,0:2:0:0:
468,122,60108,6,2,B|438:115|438:115|414:124|414:124|370:114,1,94.5,14|0,0:1|0:2,0:1:0:0:
187,71,60562,6,0,B|171:46|187:13|187:13|200:42,1,75.5999976928712,6|0,1:2|2:2,2:2:0:0:
291,155,60790,2,0,P|292:188|270:239,1,75.5999976928712,2|0,2:2|2:2,2:2:0:0:
196,327,61017,1,12,2:2:0:0:
262,364,61131,2,0,B|299:370|299:370|267:342,1,75.5999976928712,2|0,2:2|2:2,2:2:0:0:
157,234,61358,6,0,B|108:220|108:220|58:261|8:242,1,151.199995385742,2|0,1:2|2:2,2:2:0:0:
10,121,61699,2,0,B|7:158|41:167|41:167|40:152,1,75.5999976928712,2|0,1:2|2:2,2:2:0:0:
154,351,61926,2,0,B|157:314|123:305|123:305|124:345,1,75.5999976928712,8|0,2:2|2:2,2:2:0:0:
249,181,62153,5,2,3:2:0:0:
260,190,62267,1,0,3:2:0:0:
271,199,62381,2,0,B|308:205|308:205|356:176,1,75.5999976928712,0|0,1:2|2:2,2:2:0:0:
441,99,62608,2,0,B|478:93|478:93|526:122,1,75.5999976928712,2|0,2:2|2:2,2:2:0:0:
338,16,62835,1,8,2:2:0:0:
270,45,62949,2,0,B|233:51|233:51|185:22,1,75.5999976928712,2|0,2:2|2:2,2:2:0:0:
97,169,63176,6,0,B|-8:189|-8:189|40:206,1,151.199995385742,2|0,1:2|2:2,2:2:0:0:
168,216,63517,2,0,P|183:176|175:136,1,75.5999976928712,2|0,1:2|2:2,2:2:0:0:
97,265,63744,2,0,P|155:300|241:263,1,151.199995385742,8|0,2:2|2:2,2:2:0:0:
371,183,64085,5,2,2:2:0:0:
377,203,64199,2,0,B|426:262|507:226|507:226|500:172|452:163,1,226.799993078614,0|0,1:2|2:2,2:2:0:0:
377,296,64653,2,0,P|386:354|399:301,1,151.199995385742,8|0,2:2|2:2,2:2:0:0:
308,244,64994,5,0,1:2:0:0:
293,228,65108,2,0,P|254:210|215:210,1,75.5999976928712,2|0,2:2|2:2,2:2:0:0:
136,378,65335,2,0,P|173:375|207:358,1,75.5999976928712,0|0,1:2|2:2,2:2:0:0:
58,244,65562,2,0,P|26:264|5:296,1,75.5999976928712,8|0,2:2|2:2,2:2:0:0:
140,260,65790,6,0,B|142:223|142:223|124:188,1,75.6,2|0,2:2|2:2,2:2:0:0:
112,180,66017,6,2,B|75:137|75:137|150:6|150:6|206:16,1,264.599991925049,6|0,1:1|2:2,2:1:0:0:
438,84,66472,38,0,B|430:126|430:126|449:164,1,85.0499974044801,10|0,2:2|2:2,2:2:0:0:
463,180,66699,6,2,B|502:226|502:226|422:366|422:366|362:355,1,283.500010814667,6|0,1:1|2:2,2:1:0:0:
234,208,67153,38,0,P|199:187|158:184,1,81.8999962509157,10|0,2:1|2:2,2:2:0:0:
199,372,67381,2,0,P|234:352|257:318,1,81.8999962509157,12|0,2:2|2:2,2:2:0:0:
75,259,67608,2,0,P|74:299|92:336,1,81.8999962509157,8|8,2:2|2:2,2:2:0:0:
187,296,67835,22,0,B|177:259|177:259|149:283,1,75.5999976928712,6|0,1:2|2:2,2:2:0:0:
0,169,68062,2,0,B|27:193|27:193|37:156,1,75.5999976928712,2|0,2:2|2:2,2:2:0:0:
161,23,68290,1,8,2:2:0:0:
104,75,68403,2,0,B|94:96|94:96|126:158,1,75.5999976928712,2|0,2:2|2:2,2:2:0:0:
300,220,68631,6,0,B|387:209|387:209|407:231|441:238,1,151.199995385742,2|0,1:2|2:2,2:2:0:0:
460,137,68972,2,0,P|454:162|467:139,1,75.5999976928712,2|0,1:2|2:2,2:2:0:0:
346,291,69199,2,0,P|357:314|352:288,1,75.5999976928712,8|0,2:2|2:2,2:2:0:0:
232,160,69426,5,2,3:2:0:0:
215,150,69540,1,0,3:2:0:0:
196,145,69653,2,0,P|158:148|121:167,1,75.5999976928712,0|0,1:2|2:2,2:2:0:0:
71,328,69881,2,0,P|33:324|0:308,1,75.5999976928712,2|0,2:2|2:2,2:2:0:0:
145,261,70108,1,8,2:2:0:0:
203,311,70222,2,0,P|215:341|211:395,1,75.5999976928712,2|0,2:2|2:2,2:2:0:0:
56,234,70449,6,0,P|33:170|62:93,1,151.199995385742,2|0,1:2|2:2,2:2:0:0:
196,145,70790,2,0,P|161:160|124:164,1,75.5999976928712,2|0,1:2|2:2,2:2:0:0:
126,31,71017,2,0,P|163:34|197:50,1,75.5999976928712,8|0,2:2|2:2,2:2:0:0:
298,180,71244,5,2,3:2:0:0:
304,193,71358,1,0,3:2:0:0:
310,206,71472,2,0,P|375:230|344:129,1,226.799993078614,4|0,1:2|2:2,2:2:0:0:
405,298,71926,2,0,P|442:327|462:255,1,151.199995385742,8|0,2:2|2:2,2:2:0:0:
310,206,72267,1,0,1:2:0:0:
237,242,72381,6,0,B|220:277|220:277|224:329,1,75.5999976928712,2|0,2:2|2:2,2:2:0:0:
299,381,72608,2,0,B|316:346|316:346|312:294,1,75.5999976928712,0|0,1:2|2:2,2:2:0:0:
156,204,72835,2,0,B|104:189|104:189|66:201|66:201|-19:171|20:85,1,226.799993078614,8|0,2:2|2:2,2:2:0:0:
171,13,73290,6,0,L|257:36,1,75.5999976928712,12|0,2:2|2:2,2:2:0:0:
357,176,73517,2,0,L|443:199,1,75.5999976928712,2|0,1:2|2:2,2:2:0:0:
156,204,73744,2,0,L|70:181,1,75.5999976928712,8|0,2:2|2:2,2:2:0:0:
167,322,73972,5,2,2:2:0:0:
226,279,74085,2,0,P|261:219|239:140,1,151.199995385742,4|0,1:3|2:2,2:2:0:0:
126,20,74426,5,10,2:2:0:0:
57,52,74540,1,8,2:2:0:0:
120,92,74653,5,8,2:2:0:0:
49,65,74767,1,8,2:2:0:0:
49,140,74881,37,8,2:2:0:0:
116,107,74994,1,8,2:2:0:0:
115,183,75108,22,0,B|129:253|129:253|89:273|89:273|54:309|54:309|-9:275,1,226.799993078614,6|0,1:2|0:0,0:1:0:0:
205,127,75562,2,2,B|261:141|261:141|320:108,1,113.399996539307,14|0,0:1|0:0,0:1:0:0:
328,102,75790,6,0,B|279:69|279:69|178:135|262:230,1,226.799993078614,2|0,1:2|0:0,0:0:0:0:
330,309,76244,2,0,P|371:326|420:328,1,75.5999976928712,0|0,1:0|0:0,0:0:0:0:
496,235,76472,2,0,P|494:197|476:151,1,75.5999976928712,8|0,0:0|0:0,0:0:0:0:
328,102,76699,5,2,3:2:0:0:
315,110,76812,1,0,3:0:0:0:
303,119,76926,2,0,P|276:66|328:118,1,226.799993078614,2|0,1:2|0:0,0:0:0:0:
179,140,77381,2,0,B|129:121|129:121|145:143,1,75.5999976928712,8|0,0:0|0:0,0:0:0:0:
257,232,77608,1,0,1:0:0:0:
274,245,77722,2,0,B|305:270|305:270|190:292,1,151.199995385742,0|0,1:0|0:0,0:0:0:0:
20,267,78062,6,0,P|1:301|4:346,1,75.5999976928712,2|0,1:2|0:0,0:0:0:0:
189,315,78290,2,0,P|188:352|170:384,1,75.5999976928712,12|0,0:0|0:0,0:0:0:0:
103,228,78517,2,0,P|103:190|121:158,1,75.5999976928712,8|8,0:0|0:0,0:0:0:0:
252,42,78744,5,6,1:2:0:0:
313,84,78858,1,2,0:0:0:0:
382,57,78972,1,2,0:0:0:0:
443,99,79085,1,2,0:0:0:0:
512,72,79199,1,10,0:0:0:0:
213,158,79426,5,2,0:0:0:0:
274,200,79540,1,2,1:2:0:0:
443,287,79767,37,2,0:2:0:0:
512,260,79881,1,2,1:2:0:0:
305,359,80108,6,0,B|251:343|251:343|210:359|210:359|155:344,1,151.199995385742,10|0,0:0|3:0,0:0:0:0:
92,255,80449,1,0,3:0:0:0:
29,296,80562,6,2,P|116:362|93:256,1,283.500010814667,6|0,1:1|0:0,0:1:0:0:
311,36,81017,6,0,B|301:71|301:71|305:96|305:96|296:126,1,94.5,10|0,0:0|0:0,0:0:0:0:
299,144,81244,38,2,P|422:178|354:73,1,302.4,6|0,1:1|0:0,0:1:0:0:
211,52,81699,6,0,B|146:44|146:44|128:22,1,81.8999962509157,2|0,1:1|0:0,0:0:0:0:
78,188,81926,2,0,B|13:178|13:178|-9:195,1,81.8999962509157,12|0,0:0|0:0,0:0:0:0:
94,364,82153,2,0,B|158:373|158:373|181:356,1,81.8999962509157,8|8,0:0|0:0,0:0:0:0:
33,305,82381,6,0,P|14:337|8:375,1,75.5999976928712,4|0,1:2|0:0,0:0:0:0:
257,378,82608,2,0,P|251:340|232:307,1,75.5999976928712,2|0,0:0|0:0,0:0:0:0:
157,236,82835,2,0,P|162:198|181:165,1,75.5999976928712,8|0,0:0|0:0,0:0:0:0:
348,123,83062,5,0,1:0:0:0:
348,123,83176,2,0,B|374:139|410:131|410:131|447:94|497:112,1,151.199995385742,2|0,0:0|0:0,0:0:0:0:
467,207,83517,2,0,B|488:226|488:226|463:172,1,75.5999976928712,2|0,1:2|0:0,2:0:0:0:
381,32,83744,2,0,B|359:12|359:12|384:66,1,75.5999976928712,8|0,0:0|0:0,0:0:0:0:
297,201,83972,5,10,0:0:0:0:
280,274,84085,1,8,0:0:0:0:
340,319,84199,2,0,B|377:326|377:326|421:301,1,75.5999976928712,4|0,1:2|0:0,0:0:0:0:
221,224,84426,2,0,B|169:214|169:214|193:237,1,75.5999976928712,2|0,0:0|0:0,0:0:0:0:
353,148,84653,2,0,B|370:118|370:118|363:68,1,75.5999976928712,8|0,0:0|0:0,0:0:0:0:
148,33,84881,5,0,1:0:0:0:
148,33,84994,2,0,B|111:50|111:50|249:96,1,151.199995385742,2|0,0:0|0:0,0:0:0:0:
81,151,85335,2,0,L|-18:164,1,75.5999976928712,2|0,1:2|0:0,0:0:0:0:
164,233,85562,2,0,L|263:246,1,75.5999976928712,8|0,0:0|0:0,0:0:0:0:
107,358,85790,2,0,L|8:371,1,75.5999976928712,0|0,1:2|1:0,0:0:0:0:
256,235,86017,5,6,1:2:0:0:
302,294,86131,1,2,0:0:0:0:
376,283,86244,1,2,0:0:0:0:
404,213,86358,1,2,0:0:0:0:
357,155,86472,1,10,0:0:0:0:
465,11,86699,5,2,0:0:0:0:
512,69,86812,1,2,1:2:0:0:
358,166,87040,37,2,0:2:0:0:
405,224,87153,1,2,1:2:0:0:
211,108,87381,6,0,B|145:72|145:72|52:109,1,151.199995385742,8|0,2:2|1:0,0:0:0:0:
15,224,87722,1,0,1:0:0:0:
66,282,87835,6,0,B|133:318|133:318|225:281,1,151.199995385742,6|0,1:2|0:0,0:0:0:0:
289,322,88176,1,0,1:0:0:0:
323,254,88290,2,0,L|297:86,1,151.199995385742,8|0,0:0|0:0,0:0:0:0:
487,14,88631,5,0,1:0:0:0:
412,27,88744,1,8,0:0:0:0:
386,99,88858,1,8,0:0:0:0:
438,153,88972,1,8,0:0:0:0:
512,144,89085,1,8,0:3:0:0:
438,160,89199,1,8,0:0:0:0:
414,232,89312,1,8,0:0:0:0:
464,288,89426,1,8,0:3:0:0:
299,104,89653,6,0,L|218:93,1,56.6999982696534,6|0,1:2|0:2,0:2:0:0:
230,191,89881,2,0,L|311:202,1,56.6999982696534,0|0,1:2|0:2,0:2:0:0:
165,137,90108,2,0,B|142:173|142:173|72:180,1,113.399996539307,8|0,0:2|0:2,0:2:0:0:
1,140,90449,6,0,B|24:104|24:104|93:96,1,113.399996539307,2|0,1:2|0:2,0:2:0:0:
146,38,90790,1,0,1:2:0:0:
173,45,90903,1,0,1:2:0:0:
200,51,91017,2,0,B|230:80|230:80|300:72,1,113.399996539307,8|0,0:2|0:2,0:2:0:0:
479,39,91472,6,0,P|430:35|407:98,1,113.399996539307,2|0,1:2|1:2,0:2:0:0:
391,112,91812,1,0,3:2:0:0:
382,138,91926,2,0,L|410:259,1,113.399996539307,0|0,1:2|0:2,0:2:0:0:
474,331,92267,6,0,B|503:360|503:360|480:291,1,113.399996539307,2|0,1:2|0:2,0:2:0:0:
414,256,92608,1,0,1:2:0:0:
414,256,92722,1,0,1:2:0:0:
355,305,92835,2,0,B|277:334|277:334|180:288,1,170.09999480896,12|0,0:2|0:2,0:2:0:0:
86,363,93290,6,0,P|114:362|141:353,1,56.6999982696534,6|0,1:2|0:2,0:2:0:0:
125,269,93517,2,0,P|96:269|69:278,1,56.6999982696534,0|0,1:2|0:2,0:2:0:0:
198,296,93744,2,0,P|236:300|300:246,1,113.399996539307,8|0,0:2|0:2,0:2:0:0:
221,153,94085,6,0,B|203:137|203:137|186:189|223:224,1,113.399996539307,2|0,1:2|0:2,0:2:0:0:
349,200,94426,1,0,1:2:0:0:
349,200,94540,1,0,1:2:0:0:
357,163,94653,37,8,0:2:0:0:
291,187,94767,1,8,0:2:0:0:
342,237,94881,1,8,0:2:0:0:
408,213,94994,1,8,0:2:0:0:
338,256,95108,22,2,B|337:310|388:335|388:335|368:314|364:290,1,151.199995385742,14|0,2:1|0:2,0:1:0:0:
223,147,95449,2,2,B|176:119|129:150|129:150|157:143|180:152,1,151.199995385742,14|0,0:1|0:2,3:1:0:0:
378,98,95790,2,2,B|414:77|411:33|411:33|405:55|390:67,1,113.399996539307,14|0,0:1|0:2,0:1:0:0:
394,64,96017,6,0,B|340:51|340:51|319:28|319:28|252:16,1,151.199995385742,14|0,2:1|2:2,0:2:0:0:
116,21,96358,1,2,1:1:0:0:
64,72,96472,2,0,B|54:103|54:103|67:138,1,63,12|0,0:2|0:2,0:2:0:0:
262,159,96699,2,0,B|272:130|272:130|262:99,1,63,10|8,0:1|0:2,0:2:0:0:
120,207,96926,6,0,L|112:291,1,75.5999976928712,14|0,0:0|0:0,0:0:0:0:
37,301,97267,2,0,P|26:365|90:357,1,151.199995385742,8|0,0:0|0:0,0:0:0:0:
194,261,97608,2,0,P|257:328|166:338,1,226.799993078613,10|0,0:0|0:0,0:0:0:0:
208,311,98517,22,0,L|217:366,1,47.2500018024445,0|0,3:0|3:0,0:0:0:0:
310,321,98744,6,0,B|346:328|346:328|382:304,1,75.5999976928712,10|0,0:0|0:0,0:0:0:0:
340,176,99085,2,0,B|295:152|295:152|328:256,1,151.199995385742,10|0,0:0|0:0,0:0:0:0:
451,277,99426,2,0,B|505:267|505:267|391:224,1,170.09999480896,10|0,0:0|0:0,0:0:0:0:
303,159,99881,5,0,3:0:0:0:
303,159,99994,1,0,3:0:0:0:
303,159,100108,2,0,P|351:160|304:149,1,141.750005407334,2|0,3:2|0:0,0:1:0:0:
221,189,100562,6,0,B|192:185|192:185|178:189|178:189|132:182,1,75.5999976928712,10|0,0:0|0:0,0:0:0:0:
46,171,100903,2,0,B|44:230|94:242|94:242|68:217|72:178,1,151.199995385742,10|0,0:0|0:0,0:0:0:0:
165,114,101244,2,0,L|127:55,1,56.6999982696534,10|0,0:0|0:0,0:0:0:0:
89,9,101472,5,8,0:3:0:0:
165,114,101699,5,8,0:3:0:0:
225,198,101926,37,4,0:3:0:0:
273,265,102153,6,0,L|295:299,1,31.5,4|8,0:3|0:0,0:0:0:0:
279,367,102381,6,0,B|348:369|348:369|364:293,1,138.600004229736,10|0,1:1|0:0,0:0:0:0:
275,184,102722,2,0,B|206:182|206:182|190:258,1,138.600004229736,10|0,0:1|0:0,0:0:0:0:
359,222,103062,1,8,0:0:0:0:
359,222,103176,1,8,0:0:0:0:
377,144,103290,6,0,B|368:110|368:110|328:75,1,69.3000021148682,6|0,0:1|0:0,0:0:0:0:
239,35,103517,2,0,B|204:27|204:27|154:42,1,69.3000021148682,0|0,1:0|0:0,0:0:0:0:
75,100,103744,2,0,B|50:126|50:126|39:176,1,69.3000021148682,14|0,0:1|0:0,0:0:0:0:
44,271,103972,1,0,1:0:0:0:
44,271,104085,1,0,1:0:0:0:
101,321,104199,6,0,P|159:319|178:268,1,100.8,4|0,1:2|0:0,0:0:0:0:
234,235,104540,1,0,1:0:0:0:
187,176,104653,2,0,B|168:147|168:147|194:79,1,100.8,12|0,0:0|1:0,0:0:0:0:
250,34,104994,2,0,B|283:30|283:30|310:42|310:42|366:36,1,100.8,2|0,0:0|1:0,0:0:0:0:
418,73,105335,1,2,1:2:0:0:
442,78,105449,1,0,1:2:0:0:
466,82,105562,2,0,B|489:143|489:143|470:172,1,100.8,8|0,0:0|2:0,0:0:0:0:
366,326,106017,6,0,B|305:339|305:339|340:356,1,100.8,2|0,1:2|0:0,0:0:0:0:
437,366,106358,2,0,L|444:308,1,50.4,0|8,1:0|0:0,0:0:0:0:
345,193,106699,1,0,1:0:0:0:
339,203,106812,2,0,P|287:211|247:183,1,100.8,2|0,0:2|1:2,0:2:0:0:
179,212,107153,1,2,1:2:0:0:
172,187,107267,1,0,1:2:0:0:
166,162,107381,2,0,P|124:135|75:144,1,100.8,8|0,0:2|1:2,0:2:0:0:
11,179,107722,1,0,1:2:0:0:
0,252,107835,6,0,B|7:288|7:288|21:312|21:312|29:370,1,100.8,6|0,1:2|0:2,0:2:0:0:
104,379,108176,1,0,1:2:0:0:
104,379,108290,2,0,L|95:315,1,50.4,8|0,0:2|0:2,0:2:0:0:
163,255,108517,1,0,1:2:0:0:
177,275,108631,2,0,B|226:288|226:288|275:253,1,100.8,2|0,0:2|1:2,0:2:0:0:
326,205,108972,1,2,1:2:0:0:
319,180,109085,1,0,1:2:0:0:
313,155,109199,2,0,B|306:125|306:125|312:98|312:98|303:54,1,100.8,8|0,0:2|0:2,0:2:0:0:
56,19,109653,5,2,1:2:0:0:
216,100,109881,1,8,0:2:0:0:
2,239,110108,1,8,0:2:0:0:
188,349,110335,2,0,B|203:366|203:366|198:337,1,50.4,8|8,0:2|0:2,0:2:0:0:
248,275,110562,37,6,1:1:0:0:
216,261,110676,1,8,0:2:0:0:
181,259,110790,2,0,B|148:268|148:268|119:310,1,69.3000021148682,8|0,0:2|0:2,0:2:0:0:
287,378,111017,2,0,B|320:369|320:369|349:327,1,69.3000021148682,10|0,0:1|0:2,0:2:0:0:
307,131,111244,2,8,B|274:140|274:140|245:182,1,69.3000021148682,8|8,0:2|0:2,0:2:0:0:
378,225,111472,22,0,P|433:249|499:228,1,113.399996539307,6|0,1:2|1:0,0:0:0:0:
336,54,111926,2,0,B|302:39|267:56|267:56|226:43,1,113.399996539307,12|0,0:0|0:0,0:0:0:0:
129,11,112267,1,0,1:0:0:0:
103,24,112381,2,0,P|75:57|91:131,1,113.399996539307,2|0,0:0|1:0,0:0:0:0:
135,178,112722,1,0,1:0:0:0:
198,141,112835,2,0,B|232:126|267:143|267:143|307:130,1,113.399996539307,8|0,0:0|0:0,0:0:0:0:
512,210,113290,6,0,B|488:196|488:196|458:196,1,56.6999982696534,2|0,1:2|0:0,0:0:0:0:
440,286,113517,2,0,B|464:300|464:300|493:299,1,56.6999982696534,0|0,1:0|0:0,0:0:0:0:
382,227,113744,2,0,B|336:232|336:232|320:247|320:247|274:255,1,113.399996539307,8|0,0:0|0:0,0:0:0:0:
210,300,114085,2,0,B|175:315|175:315|197:243,1,113.399996539307,2|0,1:2|0:0,0:0:0:0:
245,182,114426,1,0,1:0:0:0:
236,154,114540,1,0,1:0:0:0:
227,126,114653,1,8,0:0:0:0:
80,56,114881,1,0,1:0:0:0:
80,56,114994,1,0,1:0:0:0:
27,118,115108,6,0,B|5:171|5:171|21:227,2,113.399996539307,6|0|8,1:2|1:0|0:0,0:0:0:0:
170,23,115790,1,2,3:2:0:0:
190,43,115903,1,0,1:0:0:0:
212,59,116017,2,0,B|280:69|280:69|289:47|320:33,1,113.399996539307,2|0,0:2|1:0,0:0:0:0:
381,16,116358,1,0,1:0:0:0:
449,42,116472,2,0,B|471:95|471:95|455:151,1,113.399996539307,8|0,0:0|0:0,0:0:0:0:
364,216,116812,5,2,0:0:0:0:
339,230,116926,2,0,L|279:217,1,56.6999982696534,0|0,1:0|0:0,0:0:0:0:
200,213,117153,2,0,L|256:226,1,56.6999982696534,0|0,1:0|0:0,0:0:0:0:
149,147,117381,2,0,P|117:192|126:251,1,113.399996539307,10|0,0:0|0:0,0:0:0:0:
180,322,117722,1,0,1:0:0:0:
199,342,117835,2,0,L|327:330,1,113.399996539307,2|0,0:0|1:0,0:0:0:0:
330,351,118176,1,0,1:0:0:0:
349,371,118290,1,8,0:0:0:0:
461,232,118517,1,8,0:0:0:0:
510,287,118631,1,8,0:0:0:0:
474,354,118744,6,0,B|446:340|446:340|430:302,1,63,6|0,1:2|0:0,0:0:0:0:
389,198,118972,2,0,B|401:168|401:168|429:154,1,63,0|0,1:0|0:0,0:0:0:0:
309,294,119199,2,0,B|253:324|253:324|180:302,1,126,8|0,0:0|0:0,0:0:0:0:
87,280,119540,2,0,B|48:357|48:357|83:339,1,126,0|0,1:2|0:0,0:0:0:0:
180,276,119881,1,2,1:2:0:0:
167,246,119994,1,0,1:0:0:0:
155,216,120108,2,0,B|101:188|101:188|38:204,1,126,8|0,0:0|0:0,0:0:0:0:
203,37,120562,6,0,P|208:75|224:107,1,63,2|0,1:2|0:0,0:0:0:0:
353,65,120790,2,0,P|349:33|338:4,1,63,0|0,1:0|0:0,0:0:0:0:
302,137,121017,2,0,P|342:186|410:171,1,126,8|0,0:0|0:0,0:0:0:0:
492,249,121358,1,0,1:0:0:0:
470,226,121472,2,0,P|409:221|372:269,1,126,2|0,0:0|1:0,0:0:0:0:
313,316,121812,1,0,1:0:0:0:
307,346,121926,1,8,0:0:0:0:
171,229,122153,1,8,0:0:0:0:
99,203,122267,1,8,0:0:0:0:
43,254,122381,6,0,P|40:287|49:323,1,63,2|0,1:2|0:0,0:0:0:0:
191,304,122608,2,0,P|221:289|247:263,1,63,0|0,1:0|0:0,0:0:0:0:
157,154,122835,2,0,P|129:134|93:125,1,63,8|0,0:0|0:0,0:0:0:0:
232,41,123062,5,2,0:0:0:0:
301,66,123176,2,0,B|331:60|349:28|349:28|415:21,1,126,0|0,1:0|0:0,0:0:0:0:
512,66,123517,1,0,1:2:0:0:
509,97,123631,1,0,1:0:0:0:
507,128,123744,2,0,L|499:207,1,63,8|0,0:0|0:0,0:0:0:0:
372,194,123972,2,0,L|364:273,1,63,0|0,1:0|1:0,0:0:0:0:
261,138,124199,5,14,2:2:0:0:
241,113,124312,1,8,2:0:0:0:
211,101,124426,1,8,2:0:0:0:
178,102,124540,1,8,2:0:0:0:
111,67,124653,5,10,2:2:0:0:
75,80,124767,1,8,2:0:0:0:
52,110,124881,1,8,2:0:0:0:
44,146,124994,1,8,2:0:0:0:
0,216,125108,5,10,0:0:0:0:
19,255,125222,1,8,0:0:0:0:
55,279,125335,1,8,0:0:0:0:
99,280,125449,1,8,0:0:0:0:
170,325,125562,5,8,0:3:0:0:
216,305,125676,1,8,0:0:0:0:
238,259,125790,2,0,L|221:183,1,63,8|0,0:0|0:0,0:0:0:0:
361,61,126017,5,10,0:1:0:0:
323,122,126131,1,8,0:0:0:0:
372,175,126244,1,8,0:0:0:0:
410,114,126358,1,10,0:1:0:0:
219,11,126585,5,10,0:1:0:0:
414,117,126812,5,10,0:1:0:0:
470,173,126926,2,2,B|529:190|529:190|485:129,1,126,6|8,1:2|0:2,0:1:0:0:
418,121,127267,1,8,0:2:0:0:
395,204,127381,6,2,B|390:241|390:241|395:259|395:259|389:299,1,94.5,14|0,0:1|0:2,0:1:0:0:
164,371,127835,6,0,P|222:365|247:342,1,75.5999976928712,6|0,1:2|2:2,2:2:0:0:
203,202,128062,2,0,P|145:208|120:231,1,75.5999976928712,2|0,2:2|2:2,2:2:0:0:
284,261,128290,1,12,2:2:0:0:
308,190,128403,2,0,B|283:174|283:174|286:201|302:226,1,75.5999976928712,2|0,2:2|2:2,2:2:0:0:
447,336,128631,6,0,B|491:323|491:323|381:294,1,151.199995385742,2|0,1:2|2:2,2:2:0:0:
297,217,128972,2,0,B|276:183|288:143,1,75.5999976928712,2|0,1:2|2:2,2:2:0:0:
344,35,129199,2,0,P|379:18|430:20,1,75.5999976928712,8|0,2:2|2:2,2:2:0:0:
270,150,129426,5,2,3:2:0:0:
257,157,129540,1,0,3:2:0:0:
242,161,129653,2,0,P|200:158|162:131,1,75.5999976928712,0|0,1:2|2:2,2:2:0:0:
100,46,129881,2,0,P|58:49|20:76,1,75.5999976928712,2|0,2:2|2:2,2:2:0:0:
0,204,130108,1,8,2:2:0:0:
63,245,130222,2,0,P|105:242|143:215,1,75.5999976928712,2|0,2:2|2:2,2:2:0:0:
302,294,130449,6,0,B|261:280|261:280|207:319|237:378,1,151.199995385742,2|0,1:2|2:2,2:2:0:0:
388,321,130790,2,0,P|388:280|369:238,1,75.5999976928712,2|0,1:2|2:2,2:2:0:0:
299,158,131017,2,0,B|250:143|250:143|201:172|150:143,1,151.199995385742,8|0,2:2|2:2,2:2:0:0:
18,22,131358,5,2,2:2:0:0:
4,44,131472,2,0,P|40:94|14:26,1,226.799993078614,0|0,1:2|2:2,2:2:0:0:
199,82,131926,2,0,B|189:46|189:46|136:82|154:145,1,151.199995385742,8|0,2:2|2:2,2:2:0:0:
205,248,132267,5,0,1:2:0:0:
223,263,132381,2,0,P|262:264|314:232,1,75.5999976928712,2|0,2:2|2:2,2:2:0:0:
412,126,132608,2,0,P|373:125|321:157,1,75.5999976928712,0|0,1:2|2:2,2:2:0:0:
384,321,132835,2,0,P|423:322|475:290,1,75.5999976928712,8|0,2:2|2:2,2:2:0:0:
295,249,133062,6,0,P|256:248|204:280,1,75.5999976928712,2|0,2:2|2:2,2:2:0:0:
209,274,133290,6,2,B|231:312|231:312|224:363,1,88.1999973083497,6|0,1:1|2:2,2:1:0:0:
147,370,133517,2,0,B|125:332|125:332|132:289,1,88.1999973083497,2|0,0:2|0:0,0:0:0:0:
261,147,133744,38,0,P|300:148|352:116,1,85.0499974044801,10|0,2:2|2:2,2:2:0:0:
353,115,133972,6,2,B|332:73|332:73|338:26,1,94.500003604889,6|0,1:1|2:2,2:1:0:0:
416,13,134199,2,0,B|437:55|437:55|431:102,1,94.500003604889,2|0,0:0|0:0,0:0:0:0:
295,249,134426,37,10,2:1:0:0:
295,249,134540,1,8,2:2:0:0:
343,310,134653,2,0,B|400:326|400:326|407:304,1,81.8999962509157,12|0,2:2|2:2,2:2:0:0:
448,124,134881,2,0,B|505:108|505:108|512:129,1,81.8999962509157,8|8,2:2|2:2,2:2:0:0:
459,216,135108,22,0,P|411:207|372:175,1,75.5999976928712,6|0,1:2|2:2,2:2:0:0:
314,90,135335,2,0,P|305:41|321:-5,1,75.5999976928712,2|0,2:2|2:2,2:2:0:0:
250,184,135562,1,8,2:2:0:0:
203,243,135676,2,0,P|167:255|130:254,1,75.5999976928712,2|0,2:2|2:2,2:2:0:0:
61,145,135903,6,0,B|17:129|17:129|-9:189|48:231,1,151.199995385742,2|0,1:2|2:2,2:2:0:0:
158,172,136244,2,0,B|169:119|169:119|149:141,1,75.5999976928712,2|0,1:2|2:2,2:2:0:0:
282,292,136472,2,0,B|296:307|296:307|285:254,1,75.5999976928712,8|0,2:2|2:2,2:2:0:0:
424,94,136699,5,2,3:2:0:0:
406,84,136812,1,0,3:2:0:0:
385,84,136926,2,0,P|362:117|359:154,1,75.5999976928712,0|0,1:2|2:2,2:2:0:0:
426,238,137153,2,0,P|459:249|504:247,1,75.5999976928712,2|0,2:2|2:2,2:2:0:0:
349,322,137381,1,8,2:2:0:0:
415,364,137494,2,0,B|438:383|438:383|419:337,1,75.5999976928712,2|0,2:2|2:2,2:2:0:0:
258,257,137722,6,0,B|170:268|170:268|141:238|105:239,1,151.199995385742,2|0,1:2|2:2,2:2:0:0:
76,329,138062,2,0,B|69:354|69:354|98:348|101:321,1,75.5999976928712,2|0,1:2|2:2,2:2:0:0:
33,227,138290,2,0,B|13:210|13:210|5:238|28:253,1,75.5999976928712,8|0,2:2|2:2,2:2:0:0:
196,170,138517,5,2,3:2:0:0:
194,147,138631,1,0,3:2:0:0:
187,125,138744,2,0,B|164:74|92:58|53:83|53:83|57:130|101:145,1,226.799993078614,4|0,1:2|2:2,2:2:0:0:
271,133,139199,2,0,B|318:109|290:44|290:44|257:40|234:69,1,151.199995385742,8|0,2:2|2:2,2:2:0:0:
186,201,139540,1,0,1:2:0:0:
245,253,139653,6,0,B|283:256|283:256|315:237,1,75.5999976928712,2|0,2:2|2:2,2:2:0:0:
415,363,139881,2,0,B|377:360|377:360|344:378,1,75.5999976928712,0|0,1:2|2:2,2:2:0:0:
413,193,140108,2,0,B|468:205|468:205|542:146|489:47,1,226.799993078614,8|0,2:2|2:2,2:2:0:0:
375,21,140562,6,0,L|271:31,1,75.5999976928712,12|0,0:0|0:0,0:0:0:0:
275,218,140790,2,0,L|171:228,1,75.5999976928712,2|0,1:2|0:0,0:0:0:0:
94,77,141017,2,0,L|18:84,1,75.5999976928712,8|0,0:0|0:0,0:0:0:0:
158,126,141244,5,2,0:0:0:0:
170,104,141358,2,0,P|175:68|161:28,2,75.5999976928712,10|8|8,0:0|0:0|0:0,0:0:0:0:
35,199,141699,2,0,P|30:236|44:275,1,75.5999976928712,0|0,1:0|1:0,0:0:0:0:
144,338,141926,5,8,0:0:0:0:
222,330,142040,1,8,0:0:0:0:
301,323,142153,1,8,0:0:0:0:
380,315,142267,1,8,0:0:0:0:
459,359,142381,22,0,B|507:366|507:366|496:239|496:239|449:255,1,226.799993078614,6|0,1:2|0:0,0:1:0:0:
179,354,142835,2,2,P|125:361|70:326,1,113.399996539307,14|0,0:1|0:0,0:1:0:0:
60,316,143062,6,0,B|39:266|61:222|104:196|104:196|84:137|24:152,1,226.799993078614,2|0,1:2|0:0,0:0:0:0:
137,277,143517,2,0,P|171:271|217:238,1,75.5999976928712,0|0,1:0|0:0,0:0:0:0:
274,153,143744,2,0,P|265:113|235:69,1,75.5999976928712,8|0,0:0|0:0,0:0:0:0:
475,25,143972,5,2,3:2:0:0:
462,17,144085,1,0,3:0:0:0:
446,16,144199,2,0,B|382:51|383:161|461:161|500:134|485:87,1,226.799993078614,2|0,1:2|0:0,0:0:0:0:
309,37,144653,2,0,P|266:46|228:73,1,75.5999976928712,8|0,0:0|0:0,0:0:0:0:
189,211,144881,1,0,1:0:0:0:
177,228,144994,2,0,P|89:221|78:164,1,151.199995385742,0|0,1:0|0:0,0:0:0:0:
295,127,145335,6,0,P|321:129|371:155,1,75.5999976928712,2|0,1:2|0:0,0:0:0:0:
442,313,145562,2,0,P|479:308|512:290,1,75.5999976928712,12|0,0:0|0:0,0:0:0:0:
307,212,145790,2,0,B|270:249|270:249|311:238,1,75.5999976928712,8|8,0:0|0:0,0:0:0:0:
498,165,146017,5,6,1:2:0:0:
468,95,146131,1,2,0:0:0:0:
438,25,146244,1,2,0:0:0:0:
448,99,146358,1,2,0:0:0:0:
461,174,146472,1,10,0:0:0:0:
280,89,146699,5,2,0:0:0:0:
250,19,146812,1,2,1:2:0:0:
159,219,147040,37,2,0:2:0:0:
172,294,147153,1,2,1:2:0:0:
0,130,147381,6,0,B|52:133|80:75|80:75|130:59,1,151.199995385742,10|0,0:0|3:0,0:0:0:0:
250,19,147722,1,0,3:0:0:0:
280,89,147835,6,2,B|284:161|220:210|220:210|174:144|201:76,1,283.500010814667,6|0,1:2|0:0,0:1:0:0:
500,243,148290,6,0,B|480:228|457:222|457:222|435:237|427:257,1,94.5,10|0,0:0|0:0,0:0:0:0:
427,274,148517,38,2,B|430:323|481:355|481:355|518:308|502:258,1,201.6,6|8,1:1|0:0,0:1:0:0:
434,154,148858,1,8,0:0:0:0:
369,194,148972,6,0,B|330:203|330:203|293:178,1,81.8999962509157,2|0,1:1|0:0,0:0:0:0:
242,29,149199,2,0,B|203:20|203:20|168:43,1,81.8999962509157,12|0,2:2|0:0,0:0:0:0:
169,256,149426,2,8,B|130:265|130:265|95:241,1,81.8999962509157,10|8,2:2|2:0,2:0:0:0:
59,131,149653,6,0,B|11:114|11:114|36:144,1,75.5999976928712,4|0,1:2|0:0,0:0:0:0:
147,182,149881,2,0,P|189:176|234:147,1,75.5999976928712,2|0,0:0|0:0,0:0:0:0:
326,56,150108,2,0,P|368:62|413:91,1,75.5999976928712,8|0,0:0|0:0,0:0:0:0:
488,186,150335,5,0,1:0:0:0:
488,186,150449,2,0,B|470:277|470:277|497:298|512:334,1,151.199995385742,2|0,0:0|0:0,0:0:0:0:
401,359,150790,2,0,P|426:371|411:345,1,75.5999976928712,2|0,1:2|0:0,2:0:0:0:
338,151,151017,2,0,P|323:176|350:165,1,75.5999976928712,8|0,0:0|0:0,0:0:0:0:
231,284,151244,5,10,0:0:0:0:
166,244,151358,1,8,0:0:0:0:
99,281,151472,2,0,B|66:318|66:318|99:312,1,75.5999976928712,4|0,1:2|0:0,0:0:0:0:
168,168,151699,2,0,B|151:120|151:120|140:153,1,75.5999976928712,2|0,0:0|0:0,0:0:0:0:
231,284,151926,2,0,B|280:293|280:293|257:267,1,75.5999976928712,8|0,0:0|0:0,0:0:0:0:
78,196,152153,5,0,1:0:0:0:
78,196,152267,2,0,B|56:217|56:217|101:265|168:244,1,151.199995385742,2|0,0:0|0:0,0:0:0:0:
255,114,152608,2,0,P|253:81|223:28,1,75.5999976928712,2|0,1:2|0:0,0:0:0:0:
334,257,152835,2,0,P|363:271|424:272,1,75.5999976928712,8|0,0:0|0:0,0:0:0:0:
166,245,153062,2,0,P|138:263|107:315,1,75.5999976928712,0|0,1:2|1:0,0:0:0:0:
328,154,153290,5,6,1:2:0:0:
386,199,153403,1,2,0:0:0:0:
447,157,153517,1,2,0:0:0:0:
426,86,153631,1,2,0:0:0:0:
352,84,153744,1,10,0:0:0:0:
258,313,153972,5,2,0:0:0:0:
316,358,154085,1,2,1:2:0:0:
92,254,154312,37,2,0:2:0:0:
18,252,154426,1,2,1:2:0:0:
231,126,154653,6,0,L|248:50,1,75.5999976928712,8|0,0:0|0:0,0:0:0:0:
67,166,154881,2,0,B|105:166|105:166|144:146,1,75.5999976928712,0|0,1:0|1:0,0:0:0:0:
341,25,155108,5,12,0:0:0:0:
419,9,155222,1,8,0:0:0:0:
486,53,155335,1,8,0:3:0:0:
502,131,155449,1,8,0:3:0:0:
458,198,155562,1,8,0:0:0:0:
339,32,155790,5,0,1:0:0:0:
417,16,155903,1,0,1:0:0:0:
484,60,156017,1,8,0:3:0:0:
500,138,156131,1,8,0:0:0:0:
456,205,156244,1,0,0:0:0:0:
377,221,156358,1,8,0:3:0:0:
311,177,156472,1,8,0:0:0:0:
294,98,156585,1,8,0:3:0:0:
339,32,156699,2,0,B|382:16|382:16|347:57,1,75.5999976928712,4|4,0:3|0:3,0:0:0:0:
212,194,156926,6,0,P|181:194|142:173,1,63,4|0,1:0|0:0,0:0:0:0:
86,70,157153,2,0,P|55:70|16:91,1,63,0|0,1:0|0:0,0:0:0:0:
198,117,157381,2,0,B|211:75|166:39|166:39|173:57|172:73,1,126,8|0,0:0|0:0,0:0:0:0:
68,155,157722,6,0,P|32:205|35:267,1,126,2|0,1:2|0:2,0:2:0:0:
94,332,158062,1,0,1:0:0:0:
110,341,158176,1,0,1:2:0:0:
127,348,158290,2,0,B|260:339,1,126,8|0,0:2|0:2,0:2:0:0:
458,310,158744,6,0,P|455:348|434:388,1,63,2|0,1:2|0:0,0:0:0:0:
407,243,158972,1,2,1:2:0:0:
407,243,159085,2,8,P|441:226|486:224,1,63,2|8,0:0|0:0,0:0:0:0:
375,321,159312,1,2,0:0:0:0:
375,321,159426,2,0,P|343:299|319:261,2,63,2|0|0,0:0|1:0|0:0,0:0:0:0:
459,138,159767,6,0,P|438:114|412:97,1,63,2|0,0:0|1:0,0:0:0:0:
317,10,159994,1,0,1:0:0:0:
262,61,160108,2,0,B|232:90|190:74|190:74|180:53|152:43,1,126,12|0,0:2|0:2,0:2:0:0:
29,20,160449,1,8,0:0:0:0:
31,95,160562,6,0,B|46:144|106:136|106:136|113:122|125:110,1,126,4|0,1:2|1:0,0:0:0:0:
238,182,160903,2,0,P|212:167|171:161,1,63,2|8,0:0|0:0,0:0:0:0:
65,247,161131,1,2,0:0:0:0:
65,247,161244,2,0,P|28:256|-9:252,2,63,2|0|0,0:0|1:0|0:0,0:0:0:0:
131,356,161585,6,0,P|159:372|202:369,1,63,2|0,0:0|1:0,0:0:0:0:
294,340,161812,1,2,1:2:0:0:
305,322,161926,2,0,B|299:286|314:256|314:256|294:234|288:191,1,126,8|0,0:0|0:0,0:0:0:0:
418,163,162267,5,2,0:0:0:0:
421,180,162381,2,0,B|399:202|399:202|364:200,1,63,2|0,1:2|0:0,0:0:0:0:
229,273,162608,1,2,1:2:0:0:
223,259,162722,2,0,B|201:237|201:237|169:238,1,63,2|8,2:2|0:0,0:0:0:0:
72,150,162949,1,2,0:0:0:0:
59,163,163062,2,0,B|27:164|27:164|5:142,2,63,2|0|0,2:2|1:0|0:0,0:0:0:0:
163,57,163403,6,0,P|194:45|229:45,1,63,2|0,0:0|1:0,0:0:0:0:
294,12,163631,1,2,1:2:0:0:
345,70,163744,2,0,B|385:120|461:117|461:117|429:129|420:156,1,189,12|0,0:0|0:0,0:0:0:0:
481,263,164199,5,6,1:2:0:0:
496,265,164312,1,0,0:2:0:0:
469,274,164426,1,0,1:2:0:0:
474,246,164540,1,0,0:2:0:0:
400,235,164653,5,10,0:2:0:0:
425,227,164767,1,0,0:2:0:0:
394,261,164881,1,0,0:2:0:0:
380,217,164994,1,0,1:2:0:0:
308,244,165108,37,2,0:2:0:0:
330,220,165222,1,0,0:2:0:0:
316,274,165335,1,0,1:2:0:0:
276,235,165449,1,0,1:2:0:0:
247,307,165562,6,0,P|181:336|165:270,1,151.2,10|0,0:0|0:0,0:0:0:0:
122,204,166017,6,0,B|119:178|135:151|135:151|105:75,1,113.399996539307,2|0,1:2|1:0,0:0:0:0:
109,20,166358,1,2,0:0:0:0:
109,20,166472,2,0,P|81:27|52:45,1,56.6999982696534,8|0,0:0|0:0,0:0:0:0:
52,158,166699,2,0,P|27:172|0:178,1,56.6999982696534,2|0,0:0|1:0,0:0:0:0:
184,57,166926,6,0,B|238:77|238:77|294:53,1,113.399996539307,2|0,0:0|1:0,0:0:0:0:
371,5,167267,1,2,1:2:0:0:
442,35,167381,2,8,P|456:73|458:105,1,56.6999982696534,12|0,0:0|0:0,0:0:0:0:
512,170,167608,2,8,P|507:197|495:223,1,56.6999982696534,2|0,0:0|0:0,0:0:0:0:
395,340,167835,38,0,B|394:369|413:382|413:382|413:356,1,63,4|0,1:0|0:0,0:0:0:0:
463,309,168062,2,0,P|418:268|349:276,1,126,10|0,0:0|1:0,0:0:0:0:
294,314,168403,1,8,0:0:0:0:
235,359,168517,2,0,P|201:361|166:343,1,63,2|0,1:2|0:0,0:0:0:0:
97,241,168744,22,0,L|86:161,1,63,10|0,0:0|0:0,0:0:0:0:
105,184,168972,2,0,L|112:240,1,47.2500018024445,0|0,1:0|0:0,0:0:0:0:
285,208,169199,6,0,L|296:128,1,63,10|0,0:0|0:0,0:0:0:0:
277,151,169426,2,0,L|270:207,1,47.2500018024445,0|0,1:0|0:0,0:0:0:0:
379,312,169653,5,6,1:2:0:0:
441,349,169767,1,8,0:0:0:0:
504,313,169881,1,4,2:3:0:0:
504,240,169994,1,4,2:3:0:0:
440,203,170108,2,0,B|409:209|409:209|374:193,1,63,10|0,0:0|0:0,0:0:0:0:
262,120,170335,5,8,0:3:0:0:
282,70,170449,1,8,0:3:0:0:
248,29,170562,2,0,B|216:22|216:22|179:36,1,63,4|0,0:3|0:0,0:0:0:0:
94,118,170790,5,8,3:2:0:0:
61,97,170903,1,8,3:2:0:0:
36,176,171017,5,8,3:2:0:0:
3,177,171131,1,8,3:2:0:0:
20,255,171244,37,4,3:3:0:0:
0,270,171358,1,4,3:3:0:0:
51,326,171472,22,0,B|69:358|107:357|107:357|139:336|135:298,1,138.600004229736,6|0,1:2|1:0,0:0:0:0:
188,242,171812,1,0,1:0:0:0:
227,176,171926,2,0,B|260:100|194:42|194:42|138:67,1,207.900006344605,4|0,1:0|1:0,0:0:0:0:
313,115,172381,6,0,P|347:64|288:49,1,138.600004229736,2|0,0:0|1:0,2:0:0:0:
227,176,172722,1,0,1:0:0:0:
241,196,172835,2,0,P|266:211|305:219,1,69.3000021148682,8|0,0:0|0:0,0:0:0:0:
363,293,173062,2,0,P|396:286|427:270,1,69.3000021148682,2|0,0:0|0:0,0:0:0:0:
501,172,173290,2,0,P|498:107|460:40,2,138.600004229736,2|0|8,1:2|1:0|0:0,0:0:0:0:
336,314,173972,5,2,0:0:0:0:
303,325,174085,1,0,1:0:0:0:
269,334,174199,2,0,L|188:317,1,69.3000021148682,2|0,0:0|0:0,0:0:0:0:
70,324,174426,2,0,B|51:346|51:346|71:404,1,69.3000021148682,0|0,1:2|1:0,0:0:0:0:
135,235,174653,2,0,B|124:191|124:191|147:142|113:88,1,138.600004229736,12|0,0:0|0:0,0:0:0:0:
59,56,174994,1,2,0:0:0:0:
21,121,175108,6,0,B|6:165|47:198|47:198|45:173|56:148,1,138.600004229736,2|0,1:2|1:0,0:0:0:0:
397,80,175562,2,0,B|384:55|387:28|387:28|346:63|363:103,1,138.600004229736,8|0,2:2|2:0,2:0:0:0:
457,172,175903,1,0,1:0:0:0:
476,166,176017,2,0,B|465:119|465:119|488:73|454:19,1,138.600004229736,2|0,0:0|1:0,0:0:0:0:
304,10,176358,1,0,1:0:0:0:
293,37,176472,2,0,P|331:90|396:81,1,138.600004229736,8|0,0:0|0:0,0:0:0:0:
512,283,176926,6,0,L|435:271,1,69.3000021148682,6|0,1:2|0:0,0:0:0:0:
345,373,177153,2,0,L|268:361,1,69.3000021148682,2|0,1:2|0:0,0:0:0:0:
211,204,177381,2,0,B|163:196|163:196|184:229,1,69.3000021148682,12|0,0:0|0:0,0:0:0:0:
247,284,177608,5,2,0:0:0:0:
265,272,177722,2,0,P|297:220|271:140,1,138.600004229736,0|0,1:0|0:0,0:0:0:0:
145,92,178062,1,2,1:2:0:0:
137,102,178176,1,0,1:0:0:0:
130,113,178290,2,0,B|99:157|99:157|101:220|174:244|211:201,1,207.900006344605,8|0,0:0|0:0,0:0:0:0:
261,57,178744,6,0,P|291:41|326:39,1,69.3000021148682,6|0,1:2|0:0,0:0:0:0:
411,2,178972,2,0,P|435:26|448:58,1,69.3000021148682,0|0,1:0|0:0,0:0:0:0:
509,127,179199,2,0,P|493:157|466:179,1,69.3000021148682,8|0,0:0|0:0,0:0:0:0:
415,282,179426,5,2,0:0:0:0:
426,272,179540,2,0,P|370:231|288:240,1,138.600004229736,0|0,1:0|0:0,0:0:0:0:
204,330,179881,1,2,1:2:0:0:
196,349,179994,1,0,1:0:0:0:
187,367,180108,2,0,P|118:368|64:327,1,138.600004229736,8|0,0:0|0:0,0:0:0:0:
12,205,180449,5,2,0:0:0:0:
21,193,180562,2,0,B|7:151|7:151|-4:188,1,69.3000021148682,0|0,1:0|0:0,0:0:0:0:
109,259,180790,2,0,B|143:258|143:258|185:231,1,69.3000021148682,2|0,1:2|0:0,0:0:0:0:
235,133,181017,2,0,L|210:50,1,69.3000021148682,8|0,0:0|0:0,0:0:0:0:
334,210,181244,5,2,0:0:0:0:
357,218,181358,2,0,B|425:233|425:233|493:178,1,138.600004229736,0|0,1:0|0:0,0:0:0:0:
509,69,181699,1,2,1:2:0:0:
509,69,181812,1,0,1:0:0:0:
438,36,181926,2,0,B|370:21|370:21|302:76,1,138.600004229736,12|0,2:0|0:0,0:0:0:0:
98,238,182381,5,10,0:0:0:0:
98,238,182494,2,0,L|48:220,2,37.7999988464356,8|8|8,0:0|0:0|0:0,0:0:0:0:
187,215,182722,1,10,0:0:0:0:
187,215,182835,2,0,L|235:172,1,56.6999982696534,8|8,0:0|0:0,0:0:0:0:
162,302,183062,2,0,L|174:365,1,56.6999982696534,8|8,0:0|0:0,0:0:0:0:
122,149,183290,5,10,0:0:0:0:
122,149,183403,2,0,L|109:92,2,42,8|8|8,0:0|0:0|0:0,0:0:0:0:
251,280,183631,1,10,0:0:0:0:
251,280,183744,2,0,L|312:300,1,63,8|8,0:3|0:3,0:0:0:0:
72,325,183972,2,0,L|23:367,1,63,4|4,0:3|0:3,0:0:0:0:
229,177,184199,5,10,0:1:0:0:
301,209,184312,1,8,0:2:0:0:
348,144,184426,1,8,0:2:0:0:
276,112,184540,1,10,0:1:0:0:
235,372,184767,5,10,0:1:0:0:
273,108,184994,5,10,0:0:0:0:
209,61,185108,2,2,P|132:40|59:88,1,151.199995385742,6|8,0:2|0:0,0:1:0:0:
309,205,185449,6,0,P|365:148|349:55,1,163.799992501831,8|8,0:0|0:0,0:0:0:0:
145,226,185790,6,0,P|165:303|282:351,1,176.399994616699,8|4,0:0|1:1,0:0:0:0:
243,352,186472,1,0,1:0:0:0:
243,352,186926,1,0,1:0:0:0:
243,352,187381,1,0,1:0:0:0:
457,230,187835,5,2,1:2:0:0:
453,264,188290,1,0,1:0:0:0:
419,260,188744,1,0,1:0:0:0:
423,226,189199,1,4,1:2:0:0:
304,59,189653,5,2,1:2:0:0:
286,131,190108,1,0,1:0:0:0:
358,149,190562,1,0,1:0:0:0:
376,77,191017,1,0,1:0:0:0:
202,156,191472,6,0,B|145:169|145:169|91:140,1,113.399996539307,2|0,1:2|0:0,0:0:0:0:
78,133,191926,1,0,1:0:0:0:
158,87,192153,1,2,0:0:0:0:
79,232,192381,38,0,P|76:283|91:325,1,88.1999973083497,2|0,1:2|0:0,0:0:0:0:
152,367,192722,1,0,1:0:0:0:
152,367,192835,2,0,L|252:358,1,88.1999973083497,8|0,0:0|0:0,0:0:0:0:
308,382,193176,1,8,0:0:0:0:
361,330,193290,22,0,P|385:259|351:196,1,151.2,4|0,1:0|0:0,0:0:0:0:
195,257,193744,2,0,B|231:279|231:279|302:266,1,113.399996539307,8|0,0:0|0:0,0:0:0:0:
350,195,194199,2,0,B|357:144|419:123|419:123|405:143|404:170,1,151.2,2|0,1:2|0:0,0:0:0:0:
302,266,194653,2,0,B|231:279|231:279|195:257,1,113.399996539307,8|0,0:0|0:0,0:0:0:0:
139,189,195108,6,0,B|97:176|97:176|40:222|85:288,1,151.2,2|0,1:2|0:0,0:0:0:0:
196,257,195562,2,0,P|225:209|215:155,1,113.399996539307,8|0,0:0|0:0,0:0:0:0:
131,81,196017,2,0,B|80:108|98:174|98:174|140:189,1,151.2,2|0,1:2|0:0,0:0:0:0:
215,155,196472,1,8,0:0:0:0:
272,308,196699,5,2,3:2:0:0:
272,308,196812,1,0,3:0:0:0:
272,308,196926,2,0,B|342:338|342:338|403:295,1,151.2,0|0,1:2|0:0,0:0:0:0:
498,217,197381,2,0,B|499:173|499:173|460:238,1,113.399996539307,8|0,0:0|0:0,0:0:0:0:
403,295,197835,2,0,B|342:338|342:338|272:308,1,151.2,2|0,1:2|0:0,0:0:0:0:
191,270,198290,1,8,0:0:0:0:
321,181,198517,5,8,0:0:0:0:
381,216,198631,1,8,0:0:0:0:
446,190,198744,1,8,0:0:0:0:
466,124,198858,1,8,0:0:0:0:
429,65,198972,1,8,0:0:0:0:
359,60,199085,1,8,0:0:0:0:
309,110,199199,1,12,0:0:0:0:
140,33,199426,5,8,0:0:0:0:
117,63,199540,1,8,0:0:0:0:
80,73,199653,2,0,P|61:70|17:35,1,50.4,10|0,0:0|0:0,0:0:0:0:
205,250,199881,6,0,P|216:273|220:325,1,56.6999982696534,8|0,0:0|0:0,0:0:0:0:
272,44,200108,38,0,P|295:21|348:12,1,63,4|0,0:3|0:0,0:0:0:0:
101,200,200335,6,0,P|68:212|23:206,1,69.3000021148682,8|8,0:0|0:0,0:0:0:0:
338,86,200562,6,0,B|403:78|459:107|496:182|496:182|456:168|399:181,1,283.500010814667,4|0,1:1|0:0,0:0:0:0:
260,322,201017,2,2,B|261:371|311:384|311:384|293:362|297:329,1,132.299995962525,14|0,0:1|0:0,0:1:0:0:
305,332,201244,6,0,P|300:241|262:324,1,245.699988752747,2|0,0:0|0:0,0:0:0:0:
403,359,201699,2,0,P|437:356|481:334,1,75.5999976928712,0|0,1:0|0:0,0:0:0:0:
512,214,201926,2,0,P|506:176|483:126,1,75.5999976928712,8|0,0:0|0:0,0:0:0:0:
387,30,202153,5,2,3:2:0:0:
383,47,202267,1,0,3:0:0:0:
376,63,202381,2,0,B|345:118|271:95|271:95|240:37|170:41,1,226.799993078614,2|0,1:2|0:0,0:0:0:0:
51,65,202835,2,0,B|6:45|6:45|32:37,1,75.5999976928712,8|0,0:0|0:0,0:0:0:0:
186,130,203062,1,0,1:0:0:0:
197,154,203176,2,0,B|177:206|115:187|115:187|97:162|73:157,1,151.199995385742,0|0,1:0|0:0,0:0:0:0:
12,234,203517,6,0,P|36:250|24:224,1,75.5999976928712,2|0,1:2|0:0,0:0:0:0:
170,367,203744,2,0,B|148:367|132:371|132:371|120:362|99:352,1,75.5999976928712,12|0,2:2|0:0,0:0:0:0:
298,267,203972,2,0,P|285:292|310:277,1,75.5999976928712,8|8,2:2|0:0,0:0:0:0:
406,109,204199,5,6,1:2:0:0:
330,83,204312,1,2,0:0:0:0:
254,57,204426,1,2,1:2:0:0:
228,133,204540,1,2,2:2:0:0:
202,209,204653,1,10,0:0:0:0:
125,53,204881,5,2,1:2:0:0:
49,27,204994,1,2,2:2:0:0:
93,278,205222,37,2,0:2:0:0:
67,354,205335,1,2,1:2:0:0:
325,254,205562,6,0,B|395:285|395:285|426:214,1,151.199995385742,10|0,0:0|1:0,0:0:0:0:
512,151,205903,1,0,3:0:0:0:
479,81,206017,6,2,B|320:29|374:168|212:109,1,283.500010814667,6|0,1:1|0:0,0:1:0:0:
111,324,206472,6,0,B|64:307|68:340|16:322,1,94.5,10|0,0:0|0:0,0:0:0:0:
0,312,206699,38,2,B|112:275|80:369|193:333,1,201.6,6|8,1:1|0:0,0:1:0:0:
294,384,207040,1,8,0:0:0:0:
362,350,207153,6,0,B|380:329|380:329|365:276,1,81.8999962509157,2|0,1:1|0:0,0:0:0:0:
141,186,207381,2,0,B|127:239|127:239|145:260,1,81.8999962509157,12|0,2:2|0:0,0:0:0:0:
390,175,207608,2,8,B|408:154|408:154|393:101,1,81.8999962509157,8|8,2:2|2:0,2:0:0:0:
301,14,207835,6,0,B|256:40|256:40|288:150,1,151.199995385742,4|0,1:2|0:0,0:0:0:0:
341,247,208176,1,0,1:0:0:0:
360,264,208290,2,0,P|401:265|443:248,1,75.5999976928712,8|0,0:0|0:0,0:0:0:0:
290,142,208517,5,0,1:0:0:0:
290,142,208631,2,0,B|215:125|215:125|189:158|137:153,1,151.199995385742,2|0,0:0|0:0,0:0:0:0:
126,28,208972,2,0,B|119:62|151:77|151:77|149:56,1,75.5999976928712,2|0,1:2|0:0,2:0:0:0:
236,209,209199,2,0,B|243:243|210:258|210:258|212:237,1,75.5999976928712,8|0,2:2|0:0,2:0:0:0:
76,122,209426,5,10,0:0:0:0:
16,173,209540,1,8,0:0:0:0:
13,251,209653,2,0,P|20:293|37:323,1,75.5999976928712,4|0,1:2|0:0,2:0:0:0:
144,377,209881,2,0,P|187:372|222:353,1,75.5999976928712,2|0,2:2|0:0,0:0:0:0:
268,249,210108,2,0,P|280:215|272:149,1,75.5999976928712,8|0,2:2|0:0,0:0:0:0:
155,127,210335,5,0,1:0:0:0:
155,127,210449,2,0,B|109:144|109:144|205:198,1,151.199995385742,2|0,0:0|0:0,0:0:0:0:
328,105,210790,2,0,B|363:90|363:90|423:105,1,75.5999976928712,2|0,1:2|0:0,0:0:0:0:
475,163,211017,2,0,B|487:200|487:200|477:235,1,75.5999976928712,8|0,2:2|0:0,0:0:0:0:
413,312,211244,2,0,B|376:321|376:321|341:306,1,75.5999976928712,0|0,1:2|1:0,0:0:0:0:
198,194,211472,5,6,1:2:0:0:
119,177,211585,1,2,0:0:0:0:
52,221,211699,1,2,0:0:0:0:
35,299,211812,1,2,0:0:0:0:
78,366,211926,1,10,0:0:0:0:
217,173,212153,5,2,0:0:0:0:
138,156,212267,1,2,1:2:0:0:
336,292,212494,37,2,0:2:0:0:
379,359,212608,1,2,1:2:0:0:
414,94,212835,6,0,B|422:65|445:55|445:55|442:75|430:89,1,75.5999976928712,8|0,0:0|0:0,0:0:0:0:
282,206,213062,2,0,P|246:197|217:173,1,75.5999976928712,0|0,1:0|1:0,0:0:0:0:
136,17,213290,5,4,1:0:0:0:
136,17,213517,1,8,0:0:0:0:
164,334,213744,5,8,0:3:0:0:
139,254,213858,1,8,0:0:0:0:
114,174,213972,1,8,0:3:0:0:
57,235,214085,1,8,0:3:0:0:
0,297,214199,1,4,0:3:0:0:
304,208,214426,37,8,0:0:0:0:
331,296,214540,1,8,0:0:0:0:
359,384,214653,1,8,0:0:0:0:
421,316,214767,1,8,0:0:0:0:
484,248,214881,1,4,0:3:0:0:
394,55,215108,22,0,B|367:41|367:41|340:44,1,56.6999982696534,6|0,1:2|0:0,0:0:0:0:
325,120,215335,2,0,B|351:133|351:133|378:130,1,56.6999982696534,0|0,1:1|0:0,0:0:0:0:
265,71,215562,2,0,B|228:63|228:63|194:90|158:77,1,113.399996539307,8|0,0:2|0:2,0:2:0:0:
59,45,215903,6,0,B|32:18|32:18|58:109,1,113.399996539307,2|0,1:2|0:0,0:0:0:0:
77,165,216244,1,0,1:2:0:0:
104,172,216358,1,0,1:2:0:0:
131,178,216472,2,0,B|168:170|168:170|202:197|238:184,1,113.399996539307,8|0,0:2|0:2,0:2:0:0:
320,134,216926,6,0,B|334:56|334:56|351:95,1,113.399996539307,2|0,1:2|1:0,0:0:0:0:
395,151,217267,1,0,3:2:0:0:
405,177,217381,2,0,P|409:241|381:290,1,113.399996539307,8|0,0:2|0:2,0:2:0:0:
317,317,217722,6,0,B|285:373|285:373|336:354,1,113.399996539307,2|0,1:2|0:0,0:0:0:0:
394,290,218062,1,0,1:2:0:0:
394,290,218176,1,0,1:0:0:0:
330,242,218290,2,0,B|292:204|236:225|236:225|215:258|172:257,1,170.09999480896,12|0,0:2|0:2,0:2:0:0:
128,320,218744,6,0,B|126:338|145:350|145:350|138:320,1,56.6999982696534,6|0,1:2|0:2,0:2:0:0:
169,181,218972,2,0,B|171:163|152:151|152:151|159:181,1,56.6999982696534,0|0,1:2|0:2,0:2:0:0:
179,257,219199,2,0,P|218:297|275:294,1,113.399996539307,8|0,0:2|0:2,0:2:0:0:
353,238,219540,6,0,B|351:198|377:175|377:175|365:126,1,113.399996539307,2|0,1:2|0:0,0:0:0:0:
269,94,219881,1,0,1:0:0:0:
269,94,219994,1,0,1:0:0:0:
220,114,220108,37,8,0:0:0:0:
290,141,220222,1,8,0:0:0:0:
318,72,220335,1,8,0:0:0:0:
249,44,220449,1,8,0:0:0:0:
334,80,220562,22,2,B|395:90|421:29|421:29|391:49|367:45,1,163.799992501831,14|0,2:1|0:2,0:1:0:0:
284,220,220903,2,2,B|243:268|283:321|283:321|282:285|297:266,1,163.799992501831,14|0,0:1|0:2,3:1:0:0:
179,104,221244,2,2,B|163:60|114:66|114:66|138:78|144:95,1,122.849994376374,14|0,0:1|0:2,0:1:0:0:
83,139,221472,6,2,B|59:221|143:239|143:239|175:198,1,176.399994616699,14|0,2:1|0:2,0:1:0:0:
372,46,221812,2,2,B|312:-15|255:47|255:47|274:96,1,176.399994616699,14|0,0:1|0:2,3:1:0:0:
360,314,222153,2,2,B|417:299|400:236|400:236|363:233,1,132.299995962525,14|0,0:1|0:2,0:1:0:0:
368,233,222381,6,0,P|402:234|438:201,1,63,14|0,2:2|0:0,0:0:0:0:
411,145,222608,2,0,P|377:144|341:177,1,63,2|0,1:2|3:0,0:0:0:0:
291,265,222835,5,8,0:0:0:0:
267,285,222949,1,8,0:0:0:0:
237,295,223062,1,8,0:0:0:0:
205,294,223176,1,8,0:0:0:0:
174,285,223290,1,4,0:3:0:0:
118,130,223517,37,8,0:0:0:0:
71,111,223631,1,8,0:0:0:0:
23,127,223744,2,0,P|4:153|4:226,1,94.5,10|0,0:0|0:0,0:0:0:0:
12,229,223972,22,2,B|89:185|146:214|117:232|199:265|284:220|284:220|236:143|245:70|289:25|289:25|354:45|382:88|388:155|388:155|435:83|502:88|502:88|457:100|446:142,1,891.135001359764,14|0,2:2|0:0,0:1:0:0:
450,152,228744,6,2,L|461:193,2,37.7999988464356,8|8|6,0:3|0:3|0:3,0:1:0:0:
