osu file format v14

[General]
AudioFilename: audio.mp3
AudioLeadIn: 0
PreviewTime: 132579
Countdown: 0
SampleSet: Soft
StackLeniency: 0.7
Mode: 0
LetterboxInBreaks: 0
WidescreenStoryboard: 1

[Editor]
Bookmarks: 14887,73964,118271,147810,162579,177348
DistanceSpacing: 0.5
BeatDivisor: 4
GridSize: 32
TimelineZoom: 1.8

[Metadata]
Title:Vesna
TitleUnicode:Vesna
Artist:iskrit
ArtistUnicode:iskrit
Creator:nemidnight
Version:nemizujin's insane
Source:
Tags:русский поп russian pop искрит весна mizujin
BeatmapID:4537043
BeatmapSetID:2153013

[Difficulty]
HPDrainRate:4
CircleSize:4
OverallDifficulty:8.5
ApproachRate:9
SliderMultiplier:2.6
SliderTickRate:1

[Events]
//Background and Video events
0,0,"imgonline-com-ua-Resize-5QJrHULKo8IYnwUb.jpg",0,0
//Break Periods
2,59394,73364
2,118471,131979
//Storyboard Layer 0 (Background)
//Storyboard Layer 1 (Fail)
//Storyboard Layer 2 (Pass)
//Storyboard Layer 3 (Foreground)
//Storyboard Layer 4 (Overlay)
//Storyboard Sound Samples

[TimingPoints]
118,461.538461538462,4,2,1,90,1,0
14887,-111.111111111111,4,2,1,70,0,0
29656,-100,4,2,1,90,0,0
42579,-166.666666666667,4,2,1,90,0,0
43502,-166.666666666667,4,2,1,60,0,0
44425,-90.9090909090909,4,2,1,90,0,0
57348,-166.666666666667,4,2,1,70,0,0
73964,-250,4,2,1,60,0,0
88733,-100,4,2,1,90,0,0
101656,-166.666666666667,4,2,1,90,0,0
103502,-90.9090909090909,4,2,1,90,0,0
116425,-166.666666666667,4,2,1,70,0,0
132579,-166.666666666667,4,2,1,70,0,0
133041,-86.9565217391304,4,2,1,90,0,1
145964,-166.666666666667,4,2,1,60,0,0
147810,-86.9565217391304,4,2,1,90,0,1
162579,-100,4,2,1,75,0,0
177348,-100,4,2,1,50,0,0

[Colours]
Combo1 : 0,142,0
Combo2 : 227,74,0
Combo3 : 0,74,0
Combo4 : 151,151,151

[HitObjects]
511,317,14887,6,0,B|439:323|465:351|381:378,1,116.999996429443,2|0,0:0|0:0,0:0:0:0:
351,310,15233,1,0,0:0:0:0:
351,310,15348,2,0,P|362:264|367:179,1,116.999996429443,10|2,0:0|0:0,0:0:0:0:
512,63,15810,6,0,P|466:102|391:79,1,116.999996429443,2|2,0:0|0:0,0:0:0:0:
366,20,16156,1,0,3:2:0:0:
366,20,16271,2,0,P|394:16|422:7,1,58.4999982147217,10|0,0:0|0:0,0:0:0:0:
315,108,16502,6,0,P|240:114|191:34,1,175.499994644165,2|0,0:0|0:0,0:0:0:0:
124,77,16964,2,0,P|49:71|0:151,1,175.499994644165,2|0,0:0|0:0,0:0:0:0:
65,186,17425,1,0,0:0:0:0:
26,314,17656,6,0,P|118:285|171:282,1,116.999996429443,2|2,0:0|0:0,0:0:0:0:
208,225,18118,2,0,P|300:254|353:257,1,116.999996429443,10|2,0:0|0:0,0:0:0:0:
386,310,18579,6,0,P|438:268|409:188,1,116.999996429443,2|0,0:0|0:0,0:0:0:0:
382,158,18925,1,2,3:2:0:0:
382,158,19041,2,0,P|393:108|395:87,1,58.4999982147217,10|0,0:0|0:0,0:0:0:0:
488,91,19271,2,0,P|477:141|475:162,1,58.4999982147217,2|0,0:0|0:0,0:0:0:0:
376,166,19502,6,0,P|314:160|288:96,1,116.999996429443,2|2,0:0|0:0,0:0:0:0:
218,74,19848,1,0,3:2:0:0:
218,74,19964,2,0,P|226:39|229:13,1,58.4999982147217,10|0,0:0|0:0,0:0:0:0:
164,136,20194,6,0,P|177:208|183:318,1,175.499994644165,2|0,0:0|0:0,0:0:0:0:
248,363,20656,2,0,P|304:329|267:207,1,175.499994644165,2|0,0:0|0:0,0:0:0:0:
253,159,21118,2,0,P|241:95|322:31,2,175.499994644165,0|8|10,0:0|0:0|0:0,0:0:0:0:
360,162,22041,1,0,0:0:0:0:
454,129,22271,6,0,P|502:173|483:241,1,116.999996429443,2|0,0:0|0:0,0:0:0:0:
444,274,22618,1,0,3:2:0:0:
444,274,22733,2,0,P|411:257|371:250,1,58.4999982147217,10|0,0:0|0:0,0:0:0:0:
337,314,22964,2,0,P|304:331|264:338,1,58.4999982147217,2|0,0:0|0:0,0:0:0:0:
224,276,23194,2,0,P|182:228|104:243,1,116.999996429443,2|2,0:0|0:0,0:0:0:0:
86,309,23541,1,0,3:2:0:0:
86,309,23656,2,0,P|128:357|206:342,1,116.999996429443,10|0,0:0|0:0,0:0:0:0:
50,235,24118,6,0,P|44:155|36:80,1,116.999996429443,2|0,0:0|0:0,0:0:0:0:
95,56,24464,1,0,3:2:0:0:
95,56,24579,2,0,P|120:39|148:36,1,58.4999982147217,10|0,0:0|0:0,0:0:0:0:
191,108,24810,2,0,P|215:124|243:127,1,58.4999982147217,2|0,0:0|0:0,0:0:0:0:
323,156,25041,2,0,P|318:94|320:3,1,116.999996429443,2|2,0:0|0:0,0:0:0:0:
393,0,25387,1,0,3:2:0:0:
393,0,25502,2,0,P|450:4|475:60,1,116.999996429443,10|0,0:0|0:0,0:0:0:0:
500,195,25964,5,2,3:2:0:0:
500,195,26079,1,0,3:2:0:0:
500,195,26194,2,0,P|472:186|443:183,1,58.4999982147217
376,136,26425,2,0,P|343:153|309:155,1,58.4999982147217,8|0,0:0|0:0,0:0:0:0:
265,216,26656,6,0,P|210:188|132:187,1,116.999996429443
126,107,27002,2,0,P|183:101|235:74,1,116.999996429443
305,37,27348,2,0,P|308:81|317:113,1,58.4999982147217,8|0,0:0|0:0,0:0:0:0:
375,153,27579,2,0,P|336:165|316:180,1,58.4999982147217
253,149,27810,5,2,0:0:0:0:
3,60,29656,6,0,P|44:17|148:42,1,130,2|0,3:2|0:0,0:0:0:0:
169,85,30002,1,0,3:2:0:0:
169,85,30118,2,0,P|160:116|156:148,1,65,10|0,0:0|0:0,0:0:0:0:
52,197,30348,2,0,P|47:164|39:133,1,65,2|0,0:0|0:0,0:0:0:0:
120,253,30579,6,0,P|183:253|228:298,2,130,2|2|10,3:2|0:0|0:0,0:0:0:0:
278,372,31271,6,0,P|322:327|386:326,1,130,2|0,0:0|3:2,0:0:0:0:
511,384,31618,1,0,3:2:0:0:
511,384,31733,2,0,P|493:315|476:232,1,130,2|8,0:0|0:0,0:0:0:0:
408,214,32079,1,0,3:0:0:0:
408,214,32194,1,0,3:0:0:0:
452,90,32425,5,2,3:2:0:0:
452,90,32541,1,0,3:2:0:0:
452,90,32656,2,0,L|378:74,1,65,2|0,0:0|0:0,0:0:0:0:
310,145,32887,1,10,0:0:0:0:
310,145,33003,1,0,3:2:0:0:
310,145,33118,2,0,L|236:161,1,65,2|0,0:0|0:0,0:0:0:0:
190,64,33348,6,0,P|116:51|50:24,1,130,2|0,3:2|0:0,0:0:0:0:
15,133,33694,1,0,3:2:0:0:
15,133,33810,2,0,P|32:172|39:208,1,65,10|0,0:0|0:0,0:0:0:0:
154,227,34041,1,2,3:2:0:0:
154,227,34156,1,8,0:0:0:0:
154,227,34271,2,0,P|172:187|190:163,1,65,2|0,3:2|0:0,0:0:0:0:
154,73,34502,2,0,P|117:65|87:45,1,65,2|0,0:0|0:0,0:0:0:0:
254,20,34733,6,0,P|324:18|391:3,1,130,10|0,0:0|0:0,0:0:0:0:
439,121,35079,1,0,3:2:0:0:
439,121,35194,2,0,P|367:132|340:196,1,130,2|0,3:2|0:0,0:0:0:0:
394,251,35541,2,0,P|466:262|493:326,1,130
435,366,35887,6,0,P|405:341|364:339,1,65
314,266,36118,1,0,3:2:0:0:
314,266,36233,2,0,P|277:279|255:313,1,65,8|0,0:0|0:0,0:0:0:0:
197,363,36464,1,0,3:2:0:0:
197,363,36579,2,0,P|136:339|143:252,1,130,10|0,0:0|0:0,0:0:0:0:
267,187,37041,6,0,P|328:163|312:39,1,195,2|0,3:2|0:0,0:0:0:0:
203,21,37502,5,10,0:0:0:0:
170,26,37618,1,0,3:2:0:0:
138,32,37733,1,2,3:2:0:0:
106,37,37848,1,0,3:2:0:0:
73,42,37964,2,0,L|8:33,1,65,2|0,3:2|0:0,0:0:0:0:
134,129,38194,2,0,L|199:120,1,65,2|0,0:0|0:0,0:0:0:0:
54,198,38425,6,0,P|13:256|39:324,1,130,10|0,0:0|0:0,0:0:0:0:
149,273,38771,1,0,3:2:0:0:
149,273,38887,2,0,B|259:265|216:318|330:334,1,195,2|0,3:2|0:0,0:0:0:0:
476,268,39348,5,10,0:0:0:0:
502,248,39464,1,0,3:2:0:0:
511,217,39579,1,2,3:2:0:0:
504,185,39694,1,0,3:2:0:0:
485,158,39810,6,0,P|450:166|415:170,1,65,2|0,3:2|0:0,0:0:0:0:
332,255,40041,2,0,P|364:259|395:266,1,65,2|0,0:0|0:0,0:0:0:0:
291,165,40271,2,0,P|277:116|346:51,1,130,10|0,0:0|0:0,0:0:0:0:
501,12,40733,5,2,3:2:0:0:
497,44,40848,1,0,3:2:0:0:
493,76,40964,1,0,3:2:0:0:
488,108,41079,1,0,3:2:0:0:
485,140,41194,1,8,0:0:0:0:
481,172,41310,1,0,3:2:0:0:
477,204,41425,1,0,3:2:0:0:
472,236,41541,1,0,3:2:0:0:
469,268,41656,6,0,L|477:348,1,65,0|0,3:2|0:0,0:0:0:0:
373,311,41887,2,0,L|365:391,1,65
306,240,42118,6,0,L|298:160,1,65,8|0,0:0|0:0,0:0:0:0:
216,293,42349,2,0,L|224:213,1,65
115,336,42579,6,0,P|59:375|-17:361,2,116.999996429443,2|2|2,0:0|0:0|0:0,0:0:0:0:
75,272,43502,2,0,L|66:224,7,38.9999988098145,10|8|10|8|10|8|10|8,0:0|0:0|0:0|0:0|0:0|0:0|0:0|0:0,0:0:0:0:
10,178,44425,6,0,P|47:117|138:123,1,143.000004364014,6|0,3:2|0:0,0:0:0:0:
218,32,44771,1,0,3:2:0:0:
218,32,44887,2,0,P|255:93|346:87,1,143.000004364014,10|2,0:0|0:0,0:0:0:0:
397,180,45233,1,0,3:2:0:0:
397,180,45348,2,0,P|434:157|473:156,1,71.5000021820069,2|0,3:2|0:0,0:0:0:0:
331,32,45579,2,0,P|332:75|313:109,1,71.5000021820069,2|0,0:0|0:0,0:0:0:0:
486,42,45810,2,0,P|447:21|427:-11,1,71.5000021820069,10|0,0:0|0:0,0:0:0:0:
407,93,46041,6,0,P|424:190|428:281,1,143.000004364014,2|0,0:0|3:2,0:0:0:0:
500,372,46387,1,0,3:2:0:0:
500,372,46502,2,0,P|464:324|370:326,1,143.000004364014,2|8,0:0|0:0,0:0:0:0:
269,372,46848,5,0,3:2:0:0:
233,376,46964,1,0,3:2:0:0:
201,358,47079,1,0,3:2:0:0:
190,323,47194,6,0,P|196:286|200:249,1,71.5000021820069,2|0,3:2|0:0,0:0:0:0:
332,135,47425,2,0,P|354:173|347:205,1,71.5000021820069,2|0,0:0|0:0,0:0:0:0:
285,260,47656,2,0,P|279:223|275:186,1,71.5000021820069,10|0,0:0|0:0,0:0:0:0:
158,76,47887,2,0,P|136:114|143:146,1,71.5000021820069,2|0,0:0|0:0,0:0:0:0:
324,33,48118,6,0,P|409:49|484:57,1,143.000004364014,2|0,3:2|0:0,0:0:0:0:
222,122,48464,1,0,3:2:0:0:
222,122,48579,2,0,P|137:138|62:146,1,143.000004364014,10|2,0:0|0:0,0:0:0:0:
336,203,48925,1,8,0:0:0:0:
336,203,49041,2,0,P|421:219|496:227,1,143.000004364014,2|0,3:2|0:0,0:0:0:0:
234,292,49387,1,0,3:2:0:0:
234,292,49502,2,0,P|149:308|74:316,1,143.000004364014,10|0,0:0|0:0,0:0:0:0:
341,364,49848,5,0,3:2:0:0:
341,364,49964,2,0,P|360:320|353:280,2,71.5000021820069,2|0|0,3:2|0:0|0:0,0:0:0:0:
219,214,50310,1,0,3:2:0:0:
219,214,50425,2,0,P|193:152|272:34,1,214.500006546021,10|0,0:0|0:0,0:0:0:0:
423,20,50887,5,2,3:2:0:0:
455,34,51002,1,8,0:0:0:0:
470,66,51118,1,2,3:2:0:0:
473,101,51233,1,0,3:2:0:0:
455,131,51348,1,10,0:0:0:0:
428,154,51464,1,0,3:2:0:0:
422,189,51579,1,2,3:2:0:0:
432,222,51694,1,0,3:2:0:0:
458,246,51810,6,0,B|371:250|399:279|329:307,1,143.000004364014,2|0,3:2|0:0,0:0:0:0:
212,217,52156,1,0,3:2:0:0:
212,217,52271,2,0,P|238:193|273:194,1,71.5000021820069,10|0,0:0|0:0,0:0:0:0:
174,338,52502,2,0,P|138:338|112:315,1,71.5000021820069,2|0,0:0|0:0,0:0:0:0:
8,224,52733,5,2,3:2:0:0:
11,188,52848,1,0,3:2:0:0:
14,152,52964,1,2,3:2:0:0:
17,116,53079,1,0,3:2:0:0:
21,80,53194,2,0,P|68:27|154:39,1,143.000004364014,10|0,0:0|0:0,0:0:0:0:
216,129,53541,5,8,0:0:0:0:
216,128,53656,2,0,P|181:138|146:145,1,71.5000021820069,2|0,3:2|0:0,0:0:0:0:
300,160,53887,1,0,3:2:0:0:
300,160,54002,2,0,P|326:183|349:211,1,71.5000021820069,0|8,0:0|0:0,0:0:0:0:
281,68,54233,1,0,3:2:0:0:
281,68,54348,2,0,P|288:33|300:0,1,71.5000021820069
491,34,54579,5,2,3:2:0:0:
497,69,54694,1,0,3:2:0:0:
477,99,54810,1,2,3:2:0:0:
441,103,54925,1,0,3:2:0:0:
412,80,55041,5,10,0:0:0:0:
447,84,55156,1,0,3:2:0:0:
468,112,55271,1,2,3:2:0:0:
467,147,55387,1,8,0:0:0:0:
441,171,55502,6,0,B|355:179|385:209|306:238,1,143.000004364014,2|0,3:2|0:0,0:0:0:0:
184,158,55848,1,0,3:2:0:0:
184,158,55964,2,0,P|166:122|175:86,1,71.5000021820069,10|0,0:0|0:0,0:0:0:0:
292,75,56194,2,0,P|309:110|300:146,1,71.5000021820069,2|0,0:0|0:0,0:0:0:0:
107,282,56425,2,0,P|102:247|118:216,1,71.5000021820069,2|0,3:2|0:0,0:0:0:0:
238,250,56655,2,0,P|242:284|226:315,1,71.5000021820069,2|0,0:0|0:0,0:0:0:0:
79,374,56887,6,0,P|44:367|6:354,1,71.5000021820069,10|0,0:0|0:0,0:0:0:0:
226,315,57118,2,0,P|298:329|372:331,1,143.000004364014,2|0,0:0|0:0,0:0:0:0:
455,372,57464,1,0,3:2:0:0:
455,372,57579,2,0,P|483:309|426:225,1,155.999995239258,2|2,0:0|0:0,0:0:0:0:
370,228,58156,5,2,0:0:0:0:
316,176,58387,5,2,0:0:0:0:
316,176,58502,1,2,0:0:0:0:
244,199,58733,6,0,L|197:192,4,38.9999988098145,2|2|2|2|2,0:0|0:0|0:0|0:0|0:0,0:0:0:0:
0,7,73964,6,0,P|19:55|24:106,3,104,2|8|2|8,0:0|0:0|0:0|0:0,0:0:0:0:
87,157,75810,2,0,P|130:130|182:129,3,104,2|8|2|8,0:0|0:0|0:0|0:0,0:0:0:0:
343,8,77656,6,0,P|388:32|439:29,1,104,2|8,0:0|0:0,0:0:0:0:
439,29,78579,2,0,P|428:79|426:131,1,104,2|8,0:0|0:0,0:0:0:0:
426,131,79964,1,8,0:0:0:0:
426,131,80887,1,8,0:0:0:0:
222,280,81348,6,0,P|236:330|241:382,2,104,2|8|2,0:0|0:0|0:0,0:0:0:0:
283,227,82733,2,0,P|334:222|384:208,1,104,8|2,0:0|0:0,0:0:0:0:
384,208,83656,2,0,P|388:259|402:309,1,104,8|2,0:0|0:0,0:0:0:0:
160,345,84579,6,0,P|114:320|63:323,1,104,8|2,0:0|0:0,0:0:0:0:
12,264,85502,2,0,P|-7:216|0:165,2,104,8|2|8,0:0|0:0|0:0,0:0:0:0:
264,70,86887,5,2,0:0:0:0:
314,132,87233,5,2,0:0:0:0:
160,255,87579,5,2,0:0:0:0:
205,188,87810,2,0,P|243:186|276:205,2,78,2|2|2,0:0|0:0|0:0,0:0:0:0:
58,380,88733,6,0,B|57:298|16:343|12:264,1,130,2|0,3:2|0:0,0:0:0:0:
63,202,89079,1,0,3:2:0:0:
63,202,89194,2,0,P|93:212|126:214,1,65,10|0,0:0|0:0,0:0:0:0:
12,136,89425,2,0,P|1:105|0:72,1,65,2|0,0:0|0:0,0:0:0:0:
215,11,89656,6,0,P|164:49|101:46,1,130,2|2,3:2|0:0,0:0:0:0:
197,139,90002,1,0,3:2:0:0:
197,139,90118,2,0,P|201:74|214:10,1,130,10|0,0:0|0:0,0:0:0:0:
63,202,90579,5,2,3:2:0:0:
63,202,90695,1,0,3:2:0:0:
63,202,90810,2,0,P|126:195|178:231,1,130,0|8,0:0|0:0,0:0:0:0:
253,273,91156,1,0,3:2:0:0:
253,273,91271,1,0,3:2:0:0:
442,163,91502,5,2,3:2:0:0:
442,163,91618,1,0,3:2:0:0:
442,163,91733,2,0,P|443:130|450:98,1,65,2|0,0:0|0:0,0:0:0:0:
375,27,91964,1,10,0:0:0:0:
375,27,92080,1,0,3:2:0:0:
375,27,92195,2,0,P|343:33|310:35,1,65,2|0,0:0|0:0,0:0:0:0:
197,139,92425,6,0,B|217:218|166:186|182:263,1,130,2|0,3:2|0:0,0:0:0:0:
248,322,92771,1,0,3:2:0:0:
248,322,92887,2,0,P|278:311|310:306,1,65,10|0,0:0|0:0,0:0:0:0:
356,203,93118,1,2,3:2:0:0:
356,203,93233,1,8,0:0:0:0:
356,203,93348,2,0,P|323:197|293:187,1,65,2|0,3:2|0:0,0:0:0:0:
412,313,93579,2,0,P|417:280|427:250,1,65,2|0,0:0|0:0,0:0:0:0:
314,107,93810,6,0,P|260:142|197:139,1,130,10|2,0:0|0:0,0:0:0:0:
106,49,94156,1,0,3:2:0:0:
106,49,94271,2,0,P|113:80|115:112,1,65,0|0,3:2|0:0,0:0:0:0:
164,214,94502,1,2,3:2:0:0:
164,214,94618,2,0,P|148:276|142:341,1,130
0,376,94964,6,0,P|28:360|60:355,1,65
194,297,95195,1,0,3:2:0:0:
194,297,95310,1,8,0:0:0:0:
194,297,95425,2,0,P|223:309|255:311,1,65
329,377,95656,2,0,P|387:349|451:352,1,130,10|0,0:0|0:0,0:0:0:0:
293,187,96118,6,0,B|289:71|205:147|203:28,1,195,2|0,3:2|0:0,0:0:0:0:
462,0,96579,5,10,0:0:0:0:
447,28,96694,1,0,3:2:0:0:
421,48,96810,1,2,3:2:0:0:
390,55,96925,1,0,3:2:0:0:
358,47,97041,2,0,P|327:35|295:34,1,65,2|0,3:2|0:0,0:0:0:0:
182,123,97271,2,0,P|214:122|244:110,1,65,2|0,0:0|0:0,0:0:0:0:
100,10,97502,6,0,P|47:41|52:103,1,130,10|0,0:0|0:0,0:0:0:0:
155,246,97848,1,0,3:2:0:0:
155,246,97964,2,0,P|242:206|339:212,1,195,2|0,3:2|0:0,0:0:0:0:
491,171,98425,5,10,0:0:0:0:
463,186,98540,1,0,3:2:0:0:
443,212,98656,1,2,3:2:0:0:
436,243,98771,1,0,3:2:0:0:
444,275,98887,2,0,P|447:307|455:338,1,65,2|0,3:2|0:0,0:0:0:0:
315,369,99118,2,0,P|347:372|378:380,1,65,2|0,0:0|0:0,0:0:0:0:
339,212,99348,6,0,P|285:247|222:244,1,130,10|0,0:0|0:0,0:0:0:0:
25,69,99810,5,2,3:2:0:0:
48,91,99925,1,0,3:2:0:0:
57,121,100040,1,0,3:2:0:0:
52,153,100156,1,0,3:2:0:0:
31,176,100271,1,8,0:0:0:0:
9,198,100386,1,0,3:2:0:0:
0,229,100502,1,0,3:2:0:0:
5,260,100617,1,0,3:2:0:0:
27,285,100733,6,0,P|59:287|87:303,1,65,0|0,3:2|0:0,0:0:0:0:
189,201,100964,2,0,P|160:216|128:219,1,65
200,368,101194,6,0,P|202:335|218:307,1,65,8|0,0:0|0:0,0:0:0:0:
87,303,101425,2,0,P|58:318|26:321,1,65
279,358,101656,6,0,P|336:363|392:346,2,116.999996429443,2|2|2,0:0|0:0|0:0,0:0:0:0:
217,307,102579,2,0,P|213:268|203:230,2,77.999997619629,2|2|2,0:0|0:0|0:0,0:0:0:0:
512,6,103502,6,0,B|424:17|483:65|399:82,1,143.000004364014,6|0,3:2|0:0,0:0:0:0:
315,69,103848,1,0,3:2:0:0:
315,69,103964,2,0,P|310:33|299:0,1,71.5000021820069,10|0,0:0|0:0,0:0:0:0:
401,90,104194,2,0,P|389:123|385:159,1,71.5000021820069,2|0,0:0|0:0,0:0:0:0:
293,255,104425,6,0,P|224:264|171:219,1,143.000004364014,2|0,3:2|0:0,0:0:0:0:
111,174,104771,1,2,3:2:0:0:
111,174,104887,1,10,0:0:0:0:
299,0,105118,6,0,P|304:71|290:140,1,143.000004364014,2|0,0:0|3:2,0:0:0:0:
379,267,105464,1,0,3:2:0:0:
379,267,105579,2,0,P|441:235|512:242,1,143.000004364014,2|8,0:0|0:0,0:0:0:0:
283,351,105925,5,0,3:2:0:0:
265,319,106041,1,0,3:2:0:0:
272,284,106156,1,0,3:2:0:0:
293,255,106271,6,0,P|297:290|309:323,1,71.5000021820069,2|0,3:2|0:0,0:0:0:0:
210,381,106502,2,0,P|176:368|141:364,1,71.5000021820069,2|0,0:0|0:0,0:0:0:0:
20,257,106733,2,0,P|32:290|36:325,1,71.5000021820069,10|0,0:0|0:0,0:0:0:0:
153,257,106964,2,0,P|157:221|169:188,1,71.5000021820069,2|0,0:0|0:0,0:0:0:0:
35,52,107194,6,0,P|88:96|158:91,1,143.000004364014,2|2,3:2|0:0,0:0:0:0:
306,0,107541,1,0,3:2:0:0:
306,0,107656,2,0,B|281:85|348:50|330:133,1,143.000004364014,10|2,0:0|0:0,0:0:0:0:
271,252,108002,1,8,0:0:0:0:
271,252,108118,2,0,P|335:222|405:229,1,143.000004364014,2|2,3:2|0:0,0:0:0:0:
169,188,108464,1,0,3:2:0:0:
169,188,108580,2,0,P|176:258|146:322,1,143.000004364014,10|0,0:0|0:0,0:0:0:0:
275,384,108925,5,0,3:2:0:0:
275,384,109041,2,0,P|307:370|343:372,2,71.5000021820069,2|0|0,3:2|0:0|0:0,0:0:0:0:
146,322,109387,5,0,3:2:0:0:
146,322,109502,2,0,P|110:318|77:306,1,71.5000021820069,8|0,0:0|0:0,0:0:0:0:
0,182,109733,1,0,3:2:0:0:
0,182,109848,2,0,P|12:215|15:250,1,71.5000021820069,0|0,0:0|3:2,0:0:0:0:
137,158,110079,1,8,0:0:0:0:
137,158,110194,2,0,P|124:191|121:226,1,71.5000021820069
47,79,110425,5,10,0:0:0:0:
60,45,110540,1,0,3:2:0:0:
88,24,110655,1,0,3:2:0:0:
124,19,110771,1,0,3:2:0:0:
157,30,110887,6,0,B|244:41|185:89|269:106,1,143.000004364014,2|0,3:2|0:0,0:0:0:0:
339,159,111233,1,0,3:2:0:0:
339,159,111348,2,0,P|371:143|406:141,1,71.5000021820069,10|0,0:0|0:0,0:0:0:0:
362,0,111579,2,0,P|359:35|344:67,1,71.5000021820069,2|0,0:0|0:0,0:0:0:0:
232,221,111810,5,2,3:2:0:0:
202,200,111925,1,0,3:2:0:0:
169,188,112041,1,2,3:2:0:0:
133,183,112156,1,0,3:2:0:0:
98,188,112271,2,0,P|168:186|229:149,1,143.000004364014,10|0,0:0|0:0,0:0:0:0:
393,228,112618,5,0,3:2:0:0:
393,228,112733,2,0,P|374:296|369:368,1,143.000004364014,2|0,3:2|0:0,0:0:0:0:
284,384,113079,2,0,P|248:383|219:364,1,71.5000021820069,0|10,0:0|0:0,0:0:0:0:
110,277,113310,1,0,3:2:0:0:
110,277,113425,2,0,P|129:306|129:341,1,71.5000021820069,2|0,0:0|0:0,0:0:0:0:
0,237,113656,6,0,B|-1:148|53:199|58:114,1,143.000004364014,2|2,3:2|0:0,0:0:0:0:
119,61,114002,1,0,3:2:0:0:
119,61,114118,2,0,P|151:75|186:78,1,71.5000021820069,10|0,0:0|0:0,0:0:0:0:
268,158,114348,2,0,P|300:143|335:140,1,71.5000021820069,0|8,0:0|0:0,0:0:0:0:
504,29,114579,6,0,P|446:65|450:133,1,143.000004364014,2|0,3:2|0:0,0:0:0:0:
512,201,114925,1,0,3:2:0:0:
512,201,115041,2,0,P|514:236|503:270,1,71.5000021820069,8|0,0:0|0:0,0:0:0:0:
416,375,115271,2,0,P|449:363|485:366,1,71.5000021820069
405,272,115502,2,0,P|393:238|396:202,1,71.5000021820069,0|0,3:2|0:0,0:0:0:0:
266,327,115733,2,0,P|301:326|334:339,1,71.5000021820069
210,207,115964,5,8,0:0:0:0:
182,230,116079,1,0,3:2:0:0:
148,243,116194,1,0,3:2:0:0:
112,243,116310,1,0,3:2:0:0:
77,233,116425,6,0,P|58:177|55:119,1,116.999996429443,2|2,0:0|0:0,0:0:0:0:
151,24,117002,5,2,0:0:0:0:
151,24,117118,1,2,0:0:0:0:
253,103,117348,5,2,0:0:0:0:
253,103,117464,2,0,P|244:140|243:179,1,77.999997619629,2|2,0:0|0:0,0:0:0:0:
182,230,117810,6,0,P|195:286|194:345,1,116.999996429443,2|0,0:0|0:0,0:0:0:0:
265,384,118271,5,2,0:0:0:0:
51,1,132579,5,10,0:0:0:0:
51,1,133041,6,0,P|34:115|20:171,1,149.500002851486,6|0,3:2|0:0,0:0:0:0:
149,281,133387,1,0,3:2:0:0:
149,281,133502,2,0,P|180:243|176:204,1,74.7500014257431,10|0,0:0|0:0,0:0:0:0:
180,127,133733,2,0,P|140:142|99:145,1,74.7500014257431,2|0,0:0|0:0,0:0:0:0:
309,242,133964,2,0,P|278:204|282:165,1,74.7500014257431,2|0,3:2|0:0,0:0:0:0:
281,88,134195,2,0,P|321:103|362:106,1,74.7500014257431,2|0,0:0|0:0,0:0:0:0:
454,226,134425,5,10,0:0:0:0:
486,206,134541,1,0,3:2:0:0:
502,172,134656,1,0,3:2:0:0:
495,135,134771,1,0,3:2:0:0:
471,105,134887,6,0,B|381:117|409:153|349:186,1,149.500002851486,2|0,3:2|0:0,0:0:0:0:
227,32,135233,1,0,3:2:0:0:
227,32,135348,2,0,P|273:20|309:2,1,74.7500014257431,10|0,0:0|0:0,0:0:0:0:
149,162,135579,1,2,3:2:0:0:
149,162,135694,1,0,3:2:0:0:
149,162,135810,2,0,P|140:107|129:74,1,74.7500014257431,2|0,3:2|0:0,0:0:0:0:
277,180,136041,2,0,P|267:216|262:253,1,74.7500014257431,2|0,0:0|0:0,0:0:0:0:
122,370,136271,6,0,P|65:379|15:230,1,224.250004277229,10|0,0:0|0:0,0:0:0:0:
43,125,136733,5,2,3:2:0:0:
60,158,136848,1,0,3:2:0:0:
94,172,136964,1,0,3:2:0:0:
130,166,137079,1,0,3:2:0:0:
158,142,137194,1,8,0:0:0:0:
165,105,137310,1,0,3:2:0:0:
144,73,137425,1,0,3:2:0:0:
145,35,137541,1,8,0:0:0:0:
175,13,137656,6,0,P|214:25|256:30,1,74.7500014257431,0|0,3:2|0:0,0:0:0:0:
320,179,137887,2,0,P|285:169|246:163,1,74.7500014257431
395,58,138118,5,8,0:0:0:0:
427,40,138233,1,0,3:2:0:0:
464,41,138348,1,0,3:2:0:0:
494,62,138464,1,0,3:2:0:0:
512,94,138579,6,0,P|502:131|495:172,1,74.7500014257431,0|0,3:2|0:0,0:0:0:0:
403,296,138810,1,0,3:2:0:0:
403,296,138925,2,0,P|393:259|386:218,1,74.7500014257431,0|8,0:0|0:0,0:0:0:0:
272,84,139156,5,0,3:2:0:0:
272,84,139271,2,0,P|262:121|255:162,1,74.7500014257431
156,299,139502,1,0,3:2:0:0:
156,299,139617,2,0,P|146:262|139:221,1,74.7500014257431,8|0,0:0|0:0,0:0:0:0:
51,85,139848,5,0,3:2:0:0:
51,85,139964,2,0,P|69:118|112:131,1,74.7500014257431,8|0,0:0|0:0,0:0:0:0:
245,0,140194,2,0,P|211:14|193:46,1,74.7500014257431,2|0,0:0|0:0,0:0:0:0:
251,179,140425,6,0,P|333:199|414:242,1,149.500002851486,2|0,3:2|0:0,0:0:0:0:
512,341,140771,5,0,3:2:0:0:
484,366,140887,1,10,0:0:0:0:
446,368,141002,1,0,3:2:0:0:
412,351,141118,2,0,L|331:363,1,74.7500014257431,2|0,0:0|0:0,0:0:0:0:
220,239,141348,6,0,P|222:206|253:177,2,74.7500014257431,2|0|2,3:2|0:0|0:0,0:0:0:0:
124,339,141694,1,0,3:2:0:0:
124,339,141810,2,0,P|68:291|73:145,1,224.250004277229,10|0,0:0|0:0,0:0:0:0:
205,37,142271,6,0,P|163:50|125:56,1,74.7500014257431,0|0,3:2|0:0,0:0:0:0:
253,157,142502,1,0,3:2:0:0:
253,157,142618,2,0,P|243:199|229:235,1,74.7500014257431,0|8,0:0|0:0,0:0:0:0:
383,139,142848,1,0,3:2:0:0:
383,139,142964,2,0,P|415:168|439:198,1,74.7500014257431
327,22,143194,5,2,3:2:0:0:
358,0,143310,1,0,3:2:0:0:
395,0,143425,1,2,3:2:0:0:
426,20,143541,1,0,3:2:0:0:
440,54,143656,6,0,P|353:68|277:99,1,149.500002851486,10|0,0:0|0:0,0:0:0:0:
234,184,144002,1,8,0:0:0:0:
234,184,144118,2,0,P|266:213|314:214,1,74.7500014257431,0|0,3:2|0:0,0:0:0:0:
412,296,144348,2,0,P|375:303|349:329,1,74.7500014257431
187,352,144579,5,10,0:0:0:0:
156,372,144694,1,0,3:2:0:0:
118,367,144810,1,0,3:2:0:0:
85,348,144925,1,0,3:2:0:0:
72,312,145041,5,0,3:2:0:0:
109,312,145156,1,0,3:2:0:0:
139,290,145271,1,0,3:2:0:0:
152,255,145387,1,0,3:2:0:0:
139,220,145502,6,0,P|100:225|62:235,1,74.7500014257431,8|0,0:0|0:0,0:0:0:0:
221,115,145733,2,0,P|262:125|294:129,1,74.7500014257431
356,187,145964,6,0,P|391:135|387:77,2,116.999996429443,2|2|2,0:0|0:0|0:0,0:0:0:0:
305,246,146887,2,0,L|312:302,7,38.9999988098145,8|8|8|8|10|8|8|8,0:0|0:0|0:0|0:0|0:0|0:0|0:0|0:0,0:0:0:0:
359,346,147810,6,0,P|432:352|489:306,1,149.500002851486,6|0,3:2|0:0,0:0:0:0:
380,173,148156,1,0,3:2:0:0:
380,173,148271,2,0,P|392:208|395:245,1,74.7500014257431,10|0,0:0|0:0,0:0:0:0:
487,173,148502,2,0,P|474:137|471:100,1,74.7500014257431,2|0,0:0|0:0,0:0:0:0:
362,10,148733,2,0,P|397:22|434:25,1,74.7500014257431,2|0,3:2|0:0,0:0:0:0:
312,99,148964,2,0,P|274:102|239:115,1,74.7500014257431,2|0,0:0|0:0,0:0:0:0:
5,75,149194,5,10,0:0:0:0:
38,62,149309,1,0,3:2:0:0:
74,72,149424,1,0,3:2:0:0:
97,101,149540,1,0,3:2:0:0:
98,138,149656,6,0,B|63:222|143:193|108:277,1,149.500002851486,2|0,3:2|0:0,0:0:0:0:
0,376,150002,1,0,3:2:0:0:
0,376,150118,2,0,P|31:356|68:353,1,74.7500014257431,10|0,0:0|0:0,0:0:0:0:
196,303,150348,1,2,3:2:0:0:
196,303,150464,1,0,3:2:0:0:
196,303,150579,2,0,P|227:322|264:325,1,74.7500014257431,2|0,3:2|0:0,0:0:0:0:
400,362,150810,2,0,P|363:364|331:384,1,74.7500014257431,2|0,0:0|0:0,0:0:0:0:
251,246,151041,5,10,0:0:0:0:
265,211,151156,1,0,3:2:0:0:
272,175,151272,1,0,3:2:0:0:
274,137,151387,1,0,3:2:0:0:
271,100,151502,6,0,P|327:53|400:56,1,149.500002851486,2|0,3:2|0:0,0:0:0:0:
498,163,151848,1,0,3:2:0:0:
498,163,151964,2,0,P|487:198|481:235,1,74.7500014257431,10|0,0:0|0:0,0:0:0:0:
385,274,152194,2,0,P|379:237|368:201,1,74.7500014257431,2|0,0:0|0:0,0:0:0:0:
472,345,152425,2,0,P|435:351|400:362,1,74.7500014257431,2|0,3:2|0:0,0:0:0:0:
288,313,152656,2,0,P|251:307|215:296,1,74.7500014257431,2|0,0:0|0:0,0:0:0:0:
19,371,152887,5,10,0:0:0:0:
55,374,153002,1,0,3:2:0:0:
89,359,153117,1,0,3:2:0:0:
110,328,153233,1,0,3:2:0:0:
112,292,153348,6,0,P|99:218|101:143,1,149.500002851486,2|0,3:2|0:0,0:0:0:0:
8,0,153694,1,0,3:2:0:0:
8,0,153810,2,0,P|39:19|76:22,1,74.7500014257431,10|0,0:0|0:0,0:0:0:0:
188,74,154041,1,2,3:2:0:0:
188,74,154156,1,0,3:2:0:0:
188,74,154272,2,0,P|219:54|256:51,1,74.7500014257431,2|0,3:2|0:0,0:0:0:0:
383,0,154502,2,0,P|363:31|360:68,1,74.7500014257431,2|0,0:0|0:0,0:0:0:0:
295,259,154733,5,10,0:0:0:0:
271,230,154848,1,0,3:2:0:0:
263,194,154963,1,0,3:2:0:0:
273,159,155079,1,0,3:2:0:0:
298,132,155194,6,0,P|295:206|275:278,1,149.500002851486,2|0,3:2|0:0,0:0:0:0:
158,362,155540,1,0,3:2:0:0:
158,362,155656,2,0,P|123:347|86:344,1,74.7500014257431,10|0,0:0|0:0,0:0:0:0:
0,259,155887,2,0,P|14:224|17:187,1,74.7500014257431,2|0,0:0|0:0,0:0:0:0:
146,150,156118,2,0,P|149:187|163:221,1,74.7500014257431,2|0,3:2|0:0,0:0:0:0:
42,80,156348,2,0,P|56:45|59:8,1,74.7500014257431,2|0,0:0|0:0,0:0:0:0:
211,3,156579,5,10,0:0:0:0:
248,1,156694,1,0,3:2:0:0:
284,7,156809,1,0,3:2:0:0:
319,22,156925,1,0,3:2:0:0:
341,52,157041,6,0,B|319:140|394:99|372:187,1,149.500002851486,2|0,3:2|0:0,0:0:0:0:
259,283,157387,1,0,3:2:0:0:
259,283,157502,2,0,P|244:249|248:212,1,74.7500014257431,10|0,0:0|0:0,0:0:0:0:
362,358,157733,1,2,3:2:0:0:
362,358,157849,1,0,3:2:0:0:
362,358,157964,2,0,P|325:354|291:368,1,74.7500014257431,2|0,3:2|0:0,0:0:0:0:
421,265,158194,2,0,P|454:279|491:275,1,74.7500014257431,2|0,0:0|0:0,0:0:0:0:
288,147,158425,5,10,0:0:0:0:
299,182,158540,1,0,3:2:0:0:
297,219,158656,1,0,3:2:0:0:
284,254,158771,1,0,3:2:0:0:
259,283,158887,6,0,P|187:298|119:269,1,149.500002851486,2|0,3:2|0:0,0:0:0:0:
2,172,159233,1,0,3:2:0:0:
2,172,159348,2,0,P|13:207|19:244,1,74.7500014257431,10|0,0:0|0:0,0:0:0:0:
91,85,159579,2,0,P|54:79|18:67,1,74.7500014257431,2|0,0:0|0:0,0:0:0:0:
139,187,159810,2,0,P|174:175|211:169,1,74.7500014257431,2|0,3:2|0:0,0:0:0:0:
315,81,160041,2,0,P|350:92|387:98,1,74.7500014257431,2|0,0:0|0:0,0:0:0:0:
512,268,160271,5,10,0:0:0:0:
476,261,160387,1,0,3:2:0:0:
447,238,160502,1,0,3:2:0:0:
435,202,160618,1,0,3:2:0:0:
442,167,160733,6,0,P|463:238|469:312,1,149.500002851486,2|0,3:2|0:0,0:0:0:0:
344,383,161079,1,0,3:2:0:0:
344,383,161194,2,0,P|310:367|273:364,1,74.7500014257431,10|0,0:0|0:0,0:0:0:0:
281,250,161425,1,2,3:2:0:0:
281,250,161541,1,0,3:2:0:0:
281,250,161656,2,0,P|315:266|352:269,1,74.7500014257431,2|0,3:2|0:0,0:0:0:0:
187,307,161887,2,0,P|171:273|167:236,1,74.7500014257431,2|0,0:0|0:0,0:0:0:0:
246,116,162118,5,10,0:0:0:0:
221,143,162233,1,0,3:2:0:0:
187,160,162348,1,0,3:2:0:0:
150,161,162464,1,0,3:2:0:0:
116,146,162579,6,0,P|185:138|299:108,1,130,2|0,3:2|0:0,0:0:0:0:
338,72,162925,2,0,P|326:26|322:-6,1,65,2|8,0:0|0:0,0:0:0:0:
448,77,163156,1,0,3:2:0:0:
448,77,163271,2,0,P|442:108|433:140,1,65,2|0,0:0|0:0,0:0:0:0:
344,216,163502,1,0,3:2:0:0:
344,216,163618,2,0,P|332:170|328:138,1,65,2|0,0:0|0:0,0:0:0:0:
454,221,163848,1,0,3:2:0:0:
454,221,163964,2,0,P|448:252|439:284,1,65,10|0,0:0|0:0,0:0:0:0:
353,366,164194,2,0,P|341:321|337:280,1,65,2|0,0:0|0:0,0:0:0:0:
229,223,164425,6,0,P|155:216|97:285,1,130,2|0,3:2|0:0,0:0:0:0:
19,364,164771,2,0,P|97:376|158:314,1,130,2|0,0:0|0:0,0:0:0:0:
37,217,165118,2,0,P|31:174|33:143,1,65,2|0,0:0|0:0,0:0:0:0:
107,52,165348,1,0,3:2:0:0:
107,52,165464,2,0,B|179:71|165:93|230:137,1,130,2|0,0:0|0:0,0:0:0:0:
308,62,165810,5,10,0:0:0:0:
330,38,165925,1,0,3:2:0:0:
362,34,166041,1,2,3:2:0:0:
393,40,166156,1,0,3:2:0:0:
415,62,166271,6,0,P|399:137|388:215,1,130,2|0,3:2|0:0,0:0:0:0:
432,348,166618,2,0,P|471:351|508:328,1,65,2|8,0:0|0:0,0:0:0:0:
511,236,166848,1,0,3:2:0:0:
511,236,166964,2,0,P|480:224|448:228,1,65,2|0,0:0|0:0,0:0:0:0:
295,317,167194,1,0,3:2:0:0:
295,317,167310,2,0,P|326:321|357:309,1,65,2|0,0:0|0:0,0:0:0:0:
308,184,167541,1,0,3:2:0:0:
308,184,167657,2,0,P|276:179|245:191,1,65,10|0,0:0|0:0,0:0:0:0:
144,310,167887,2,0,P|178:328|229:329,1,65,2|0,0:0|0:0,0:0:0:0:
127,191,168118,6,0,P|54:208|-20:218,1,130,2|0,3:2|0:0,0:0:0:0:
112,90,168464,2,0,P|142:100|246:116,1,130,2|0,0:0|0:0,0:0:0:0:
335,87,168810,2,0,P|331:42|323:8,1,65,2|0,0:0|0:0,0:0:0:0:
387,160,169041,1,0,3:2:0:0:
387,160,169156,2,0,P|450:154|508:213,1,130,2|0,0:0|0:0,0:0:0:0:
512,340,169502,5,10,0:0:0:0:
479,343,169618,1,0,3:2:0:0:
447,347,169733,1,2,3:2:0:0:
414,351,169848,1,0,3:2:0:0:
381,351,169964,6,0,B|290:369|285:279|156:328,2,195,2|2|2,3:2|0:0|0:0,0:0:0:0:
465,227,170887,1,0,3:2:0:0:
465,227,171002,2,0,P|457:176|456:124,1,65,2|0,0:0|0:0,0:0:0:0:
394,56,171233,1,0,3:2:0:0:
394,56,171348,2,0,P|357:94|241:99,1,130,10|2,0:0|0:0,0:0:0:0:
128,0,171810,6,0,P|108:87|88:135,1,130,2|0,3:2|0:0,0:0:0:0:
185,216,172156,2,0,P|205:303|225:351,1,130,2|0,0:0|0:0,0:0:0:0:
91,362,172502,2,0,P|78:298|55:237,1,130,2|0,0:0|3:2,0:0:0:0:
204,129,172848,2,0,P|216:65|239:4,1,130,2|0,0:0|0:0,0:0:0:0:
359,115,173194,2,0,P|325:113|288:87,1,65,10|0,0:0|0:0,0:0:0:0:
406,35,173425,2,0,P|440:37|477:63,1,65,2|0,0:0|0:0,0:0:0:0:
510,166,173656,6,0,P|495:259|477:376,1,195,2|2,3:2|0:0,0:0:0:0:
333,369,174348,2,0,P|292:320|163:317,1,195,2|2,0:0|0:0,0:0:0:0:
108,359,174810,1,0,3:2:0:0:
20,289,175041,2,0,P|31:244|32:212,1,65,10|0,0:0|0:0,0:0:0:0:
124,177,175271,2,0,P|113:132|112:100,1,65,2|0,0:0|0:0,0:0:0:0:
52,40,175502,6,0,P|122:4|244:40,2,195,2|2|2,3:2|0:0|0:0,0:0:0:0:
124,177,176541,1,2,3:2:0:0:
124,177,176656,2,0,P|165:171|207:154,1,65
265,110,176887,2,0,P|332:136|405:140,1,130,10|2,0:0|0:0,0:0:0:0:
465,98,177348,5,2,0:0:0:0:
