osu file format v14

[General]
AudioFilename: audio.mp3
AudioLeadIn: 0
PreviewTime: 132579
Countdown: 0
SampleSet: Soft
StackLeniency: 0.7
Mode: 0
LetterboxInBreaks: 0
WidescreenStoryboard: 0

[Editor]
Bookmarks: 14887,29656,59194,88733,116425,133041,162579,177348
DistanceSpacing: 1.1
BeatDivisor: 4
GridSize: 16
TimelineZoom: 1.7

[Metadata]
Title:Vesna
TitleUnicode:Vesna
Artist:iskrit
ArtistUnicode:iskrit
Creator:nemidnight
Version:narcissist
Source:
Tags:русский поп russian pop искрит весна mizujin
BeatmapID:4536515
BeatmapSetID:2153013

[Difficulty]
HPDrainRate:4.5
CircleSize:4
OverallDifficulty:9
ApproachRate:9.2
SliderMultiplier:2.8
SliderTickRate:1

[Events]
//Background and Video events
0,0,"imgonline-com-ua-Resize-5QJrHULKo8IYnwUb.jpg",0,0
//Break Periods
2,59394,73394
2,118471,132009
//Storyboard Layer 0 (Background)
//Storyboard Layer 1 (Fail)
//Storyboard Layer 2 (Pass)
//Storyboard Layer 3 (Foreground)
//Storyboard Layer 4 (Overlay)
//Storyboard Sound Samples

[TimingPoints]
118,461.538461538462,4,2,1,90,1,0
14887,-111.111111111111,4,2,1,70,0,0
29656,-100,4,2,1,90,0,0
43502,-200,4,2,1,60,0,0
44425,-90.9090909090909,4,2,1,90,0,0
57348,-142.857142857143,4,2,1,70,0,0
73964,-200,4,2,1,60,0,0
77656,-285.714285714286,4,2,1,60,0,0
79964,-200,4,2,1,60,0,0
88733,-100,4,2,1,90,0,0
103502,-90.9090909090909,4,2,1,90,0,0
132579,-200,4,2,1,70,0,0
133041,-83.3333333333333,4,2,1,90,0,1
145964,-200,4,2,1,60,0,0
147810,-83.3333333333333,4,2,1,90,0,1
162579,-111.111111111111,4,2,1,75,0,0
177348,-111.111111111111,4,2,1,50,0,0

[Colours]
Combo1 : 0,142,0
Combo2 : 227,74,0
Combo3 : 0,74,0
Combo4 : 151,151,151

[HitObjects]
432,309,14887,6,0,P|458:240|440:184,1,125.999996154785,2|0,0:0|0:0,0:0:0:0:
383,149,15233,1,0,3:2:0:0:
383,149,15348,2,0,P|352:162|311:169,1,62.9999980773926,10|0,0:0|0:0,0:0:0:0:
285,239,15579,2,0,P|315:245|344:258,1,62.9999980773926,2|0,0:0|0:0,0:0:0:0:
236,171,15810,2,0,P|205:184|164:191,1,62.9999980773926,2|0,0:0|0:0,0:0:0:0:
138,261,16041,2,0,P|168:267|197:280,1,62.9999980773926,2|0,0:0|0:0,0:0:0:0:
64,188,16271,6,0,P|69:146|71:112,1,62.9999980773926,10|0,0:0|0:0,0:0:0:0:
11,70,16502,2,0,P|52:21|160:36,1,125.999996154785,2|0,0:0|0:0,0:0:0:0:
170,64,16848,1,0,3:2:0:0:
170,64,16964,2,0,L|153:194,2,125.999996154785,2|8|0,0:0|0:0|0:0,0:0:0:0:
308,14,17656,5,2,3:2:0:0:
308,14,17771,1,0,3:2:0:0:
308,14,17887,2,0,L|320:79,1,62.9999980773926,2|0,0:0|0:0,0:0:0:0:
387,126,18118,1,10,0:0:0:0:
387,126,18233,1,0,3:2:0:0:
387,126,18348,2,0,L|373:200,1,62.9999980773926,2|0,0:0|0:0,0:0:0:0:
310,220,18579,6,0,P|371:223|406:289,1,125.999996154785,2|0,0:0|0:0,0:0:0:0:
450,344,18925,1,2,3:2:0:0:
450,344,19041,2,0,L|384:368,1,62.9999980773926,10|0,0:0|0:0,0:0:0:0:
346,294,19271,2,0,L|405:272,1,62.9999980773926,2|0,0:0|0:0,0:0:0:0:
300,365,19502,2,0,L|240:343,1,62.9999980773926,2|0,0:0|0:0,0:0:0:0:
286,272,19733,2,0,L|345:293,1,62.9999980773926,2|0,0:0|0:0,0:0:0:0:
197,281,19964,2,0,L|170:223,1,62.9999980773926,10|0,0:0|0:0,0:0:0:0:
230,158,20195,6,0,L|293:286,1,125.999996154785,2|0,0:0|0:0,0:0:0:0:
240,343,20541,1,0,3:2:0:0:
240,343,20656,2,0,P|189:298|95:325,2,125.999996154785,2|8|0,0:0|0:0|0:0,0:0:0:0:
67,369,21348,5,0,3:2:0:0:
67,369,21464,1,8,0:0:0:0:
67,369,21579,1,0,3:2:0:0:
67,369,21694,1,0,3:2:0:0:
67,369,21810,2,0,L|51:301,1,62.9999980773926,10|0,0:0|0:0,0:0:0:0:
11,242,22041,1,0,3:2:0:0:
11,242,22156,1,0,3:2:0:0:
11,242,22271,6,0,L|32:86,1,125.999996154785,2|0,0:0|0:0,0:0:0:0:
63,51,22618,1,0,3:2:0:0:
135,28,22733,2,0,P|167:35|193:65,1,62.9999980773926,10|0,0:0|0:0,0:0:0:0:
154,142,22964,2,0,P|123:135|100:114,1,62.9999980773926,2|0,0:0|0:0,0:0:0:0:
284,60,23194,2,0,P|311:78|324:115,1,62.9999980773926,2|0,0:0|0:0,0:0:0:0:
260,173,23425,2,0,P|233:156|220:128,1,62.9999980773926,2|0,0:0|0:0,0:0:0:0:
348,192,23656,6,0,L|322:349,1,125.999996154785,10|0,0:0|0:0,0:0:0:0:
409,335,24002,1,0,3:2:0:0:
409,335,24118,2,0,L|434:189,1,125.999996154785,2|0,0:0|0:0,0:0:0:0:
479,156,24464,1,0,3:2:0:0:
436,96,24579,2,0,P|402:99|368:105,1,62.9999980773926,10|0,0:0|0:0,0:0:0:0:
285,184,24810,2,0,P|316:189|347:191,1,62.9999980773926,2|0,0:0|0:0,0:0:0:0:
257,103,25041,2,0,P|226:117|196:135,1,62.9999980773926,2|0,0:0|0:0,0:0:0:0:
147,239,25272,2,0,P|177:232|208:223,1,62.9999980773926,2|0,0:0|0:0,0:0:0:0:
64,166,25502,6,0,P|28:226|45:300,1,125.999996154785,10|0,0:0|0:0,0:0:0:0:
89,345,25848,1,0,3:2:0:0:
176,369,25964,2,0,P|239:325|302:346,1,125.999996154785,2|0,0:0|0:0,0:0:0:0:
358,300,26310,5,0,3:2:0:0:
358,300,26425,2,0,L|353:228,1,62.9999980773926,10|0,0:0|0:0,0:0:0:0:
438,189,26656,1,2,3:2:0:0:
438,189,26771,1,0,3:2:0:0:
438,189,26887,2,0,L|505:220,1,62.9999980773926,0|2,0:0|0:0,0:0:0:0:
491,302,27118,2,0,L|429:344,1,62.9999980773926
353,237,27348,2,0,L|358:300,1,62.9999980773926,10|0,0:0|0:0,0:0:0:0:
495,215,27579,2,0,L|438:189,1,62.9999980773926,2|0,0:0|0:0,0:0:0:0:
428,264,27810,5,2,0:0:0:0:
512,55,29656,6,0,P|444:24|350:29,1,140,2|0,3:2|0:0,0:0:0:0:
309,123,30002,1,0,3:2:0:0:
305,201,30118,2,0,P|345:195|375:169,1,70,10|0,0:0|0:0,0:0:0:0:
312,42,30348,2,0,P|269:46|238:80,1,70,2|0,0:0|0:0,0:0:0:0:
397,89,30579,2,0,L|379:22,1,70,2|0,3:2|0:0,0:0:0:0:
210,157,30810,2,0,L|238:242,1,70,2|0,0:0|0:0,0:0:0:0:
350,244,31041,5,10,0:0:0:0:
391,218,31156,1,0,3:2:0:0:
439,220,31271,1,2,3:2:0:0:
475,252,31387,1,0,3:2:0:0:
492,297,31502,6,0,L|479:369,1,70,0|0,3:2|0:0,0:0:0:0:
395,377,31733,1,2,3:2:0:0:
395,377,31848,2,0,L|408:295,1,70,0|8,0:0|0:0,0:0:0:0:
328,263,32079,1,0,3:2:0:0:
328,263,32194,2,0,L|315:340,1,70
221,354,32425,6,0,L|232:284,1,70,2|0,3:2|0:0,0:0:0:0:
155,232,32656,2,0,L|143:301,1,70,2|0,0:0|0:0,0:0:0:0:
60,343,32887,2,0,L|71:273,1,70,10|0,0:0|0:0,0:0:0:0:
11,203,33118,2,0,L|0:272,1,70,2|0,0:0|0:0,0:0:0:0:
136,152,33348,6,0,P|80:157|19:88,1,140,2|0,3:2|0:0,0:0:0:0:
66,38,33694,1,0,3:2:0:0:
138,10,33810,2,0,P|187:21|211:29,1,70,10|0,0:0|0:0,0:0:0:0:
291,158,34041,1,2,3:2:0:0:
246,172,34156,1,8,0:0:0:0:
205,144,34271,2,0,L|126:152,1,70,2|0,3:2|0:0,0:0:0:0:
278,68,34502,2,0,L|297:-13,1,70,2|0,0:0|0:0,0:0:0:0:
363,154,34733,6,0,L|500:223,1,140,10|0,0:0|0:0,0:0:0:0:
363,154,35079,1,0,3:2:0:0:
327,222,35194,2,0,L|340:365,1,140,2|0,3:2|0:0,0:0:0:0:
244,254,35541,1,0,3:2:0:0:
244,254,35656,2,0,L|213:322,1,70,8|0,0:0|0:0,0:0:0:0:
186,186,35887,1,0,3:2:0:0:
186,186,36002,2,0,L|125:229,1,70,0|0,0:0|3:2,0:0:0:0:
182,102,36233,1,8,0:0:0:0:
182,102,36348,2,0,L|107:109,1,70
277,15,36579,5,10,0:0:0:0:
325,22,36694,1,0,3:2:0:0:
373,29,36810,1,0,3:2:0:0:
421,33,36925,1,0,3:2:0:0:
469,40,37041,6,0,L|494:225,1,140,2|0,3:2|0:0,0:0:0:0:
420,228,37387,5,0,3:2:0:0:
420,228,37502,1,10,0:0:0:0:
391,187,37618,1,0,3:2:0:0:
348,163,37733,1,2,3:2:0:0:
299,167,37848,1,0,3:2:0:0:
260,197,37964,6,0,L|260:272,1,70,2|0,3:2|0:0,0:0:0:0:
259,103,38194,2,0,L|259:33,1,70,2|0,0:0|0:0,0:0:0:0:
146,139,38425,2,0,L|146:218,1,70,10|0,0:0|0:0,0:0:0:0:
176,54,38656,1,0,3:2:0:0:
116,7,38771,1,0,3:2:0:0:
43,40,38887,6,0,L|18:225,1,140,2|0,3:2|0:0,0:0:0:0:
75,249,39233,1,0,3:2:0:0:
75,249,39348,1,10,0:0:0:0:
104,208,39464,1,0,3:2:0:0:
147,184,39579,1,2,3:2:0:0:
196,188,39694,1,0,3:2:0:0:
235,218,39810,2,0,L|235:293,1,70,2|0,3:2|0:0,0:0:0:0:
237,125,40041,2,0,L|237:55,1,70,2|0,0:0|0:0,0:0:0:0:
342,12,40271,6,0,P|425:7|438:158,1,210,10|8,0:0|0:0,0:0:0:0:
406,178,40733,5,2,3:2:0:0:
364,121,40848,1,0,3:2:0:0:
297,143,40964,1,0,3:2:0:0:
292,212,41079,1,0,3:2:0:0:
357,234,41194,1,8,0:0:0:0:
406,283,41310,1,0,3:2:0:0:
385,349,41425,1,0,3:2:0:0:
314,344,41541,1,0,3:2:0:0:
287,279,41656,5,0,3:2:0:0:
287,279,41771,1,0,3:2:0:0:
236,226,41887,1,0,3:2:0:0:
236,226,42002,1,0,3:2:0:0:
166,254,42118,1,8,0:0:0:0:
166,254,42233,1,0,3:2:0:0:
168,328,42348,1,0,3:2:0:0:
168,328,42464,1,0,3:2:0:0:
244,358,42579,5,2,0:0:0:0:
169,170,42925,5,2,0:0:0:0:
108,11,43156,5,2,0:0:0:0:
108,11,43271,1,2,0:0:0:0:
41,44,43502,6,0,L|33:2,7,35,10|8|10|8|10|8|10|8,0:0|0:0|0:0|0:0|0:0|0:0|0:0|0:0,0:0:0:0:
73,114,44425,6,0,L|72:290,1,154.000004699707,6|0,3:2|0:0,0:0:0:0:
114,337,44771,1,0,3:2:0:0:
180,296,44887,2,0,P|224:281|328:319,1,154.000004699707,10|2,0:0|0:0,0:0:0:0:
461,355,45233,1,0,3:2:0:0:
492,284,45348,2,0,P|499:246|487:211,1,77.0000023498536,2|0,3:2|0:0,0:0:0:0:
406,103,45579,2,0,P|415:148|398:193,1,77.0000023498536,2|0,0:0|0:0,0:0:0:0:
295,224,45810,5,10,0:0:0:0:
262,163,45925,1,0,3:2:0:0:
197,136,46041,1,2,3:2:0:0:
130,154,46156,1,0,3:2:0:0:
80,202,46271,6,0,P|41:196|4:187,1,77.0000023498536,0|0,3:2|0:0,0:0:0:0:
64,58,46502,1,2,3:2:0:0:
64,58,46618,2,0,P|101:67|139:72,1,77.0000023498536,0|8,0:0|0:0,0:0:0:0:
231,198,46848,1,0,3:2:0:0:
231,198,46964,2,0,P|192:192|155:183,1,77.0000023498536
262,65,47194,5,2,3:2:0:0:
312,45,47310,1,0,3:2:0:0:
360,69,47425,2,0,L|348:149,1,77.0000023498536,2|0,0:0|0:0,0:0:0:0:
474,238,47656,5,10,0:0:0:0:
443,175,47771,1,0,3:2:0:0:
377,150,47887,1,2,3:2:0:0:
309,164,48002,1,0,3:2:0:0:
268,220,48118,6,0,L|286:379,1,154.000004699707,2|0,3:2|0:0,0:0:0:0:
370,340,48464,1,0,3:2:0:0:
285,373,48579,2,0,P|216:325|120:353,1,154.000004699707,10|2,0:0|0:0,0:0:0:0:
68,342,48925,1,8,0:0:0:0:
86,264,49041,2,0,P|99:179|28:123,1,154.000004699707,2|0,3:2|0:0,0:0:0:0:
3,74,49387,1,0,3:2:0:0:
57,132,49502,2,0,P|148:151|205:83,1,154.000004699707,10|0,0:0|0:0,0:0:0:0:
280,40,49848,5,0,3:2:0:0:
215,5,49964,2,0,P|176:9|133:14,2,77.0000023498536,2|0|0,3:2|0:0|0:0,0:0:0:0:
283,54,50310,1,0,3:2:0:0:
350,5,50425,2,0,P|413:4|485:76,1,154.000004699707,10|0,0:0|0:0,0:0:0:0:
381,198,50887,5,2,3:2:0:0:
352,133,51002,1,8,0:0:0:0:
287,106,51118,1,2,3:2:0:0:
218,115,51233,1,0,3:2:0:0:
178,171,51348,5,10,0:0:0:0:
246,161,51464,1,0,3:2:0:0:
314,155,51579,1,2,3:2:0:0:
382,149,51694,1,0,3:2:0:0:
451,144,51810,6,0,P|459:254|464:316,1,154.000004699707,2|0,3:2|0:0,0:0:0:0:
389,342,52156,1,0,3:2:0:0:
328,293,52271,2,0,L|245:308,1,77.0000023498536,10|0,0:0|0:0,0:0:0:0:
176,320,52502,2,0,L|251:306,1,77.0000023498536,2|0,0:0|0:0,0:0:0:0:
313,207,52733,2,0,L|216:204,1,77.0000023498536,2|0,3:2|0:0,0:0:0:0:
79,203,52964,2,0,L|155:205,1,77.0000023498536,2|0,0:0|0:0,0:0:0:0:
291,121,53194,6,0,L|130:87,1,154.000004699707,10|0,0:0|0:0,0:0:0:0:
75,49,53541,1,8,0:0:0:0:
13,0,53656,2,0,P|-5:83|26:179,1,154.000004699707,2|0,3:2|0:0,0:0:0:0:
111,235,54002,6,0,P|123:192|134:156,1,77.0000023498536,0|8,0:0|0:0,0:0:0:0:
100,330,54233,1,0,3:2:0:0:
75,311,54348,2,0,L|-12:326,1,77.0000023498536
174,292,54579,1,2,3:2:0:0:
184,317,54694,2,0,L|259:361,1,77.0000023498536,0|2,0:0|0:0,0:0:0:0:
378,295,54925,5,0,3:2:0:0:
378,295,55041,1,10,0:0:0:0:
415,352,55156,1,0,3:2:0:0:
481,334,55271,1,2,3:2:0:0:
481,264,55387,1,8,0:0:0:0:
419,232,55502,6,0,P|318:250|254:257,1,154.000004699707,2|0,3:2|0:0,0:0:0:0:
203,209,55848,1,0,3:2:0:0:
158,145,55964,2,0,P|153:102|182:63,1,77.0000023498536,10|0,0:0|0:0,0:0:0:0:
293,41,56194,1,2,3:2:0:0:
344,88,56310,1,0,3:2:0:0:
412,76,56425,2,0,L|404:-5,1,77.0000023498536,2|0,3:2|0:0,0:0:0:0:
426,155,56656,2,0,L|418:236,1,77.0000023498536,2|0,0:0|0:0,0:0:0:0:
331,355,56887,5,10,0:0:0:0:
262,346,57002,1,0,3:2:0:0:
192,337,57118,1,2,3:2:0:0:
123,327,57233,1,0,3:2:0:0:
54,314,57348,6,0,L|74:166,2,146.999995513916,2|2|2,3:2|0:0|0:0,0:0:0:0:
41,384,58156,5,2,0:0:0:0:
118,378,58387,5,2,0:0:0:0:
118,378,58502,1,2,0:0:0:0:
189,362,58733,6,0,L|182:299,4,48.9999985046387,2|2|2|2|2,0:0|0:0|0:0|0:0|0:0,0:0:0:0:
508,24,73964,6,0,P|457:70|376:61,1,140,2|8,0:0|0:0,0:0:0:0:
240,6,74656,1,0,0:0:0:0:
240,6,74887,2,0,L|249:108,1,70,2|0,0:0|0:0,0:0:0:0:
421,244,75348,6,0,P|384:192|284:188,1,140,8|2,0:0|0:0,0:0:0:0:
312,177,76271,2,0,P|320:212|323:247,1,70,8|0,0:0|0:0,0:0:0:0:
213,256,76733,2,0,P|220:221|223:186,1,70,2|0,0:0|0:0,0:0:0:0:
402,251,77194,2,0,P|388:308|380:350,1,70,8|0,0:0|0:0,0:0:0:0:
128,260,77656,6,0,P|114:196|203:101,2,195.999994018555,2|2|2,0:0|0:0|0:0,0:0:0:0:
247,254,79848,5,0,0:0:0:0:
247,254,79964,2,0,L|260:158,1,70,8|0,0:0|0:0,0:0:0:0:
334,194,80310,2,0,P|389:222|457:212,1,105
496,179,80887,1,8,0:0:0:0:
500,102,81118,5,0,0:0:0:0:
500,102,81348,2,0,L|357:76,1,140,2|8,0:0|0:0,0:0:0:0:
253,27,82041,1,0,0:0:0:0:
253,27,82271,2,0,P|217:53|182:51,1,70,2|0,0:0|0:0,0:0:0:0:
88,80,82733,2,0,P|154:100|168:172,2,140,8|2|8,0:0|0:0|0:0,0:0:0:0:
8,363,84118,6,0,P|66:351|98:338,1,70,2|0,0:0|0:0,0:0:0:0:
161,270,84579,2,0,P|200:289|297:311,2,140,8|2|8,0:0|0:0|0:0,0:0:0:0:
115,206,85733,1,0,0:0:0:0:
164,148,85964,5,2,0:0:0:0:
242,150,86310,1,0,0:0:0:0:
304,204,86656,1,0,0:0:0:0:
266,274,86887,6,0,L|289:391,2,105,2|0|0,0:0|0:0|0:0,0:0:0:0:
242,152,87810,2,0,L|221:42,2,105,2|0|0,0:0|0:0|0:0,0:0:0:0:
325,202,88733,6,0,P|360:208|392:195,1,70,2|0,3:2|0:0,0:0:0:0:
422,71,88964,2,0,P|389:58|355:63,1,70
242,152,89194,1,10,0:0:0:0:
204,185,89310,1,0,3:2:0:0:
157,174,89425,2,0,P|123:171|85:166,1,70,2|0,0:0|0:0,0:0:0:0:
205,277,89656,2,0,P|248:271|279:263,1,70,2|0,3:2|0:0,0:0:0:0:
129,337,89887,2,0,P|118:282|116:258,1,70,2|0,0:0|0:0,0:0:0:0:
262,167,90118,6,0,P|332:184|352:251,1,140,10|0,0:0|0:0,0:0:0:0:
404,322,90464,1,0,3:2:0:0:
484,287,90579,2,0,P|472:194|464:139,1,140,2|0,3:2|0:0,0:0:0:0:
512,55,90925,5,0,3:2:0:0:
512,55,91041,1,8,0:0:0:0:
473,24,91156,1,0,3:2:0:0:
426,9,91271,1,0,3:2:0:0:
377,16,91387,1,0,3:2:0:0:
344,52,91502,6,0,L|352:129,1,70,2|0,3:2|0:0,0:0:0:0:
255,176,91733,2,0,L|247:106,1,70,2|0,0:0|0:0,0:0:0:0:
148,38,91964,1,10,0:0:0:0:
148,38,92079,1,0,3:2:0:0:
148,38,92194,2,0,L|151:114,1,70,2|0,0:0|0:0,0:0:0:0:
84,254,92425,6,0,P|29:211|71:120,1,140,2|0,3:2|0:0,0:0:0:0:
75,80,92771,1,0,3:2:0:0:
150,107,92887,2,0,L|137:184,1,70,10|0,0:0|0:0,0:0:0:0:
287,281,93118,2,0,L|275:211,1,70,2|8,0:0|0:0,0:0:0:0:
251,88,93348,2,0,L|218:159,1,70,2|0,3:2|0:0,0:0:0:0:
357,323,93579,2,0,L|363:253,1,70,2|0,0:0|0:0,0:0:0:0:
231,337,93810,5,10,0:0:0:0:
191,365,93925,1,0,3:2:0:0:
142,356,94041,1,2,3:2:0:0:
105,323,94156,1,0,3:2:0:0:
100,274,94271,6,0,L|128:131,1,140,0|2,3:2|0:0,0:0:0:0:
184,77,94618,1,0,3:2:0:0:
139,12,94733,2,0,P|105:-1|64:3,1,70,8|0,0:0|0:0,0:0:0:0:
197,88,94964,2,0,P|241:90|268:76,1,70
384,22,95194,2,0,L|356:165,1,140,0|0,3:2|0:0,0:0:0:0:
471,371,95656,5,10,0:0:0:0:
480,323,95771,1,0,3:2:0:0:
487,274,95887,1,0,3:2:0:0:
496,225,96002,1,0,3:2:0:0:
505,176,96118,6,0,P|441:168|373:235,1,140,2|0,3:2|0:0,0:0:0:0:
269,291,96464,1,0,3:2:0:0:
269,291,96579,1,10,0:0:0:0:
263,242,96694,1,0,3:2:0:0:
256,193,96810,1,2,3:2:0:0:
250,144,96925,1,0,3:2:0:0:
241,95,97041,6,0,L|256:20,1,70,2|0,3:2|0:0,0:0:0:0:
142,61,97271,2,0,L|155:129,1,70,2|0,0:0|0:0,0:0:0:0:
40,94,97502,2,0,L|53:25,1,70,10|0,0:0|0:0,0:0:0:0:
114,195,97733,1,0,3:2:0:0:
54,230,97848,1,0,3:2:0:0:
7,176,97964,6,0,P|71:168|139:235,1,140,2|0,3:2|0:0,0:0:0:0:
243,291,98310,1,0,3:2:0:0:
243,291,98425,1,10,0:0:0:0:
249,242,98540,1,0,3:2:0:0:
256,193,98656,1,2,3:2:0:0:
262,144,98771,1,0,3:2:0:0:
271,95,98887,6,0,L|256:20,1,70,2|0,3:2|0:0,0:0:0:0:
370,61,99118,2,0,L|356:129,1,70,2|0,0:0|0:0,0:0:0:0:
478,212,99348,2,0,L|450:-4,1,210,10|8,0:0|0:0,0:0:0:0:
329,1,99810,5,2,3:2:0:0:
362,62,99925,1,0,3:2:0:0:
325,122,100041,1,0,3:2:0:0:
260,95,100156,1,0,3:2:0:0:
261,25,100271,1,8,0:0:0:0:
194,0,100387,1,0,3:2:0:0:
134,36,100502,1,0,3:2:0:0:
130,106,100618,1,0,3:2:0:0:
198,143,100733,5,0,3:2:0:0:
198,143,100848,1,0,3:2:0:0:
239,205,100964,1,0,3:2:0:0:
239,205,101079,1,0,3:2:0:0:
199,267,101194,1,8,0:0:0:0:
199,267,101310,1,0,3:2:0:0:
124,239,101425,1,0,3:2:0:0:
124,239,101541,1,0,3:2:0:0:
122,163,101656,5,2,3:2:0:0:
311,233,102002,1,2,3:2:0:0:
483,299,102348,1,2,3:2:0:0:
449,230,102579,5,2,3:2:0:0:
512,133,103502,6,0,L|356:117,1,154.000004699707,6|0,3:2|0:0,0:0:0:0:
236,139,103849,1,0,3:2:0:0:
193,67,103964,2,0,P|237:59|278:49,1,77.0000023498536,10|0,0:0|0:0,0:0:0:0:
489,31,104194,1,2,3:2:0:0:
417,2,104310,1,0,3:2:0:0:
349,40,104425,2,0,L|359:122,1,77.0000023498536,2|0,3:2|0:0,0:0:0:0:
479,278,104771,5,2,3:2:0:0:
397,308,104887,2,0,L|411:227,1,77.0000023498536,10|0,0:0|0:0,0:0:0:0:
315,172,105118,2,0,P|235:158|178:197,1,154.000004699707,2|0,0:0|3:2,0:0:0:0:
99,333,105464,1,0,3:2:0:0:
159,285,105579,2,0,P|239:271|296:310,1,154.000004699707,2|8,0:0|0:0,0:0:0:0:
393,364,105925,5,0,3:2:0:0:
462,330,106041,1,0,3:2:0:0:
486,257,106156,1,0,3:2:0:0:
457,185,106271,2,0,L|449:107,1,77.0000023498536,2|0,3:2|0:0,0:0:0:0:
285,142,106502,2,0,L|294:223,1,77.0000023498536,2|0,0:0|0:0,0:0:0:0:
449,108,106733,2,0,L|458:29,1,77.0000023498536,10|0,0:0|0:0,0:0:0:0:
294,219,106964,2,0,L|283:297,1,77.0000023498536,2|0,0:0|0:0,0:0:0:0:
345,78,107194,6,0,P|309:58|263:63,1,77.0000023498536,2|0,3:2|0:0,0:0:0:0:
225,193,107425,2,0,P|259:217|294:218,1,77.0000023498536,2|0,0:0|0:0,0:0:0:0:
234,3,107656,2,0,P|199:4|163:26,1,77.0000023498536,10|0,0:0|0:0,0:0:0:0:
341,161,107887,2,0,P|375:159|410:136,1,77.0000023498536,2|8,0:0|0:0,0:0:0:0:
100,68,108118,2,0,P|84:98|86:141,1,77.0000023498536,2|0,3:2|0:0,0:0:0:0:
349,83,108348,2,0,P|352:43|334:8,1,77.0000023498536,2|0,0:0|0:0,0:0:0:0:
157,181,108579,2,0,L|173:352,1,154.000004699707,10|0,0:0|0:0,0:0:0:0:
311,367,108925,5,0,3:2:0:0:
368,313,109041,2,0,P|409:310|440:333,1,77.0000023498536,2|0,3:2|0:0,0:0:0:0:
293,279,109271,1,0,3:2:0:0:
315,203,109387,2,0,P|349:182|387:184,1,77.0000023498536,0|8,0:0|0:0,0:0:0:0:
237,216,109618,1,0,3:2:0:0:
218,139,109734,2,0,P|235:103|271:86,1,77.0000023498536
161,192,109964,1,0,3:2:0:0:
106,134,110080,2,0,P|105:94|126:62,1,77.0000023498536,8|0,0:0|0:0,0:0:0:0:
212,2,110310,5,0,3:2:0:0:
212,2,110425,1,10,0:0:0:0:
288,15,110541,1,0,3:2:0:0:
363,28,110656,1,0,3:2:0:0:
438,41,110771,1,0,3:2:0:0:
512,58,110887,6,0,L|489:241,1,154.000004699707,2|0,3:2|0:0,0:0:0:0:
396,333,111233,5,0,3:2:0:0:
364,262,111348,1,10,0:0:0:0:
441,268,111464,1,0,3:2:0:0:
405,199,111579,1,2,3:2:0:0:
328,194,111694,1,0,3:2:0:0:
289,261,111810,2,0,L|276:341,1,77.0000023498536,2|0,3:2|0:0,0:0:0:0:
214,113,112041,2,0,L|203:35,1,77.0000023498536,2|0,0:0|0:0,0:0:0:0:
142,194,112271,5,10,0:0:0:0:
70,224,112387,1,0,3:2:0:0:
10,175,112502,1,0,3:2:0:0:
4,97,112618,1,0,3:2:0:0:
64,49,112733,6,0,L|86:236,1,154.000004699707,2|0,3:2|0:0,0:0:0:0:
156,335,113079,5,0,3:2:0:0:
194,268,113194,1,10,0:0:0:0:
116,269,113310,1,0,3:2:0:0:
155,203,113425,1,2,3:2:0:0:
231,200,113540,1,0,3:2:0:0:
267,268,113656,2,0,L|278:349,1,77.0000023498536,2|0,3:2|0:0,0:0:0:0:
333,109,113887,2,0,L|344:32,1,77.0000023498536,2|0,0:0|0:0,0:0:0:0:
343,214,114118,6,0,P|433:207|513:311,1,231.000007049561,10|8,0:0|0:0,0:0:0:0:
387,365,114579,5,2,3:2:0:0:
311,351,114694,1,0,3:2:0:0:
234,340,114810,1,0,3:2:0:0:
158,327,114925,1,0,3:2:0:0:
82,311,115041,5,8,0:0:0:0:
98,235,115157,1,0,3:2:0:0:
116,160,115271,1,0,3:2:0:0:
135,85,115388,1,0,3:2:0:0:
158,14,115503,5,0,3:2:0:0:
158,14,115618,1,0,3:2:0:0:
237,29,115733,1,0,3:2:0:0:
237,29,115848,1,0,3:2:0:0:
316,49,115964,1,8,0:0:0:0:
316,49,116079,1,0,3:2:0:0:
395,66,116194,1,0,3:2:0:0:
395,66,116310,1,0,3:2:0:0:
470,78,116425,5,2,3:2:0:0:
433,233,116771,5,2,0:0:0:0:
396,379,117002,5,2,0:0:0:0:
396,379,117117,1,2,0:0:0:0:
332,331,117348,5,2,0:0:0:0:
332,331,117464,1,2,0:0:0:0:
256,368,117694,5,2,0:0:0:0:
256,368,117810,1,2,0:0:0:0:
201,311,118041,1,2,0:0:0:0:
134,345,118271,5,2,0:0:0:0:
16,172,132579,6,0,L|7:94,1,70,10|0,0:0|0:0,0:0:0:0:
3,27,133041,6,0,P|90:17|171:73,1,167.999994873047,6|0,3:2|0:0,0:0:0:0:
251,177,133387,1,0,3:2:0:0:
181,223,133502,2,0,L|89:196,1,83.9999974365235,10|0,0:0|0:0,0:0:0:0:
296,105,133733,2,0,L|383:91,1,83.9999974365235,2|0,0:0|0:0,0:0:0:0:
173,138,133964,2,0,L|154:43,1,83.9999974365235,2|0,3:2|0:0,0:0:0:0:
323,222,134194,2,0,L|306:304,1,83.9999974365235,2|0,0:0|0:0,0:0:0:0:
133,369,134425,5,10,0:0:0:0:
74,307,134541,1,0,3:2:0:0:
91,225,134656,1,0,3:2:0:0:
159,177,134771,1,0,3:2:0:0:
243,177,134887,6,0,L|420:212,1,167.999994873047,2|0,3:2|0:0,0:0:0:0:
512,80,135233,1,0,3:2:0:0:
453,26,135348,2,0,P|430:67|435:110,1,83.9999974365235,10|0,0:0|0:0,0:0:0:0:
512,251,135579,5,2,3:2:0:0:
480,173,135694,1,0,3:2:0:0:
407,209,135810,2,0,P|406:250|427:285,1,83.9999974365235,2|0,3:2|0:0,0:0:0:0:
332,359,136041,2,0,P|332:317|311:282,1,83.9999974365235,2|0,0:0|0:0,0:0:0:0:
214,215,136271,2,0,P|155:272|62:260,1,167.999994873047,10|0,0:0|0:0,0:0:0:0:
32,29,136733,5,2,3:2:0:0:
113,49,136848,1,0,3:2:0:0:
53,108,136964,1,0,3:2:0:0:
132,135,137079,1,0,3:2:0:0:
188,73,137194,1,8,0:0:0:0:
209,154,137310,1,0,3:2:0:0:
267,93,137425,1,0,3:2:0:0:
247,10,137541,1,8,0:0:0:0:
326,37,137656,5,0,3:2:0:0:
326,37,137771,1,0,3:2:0:0:
349,118,137887,1,0,3:2:0:0:
349,118,138002,1,0,3:2:0:0:
412,62,138118,1,8,0:0:0:0:
412,62,138233,1,0,3:2:0:0:
434,147,138348,1,0,3:2:0:0:
434,147,138464,1,0,3:2:0:0:
367,198,138579,6,0,L|377:290,1,83.9999974365235,0|0,3:2|0:0,0:0:0:0:
295,174,138810,1,0,3:2:0:0:
223,217,138925,2,0,L|233:309,1,83.9999974365235,0|8,0:0|0:0,0:0:0:0:
165,174,139156,1,0,3:2:0:0:
93,217,139271,2,0,L|103:309,1,83.9999974365235
165,174,139502,5,0,3:2:0:0:
103,116,139617,2,0,L|113:24,1,83.9999974365235,8|0,0:0|0:0,0:0:0:0:
165,174,139848,1,0,3:2:0:0:
229,120,139963,2,0,L|239:28,1,83.9999974365235,8|0,0:0|0:0,0:0:0:0:
352,119,140194,2,0,L|362:27,1,83.9999974365235,2|0,0:0|0:0,0:0:0:0:
508,5,140425,6,0,L|486:207,1,167.999994873047,2|0,3:2|0:0,0:0:0:0:
425,287,140771,1,0,3:2:0:0:
425,287,140887,1,10,0:0:0:0:
343,269,141002,1,0,3:2:0:0:
399,206,141118,1,2,3:2:0:0:
316,189,141233,1,0,3:2:0:0:
257,249,141348,6,0,L|270:350,1,83.9999974365235,2|0,3:2|0:0,0:0:0:0:
241,133,141579,2,0,L|230:49,1,83.9999974365235,2|0,0:0|0:0,0:0:0:0:
158,273,141810,2,0,P|114:200|150:105,1,167.999994873047,10|0,0:0|0:0,0:0:0:0:
230,49,142156,5,0,3:2:0:0:
298,86,142271,2,0,P|335:109|385:107,1,83.9999974365235,0|0,3:2|0:0,0:0:0:0:
471,183,142502,1,0,3:2:0:0:
403,220,142617,2,0,P|366:243|316:241,1,83.9999974365235,0|8,0:0|0:0,0:0:0:0:
229,315,142848,1,0,3:2:0:0:
297,352,142963,2,0,P|334:375|384:373,1,83.9999974365235
161,242,143194,5,2,3:2:0:0:
81,213,143310,1,0,3:2:0:0:
13,263,143425,1,2,3:2:0:0:
14,347,143541,1,0,3:2:0:0:
90,380,143656,2,0,L|72:193,2,167.999994873047,10|0|0,0:0|0:0|3:2,0:0:0:0:
207,166,144348,5,0,3:2:0:0:
160,99,144464,1,0,3:2:0:0:
83,132,144579,2,0,L|-8:117,1,83.9999974365235,10|0,0:0|0:0,0:0:0:0:
259,46,144810,2,0,L|341:59,1,83.9999974365235
156,226,145041,2,0,L|65:211,1,83.9999974365235,0|0,3:2|0:0,0:0:0:0:
336,154,145272,2,0,L|418:167,1,83.9999974365235
195,316,145502,2,0,L|104:301,1,83.9999974365235,8|0,0:0|0:0,0:0:0:0:
409,270,145733,2,0,L|491:283,1,83.9999974365235
305,343,145964,5,2,0:0:0:0:
249,191,146310,1,2,0:0:0:0:
199,47,146656,1,2,0:0:0:0:
199,47,146771,1,0,0:0:0:0:
263,9,146887,6,0,L|320:15,7,35,8|8|8|8|10|8|8|8,0:0|0:0|0:0|0:0|0:0|0:0|0:0|0:0,0:0:0:0:
355,63,147810,5,6,3:2:0:0:
427,21,147925,1,0,3:2:0:0:
492,74,148041,1,0,3:2:0:0:
456,150,148156,1,0,3:2:0:0:
372,143,148271,6,0,P|348:178|359:234,1,83.9999974365235,10|0,0:0|0:0,0:0:0:0:
446,253,148502,2,0,P|470:218|459:162,1,83.9999974365235,2|0,0:0|0:0,0:0:0:0:
279,300,148733,6,0,P|274:342|311:385,1,83.9999974365235,2|0,3:2|0:0,0:0:0:0:
397,360,148964,2,0,P|401:317|364:274,1,83.9999974365235,2|0,0:0|0:0,0:0:0:0:
243,226,149194,5,10,0:0:0:0:
157,239,149310,1,0,3:2:0:0:
115,167,149425,1,0,3:2:0:0:
176,108,149541,1,0,3:2:0:0:
251,143,149656,5,2,3:2:0:0:
326,106,149771,1,0,3:2:0:0:
320,22,149886,1,0,3:2:0:0:
238,0,150002,1,0,3:2:0:0:
158,29,150118,6,0,L|73:42,1,83.9999974365235,10|0,0:0|0:0,0:0:0:0:
158,29,150348,2,0,L|241:16,1,83.9999974365235,2|0,0:0|0:0,0:0:0:0:
128,170,150579,6,0,L|43:183,1,83.9999974365235,2|0,3:2|0:0,0:0:0:0:
236,152,150809,2,0,L|319:139,1,83.9999974365235,2|0,0:0|0:0,0:0:0:0:
193,250,151041,5,10,0:0:0:0:
107,264,151157,1,0,3:2:0:0:
90,347,151272,1,0,3:2:0:0:
167,382,151388,1,0,3:2:0:0:
231,329,151502,5,2,3:2:0:0:
311,352,151618,1,0,3:2:0:0:
354,280,151733,1,0,3:2:0:0:
276,248,151848,1,0,3:2:0:0:
345,200,151964,6,0,P|387:199|421:222,1,83.9999974365235,10|0,0:0|0:0,0:0:0:0:
292,136,152194,2,0,P|250:136|216:113,1,83.9999974365235,2|0,0:0|0:0,0:0:0:0:
415,87,152425,6,0,P|449:64|490:64,1,83.9999974365235,2|0,3:2|0:0,0:0:0:0:
352,31,152655,2,0,P|317:53|276:53,1,83.9999974365235,2|0,0:0|0:0,0:0:0:0:
159,5,152887,5,10,0:0:0:0:
82,39,153002,1,0,3:2:0:0:
145,94,153118,1,0,3:2:0:0:
65,119,153233,1,0,3:2:0:0:
5,60,153348,5,2,3:2:0:0:
82,39,153464,1,0,3:2:0:0:
145,94,153579,1,0,3:2:0:0:
127,175,153694,1,0,3:2:0:0:
46,198,153810,6,0,L|24:302,1,83.9999974365235,10|0,0:0|0:0,0:0:0:0:
171,313,154041,2,0,L|188:230,1,83.9999974365235,2|0,0:0|0:0,0:0:0:0:
28,280,154271,6,0,L|50:384,1,83.9999974365235,2|0,3:2|0:0,0:0:0:0:
188,230,154502,2,0,L|170:147,1,83.9999974365235,2|0,0:0|0:0,0:0:0:0:
313,313,154733,5,10,0:0:0:0:
378,365,154848,1,0,3:2:0:0:
447,317,154964,1,0,3:2:0:0:
419,237,155079,1,0,3:2:0:0:
335,235,155194,5,2,3:2:0:0:
419,237,155310,1,0,3:2:0:0:
439,155,155425,1,0,3:2:0:0:
371,104,155541,1,0,3:2:0:0:
305,156,155656,6,0,P|264:158|222:131,1,83.9999974365235,10|0,0:0|0:0,0:0:0:0:
238,26,155887,2,0,P|197:24|155:51,1,83.9999974365235,2|0,0:0|0:0,0:0:0:0:
84,194,156118,6,0,P|120:214|161:212,1,83.9999974365235,2|0,3:2|0:0,0:0:0:0:
227,137,156349,2,0,P|263:116|304:118,1,83.9999974365235,2|0,0:0|0:0,0:0:0:0:
160,44,156579,5,10,0:0:0:0:
124,120,156694,1,0,3:2:0:0:
84,194,156810,1,0,3:2:0:0:
38,123,156925,1,0,3:2:0:0:
124,120,157041,5,2,3:2:0:0:
161,194,157156,1,0,3:2:0:0:
189,272,157271,1,0,3:2:0:0:
247,211,157387,1,0,3:2:0:0:
161,194,157502,6,0,L|75:207,1,83.9999974365235,10|0,0:0|0:0,0:0:0:0:
112,286,157733,2,0,L|26:299,1,83.9999974365235,2|0,0:0|0:0,0:0:0:0:
259,281,157964,6,0,L|345:294,1,83.9999974365235,2|0,3:2|0:0,0:0:0:0:
306,372,158195,2,0,L|392:385,1,83.9999974365235,2|0,0:0|0:0,0:0:0:0:
484,238,158425,5,10,0:0:0:0:
402,216,158541,1,0,3:2:0:0:
425,296,158656,1,0,3:2:0:0:
484,238,158771,1,0,3:2:0:0:
467,155,158887,5,2,3:2:0:0:
385,136,159002,1,0,3:2:0:0:
441,73,159118,1,0,3:2:0:0:
467,155,159233,1,0,3:2:0:0:
402,216,159348,6,0,P|357:220|310:186,1,83.9999974365235,10|0,0:0|0:0,0:0:0:0:
252,101,159579,2,0,P|289:82|330:87,1,83.9999974365235,2|0,0:0|0:0,0:0:0:0:
208,205,159810,6,0,P|163:209|116:175,1,83.9999974365235,2|0,3:2|0:0,0:0:0:0:
59,88,160041,2,0,P|96:69|137:74,1,83.9999974365235,2|0,0:0|0:0,0:0:0:0:
38,211,160271,5,10,0:0:0:0:
6,289,160387,1,0,3:2:0:0:
73,339,160502,1,0,3:2:0:0:
107,262,160618,1,0,3:2:0:0:
189,245,160733,5,2,3:2:0:0:
220,322,160848,1,0,3:2:0:0:
283,266,160964,1,0,3:2:0:0:
253,187,161079,1,0,3:2:0:0:
173,160,161194,6,0,L|81:175,1,83.9999974365235,10|0,0:0|0:0,0:0:0:0:
228,91,161425,2,0,L|310:104,1,83.9999974365235,2|0,0:0|0:0,0:0:0:0:
198,256,161656,6,0,L|106:271,1,83.9999974365235,2|0,3:2|0:0,0:0:0:0:
253,187,161887,2,0,L|335:200,1,83.9999974365235,2|0,0:0|0:0,0:0:0:0:
435,335,162118,5,10,0:0:0:0:
448,252,162233,1,0,3:2:0:0:
460,169,162348,1,0,3:2:0:0:
473,85,162464,1,0,3:2:0:0:
473,85,162579,6,0,P|384:78|320:71,1,125.999996154785,2|0,3:2|0:0,0:0:0:0:
274,89,162925,1,2,3:2:0:0:
231,30,163041,5,8,0:0:0:0:
231,30,163156,1,0,3:2:0:0:
163,69,163271,5,2,3:2:0:0:
163,69,163387,1,0,3:2:0:0:
107,17,163502,6,0,P|67:69|73:163,1,125.999996154785,2|0,3:2|0:0,0:0:0:0:
121,181,163848,1,0,3:2:0:0:
70,239,163964,2,0,L|-18:223,1,62.9999980773926,10|0,0:0|0:0,0:0:0:0:
123,314,164194,2,0,L|184:302,1,62.9999980773926,2|0,0:0|0:0,0:0:0:0:
307,248,164425,5,2,3:2:0:0:
348,304,164541,1,0,3:2:0:0:
415,320,164656,1,0,3:2:0:0:
473,283,164771,1,2,3:2:0:0:
498,218,164887,6,0,P|501:186|486:159,1,62.9999980773926,8|0,0:0|0:0,0:0:0:0:
398,92,165118,2,0,P|400:123|385:150,1,62.9999980773926,2|0,0:0|0:0,0:0:0:0:
295,198,165348,1,2,3:2:0:0:
295,198,165464,2,0,P|297:166|282:139,1,62.9999980773926,2|0,0:0|0:0,0:0:0:0:
196,82,165694,1,0,3:2:0:0:
196,82,165810,2,0,P|198:113|183:140,1,62.9999980773926,10|0,0:0|0:0,0:0:0:0:
95,195,166041,2,0,P|97:163|82:136,1,62.9999980773926,2|0,0:0|0:0,0:0:0:0:
1,36,166271,6,0,L|142:18,1,125.999996154785,2|0,3:2|0:0,0:0:0:0:
288,8,166618,2,0,L|295:74,1,62.9999980773926,2|8,0:0|0:0,0:0:0:0:
194,100,166848,1,2,3:2:0:0:
194,100,166964,2,0,L|201:166,1,62.9999980773926,2|0,0:0|0:0,0:0:0:0:
300,186,167194,1,2,3:2:0:0:
300,186,167310,2,0,L|307:252,1,62.9999980773926,2|0,0:0|0:0,0:0:0:0:
218,299,167541,1,0,3:2:0:0:
218,299,167656,2,0,P|151:295|99:356,1,125.999996154785,10|2,0:0|0:0,0:0:0:0:
333,343,168118,6,0,P|394:337|442:375,1,125.999996154785,2|0,3:2|0:0,0:0:0:0:
510,290,168464,2,0,L|500:202,1,62.9999980773926,2|8,0:0|0:0,0:0:0:0:
399,183,168694,1,2,3:2:0:0:
399,183,168810,2,0,L|422:52,1,125.999996154785,2|2,0:0|3:2,0:0:0:0:
321,3,169156,2,0,L|257:13,1,62.9999980773926,2|0,0:0|0:0,0:0:0:0:
195,77,169387,1,0,3:2:0:0:
195,77,169502,2,0,P|208:109|205:144,1,62.9999980773926,10|0,0:0|0:0,0:0:0:0:
95,88,169733,2,0,P|94:56|106:28,1,62.9999980773926,2|0,0:0|0:0,0:0:0:0:
123,165,169964,6,0,L|92:320,1,125.999996154785,2|0,3:2|0:0,0:0:0:0:
59,371,170310,2,0,P|27:369|0:355,2,62.9999980773926,2|8|2,0:0|0:0|0:0,0:0:0:0:
172,344,170656,2,0,L|250:332,1,62.9999980773926,2|0,0:0|0:0,0:0:0:0:
326,368,170887,1,2,3:2:0:0:
326,368,171002,2,0,P|342:299|304:226,1,125.999996154785,2|0,0:0|0:0,0:0:0:0:
245,191,171348,2,0,L|233:269,1,62.9999980773926,10|0,0:0|0:0,0:0:0:0:
395,186,171579,2,0,L|404:123,1,62.9999980773926,2|0,0:0|0:0,0:0:0:0:
471,62,171810,6,0,P|417:21|330:25,1,125.999996154785,2|0,3:2|0:0,0:0:0:0:
245,109,172156,2,0,P|188:149|112:140,1,125.999996154785,2|2,0:0|0:0,0:0:0:0:
108,56,172502,2,0,P|157:18|219:16,1,125.999996154785,2|2,0:0|3:2,0:0:0:0:
323,113,172848,2,0,P|380:153|456:144,1,125.999996154785,2|0,0:0|0:0,0:0:0:0:
360,15,173194,2,0,L|283:24,1,62.9999980773926,10|0,0:0|0:0,0:0:0:0:
245,109,173425,2,0,L|322:118,1,62.9999980773926,2|0,0:0|0:0,0:0:0:0:
434,152,173656,6,0,P|505:83|479:-7,2,188.999994232178,2|2|2,3:2|0:0|0:0,0:0:0:0:
333,223,174579,1,2,3:2:0:0:
333,223,174694,2,0,L|308:373,1,125.999996154785,2|0,0:0|0:0,0:0:0:0:
194,322,175041,2,0,L|220:168,1,125.999996154785,10|2,0:0|0:0,0:0:0:0:
175,126,175502,5,2,3:2:0:0:
78,61,175848,1,2,0:0:0:0:
155,22,176079,1,2,0:0:0:0:
155,22,176194,1,2,0:0:0:0:
175,126,176425,5,2,3:2:0:0:
175,126,176541,1,2,0:0:0:0:
78,61,176771,5,2,0:0:0:0:
78,61,176887,1,10,0:0:0:0:
155,22,177118,1,2,0:0:0:0:
220,64,177348,5,2,0:0:0:0:
