osu file format v14

[General]
AudioFilename: audio.mp3
AudioLeadIn: 0
PreviewTime: 132579
Countdown: 0
SampleSet: Soft
StackLeniency: 0.7
Mode: 0
LetterboxInBreaks: 0
WidescreenStoryboard: 1

[Editor]
Bookmarks: 14887,29656,59194,88733,116425,133041,162579,177348
DistanceSpacing: 1
BeatDivisor: 4
GridSize: 16
TimelineZoom: 1.7

[Metadata]
Title:Vesna
TitleUnicode:Vesna
Artist:iskrit
ArtistUnicode:iskrit
Creator:nemidnight
Version:hard
Source:
Tags:русский поп russian pop искрит весна mizujin
BeatmapID:4537404
BeatmapSetID:2153013

[Difficulty]
HPDrainRate:4
CircleSize:4
OverallDifficulty:6
ApproachRate:8
SliderMultiplier:1.8
SliderTickRate:1

[Events]
//Background and Video events
0,0,"imgonline-com-ua-Resize-5QJrHULKo8IYnwUb.jpg",0,0
//Break Periods
2,59394,73214
2,116625,131829
//Storyboard Layer 0 (Background)
//Storyboard Layer 1 (Fail)
//Storyboard Layer 2 (Pass)
//Storyboard Layer 3 (Foreground)
//Storyboard Layer 4 (Overlay)
//Storyboard Sound Samples

[TimingPoints]
118,461.538461538462,4,2,1,90,1,0
14887,-125,4,2,1,70,0,0
29656,-100,4,2,1,90,0,0
42579,-125,4,2,1,90,0,0
43502,-125,4,2,1,60,0,0
44425,-100,4,2,1,90,0,0
57348,-111.111111111111,4,2,1,70,0,0
73964,-125,4,2,1,60,0,0
88733,-100,4,2,1,90,0,0
101656,-125,4,2,1,70,0,0
103502,-100,4,2,1,90,0,0
132579,-100,4,2,1,70,0,0
133041,-95.2380952380952,4,2,1,90,0,1
145964,-125,4,2,1,60,0,0
147810,-95.2380952380952,4,2,1,90,0,1
162579,-100,4,2,1,75,0,0
177348,-100,4,2,1,50,0,0

[Colours]
Combo1 : 0,142,0
Combo2 : 227,74,0
Combo3 : 0,74,0
Combo4 : 151,151,151

[HitObjects]
438,226,14887,6,0,L|425:94,1,108,2|0,0:0|0:0,0:0:0:0:
415,103,15348,2,0,P|388:126|353:133,1,72,10|2,0:0|0:0,0:0:0:0:
294,80,15810,2,0,P|245:72|194:54,1,72,2|2,0:0|0:0,0:0:0:0:
145,78,16271,1,10,0:0:0:0:
70,50,16502,1,2,0:0:0:0:
62,45,16964,6,0,P|67:100|90:191,1,144,2|0,0:0|0:0,0:0:0:0:
140,245,17656,2,0,P|110:272|77:273,1,72,2|2,0:0|0:0,0:0:0:0:
27,333,18118,2,0,P|67:341|89:364,1,72,10|2,0:0|0:0,0:0:0:0:
165,377,18579,6,0,P|187:317|198:270,1,108,2|2,0:0|0:0,0:0:0:0:
204,257,19041,2,0,P|253:264|284:262,1,72,10|2,0:0|0:0,0:0:0:0:
335,314,19502,2,0,P|331:354|310:380,2,72,2|2|10,0:0|0:0|0:0,0:0:0:0:
354,237,20194,1,2,0:0:0:0:
363,229,20656,6,0,L|339:83,2,144,2|0|0,0:0|0:0|0:0,0:0:0:0:
295,270,21810,2,0,P|252:267|220:245,1,72,10|0,0:0|0:0,0:0:0:0:
179,189,22271,6,0,P|134:213|73:221,1,108,2|0,0:0|0:0,0:0:0:0:
64,227,22733,2,0,P|54:167|48:138,1,72,10|2,0:0|0:0,0:0:0:0:
114,107,23194,2,0,P|124:47|130:18,1,72,2|2,0:0|0:0,0:0:0:0:
200,6,23656,2,0,P|250:21|341:25,1,144,10|2,0:0|0:0,0:0:0:0:
352,21,24579,6,0,P|346:71|339:101,1,72,10|2,0:0|0:0,0:0:0:0:
409,133,25041,2,0,P|415:183|422:213,1,72,2|2,0:0|0:0,0:0:0:0:
374,269,25502,2,0,P|331:294|272:278,1,108,10|0,0:0|0:0,0:0:0:0:
267,273,25964,6,0,P|283:180|290:118,2,144,2|8|0,0:0|0:0|0:0,0:0:0:0:
152,216,27348,2,0,L|67:229,1,72,8|0,0:0|0:0,0:0:0:0:
29,288,27810,5,2,0:0:0:0:
410,338,29656,6,0,P|433:286|435:208,1,135,2|0,3:2|0:0,0:0:0:0:
436,192,30118,1,10,0:0:0:0:
350,219,30348,1,2,0:0:0:0:
293,148,30579,2,0,L|309:55,1,90,2|2,3:2|0:0,0:0:0:0:
325,47,30925,1,0,0:0:0:0:
325,47,31041,1,10,0:0:0:0:
243,10,31271,6,0,P|207:48|85:53,1,180,2|2,0:0|0:0,0:0:0:0:
0,20,31964,2,0,P|13:78|20:119,1,90,8|0,0:0|0:0,0:0:0:0:
11,197,32425,1,2,3:2:0:0:
98,175,32656,1,2,0:0:0:0:
165,249,32887,1,10,0:0:0:0:
165,249,33002,1,0,0:0:0:0:
165,249,33118,1,2,0:0:0:0:
190,334,33348,6,0,P|258:357|335:368,1,135,2|0,3:2|0:0,0:0:0:0:
334,357,33810,2,0,P|322:303|318:263,1,90,10|2,0:0|0:0,0:0:0:0:
396,223,34271,1,2,3:2:0:0:
427,138,34502,1,2,0:0:0:0:
349,91,34733,2,0,P|304:103|260:104,1,90,10|0,0:0|0:0,0:0:0:0:
204,174,35194,6,0,P|258:180|296:250,2,135,2|0|0,3:2|0:0|0:0,0:0:0:0:
137,112,36118,1,0,3:2:0:0:
137,112,36233,2,0,L|151:19,1,90,8|0,0:0|0:0,0:0:0:0:
166,18,36579,2,0,P|214:26|258:31,1,90,10|0,0:0|0:0,0:0:0:0:
328,83,37041,6,0,P|370:44|445:43,1,135,2|0,3:2|0:0,0:0:0:0:
457,55,37502,1,10,0:0:0:0:
512,138,37733,1,2,0:0:0:0:
512,138,37848,1,0,0:0:0:0:
512,138,37964,2,0,L|500:229,1,90,2|2,3:2|0:0,0:0:0:0:
417,264,38425,1,10,0:0:0:0:
453,346,38656,1,0,0:0:0:0:
368,377,38887,6,0,P|311:371|232:339,1,135,2|0,3:2|0:0,0:0:0:0:
233,325,39348,1,10,0:0:0:0:
154,358,39579,1,2,0:0:0:0:
154,358,39694,1,0,0:0:0:0:
154,358,39810,2,0,P|110:360|77:327,1,90,2|2,3:2|0:0,0:0:0:0:
16,264,40271,2,0,P|59:256|85:217,1,90,10|0,0:0|0:0,0:0:0:0:
92,207,40618,5,8,0:0:0:0:
92,207,40733,1,2,3:2:0:0:
149,137,40964,1,0,0:0:0:0:
220,190,41194,1,8,0:0:0:0:
164,260,41425,1,0,0:0:0:0:
248,314,41656,5,0,3:2:0:0:
248,314,41771,1,0,0:0:0:0:
248,314,41887,2,0,L|343:331,1,90,0|8,0:0|0:0,0:0:0:0:
420,298,42348,1,0,0:0:0:0:
461,218,42579,6,0,L|444:87,2,108,2|2|2,0:0|0:0|0:0,0:0:0:0:
512,278,43502,2,0,L|503:319,7,36,10|8|10|8|10|8|10|8,0:0|0:0|0:0|0:0|0:0|0:0|0:0|0:0,0:0:0:0:
493,333,44425,6,0,P|439:360|376:352,1,90,6|0,3:2|0:0,0:0:0:0:
325,328,44887,2,0,L|318:232,1,90,10|2,0:0|0:0,0:0:0:0:
329,221,45233,1,0,0:0:0:0:
329,221,45348,1,2,3:2:0:0:
386,151,45579,1,2,0:0:0:0:
317,92,45810,1,10,0:0:0:0:
247,149,46041,2,0,P|179:143|96:130,1,135,2|0,0:0|0:0,0:0:0:0:
96,148,46502,5,2,0:0:0:0:
96,148,46618,2,0,P|77:202|136:270,1,135
191,313,47194,1,2,3:2:0:0:
210,225,47425,1,2,0:0:0:0:
230,137,47656,1,10,0:0:0:0:
230,137,47771,1,0,0:0:0:0:
230,137,47887,1,2,0:0:0:0:
238,47,48118,6,0,P|283:21|387:27,1,135,2|0,3:2|0:0,0:0:0:0:
383,14,48579,2,0,P|442:55|458:142,1,135,10|8,0:0|0:0,0:0:0:0:
475,131,49041,2,0,P|476:197|402:254,1,135,2|0,3:2|0:0,0:0:0:0:
416,270,49502,2,0,P|355:276|283:233,1,135,10|0,0:0|0:0,0:0:0:0:
269,237,49964,6,0,L|285:146,1,90,2|0,3:2|0:0,0:0:0:0:
330,71,50425,2,0,L|236:57,1,90,10|0,0:0|0:0,0:0:0:0:
225,69,50771,1,0,0:0:0:0:
225,69,50887,1,2,3:2:0:0:
152,15,51118,1,2,0:0:0:0:
62,23,51348,1,10,0:0:0:0:
9,96,51579,1,2,0:0:0:0:
58,171,51810,6,0,L|43:268,1,90,2|0,3:2|0:0,0:0:0:0:
91,336,52271,1,10,0:0:0:0:
178,302,52502,1,2,0:0:0:0:
178,302,52618,1,0,0:0:0:0:
178,302,52733,2,0,P|224:312|275:317,1,90,2|2,3:2|0:0,0:0:0:0:
344,361,53194,2,0,P|391:348|435:343,1,90,10|0,0:0|0:0,0:0:0:0:
450,333,53541,5,8,0:0:0:0:
450,333,53656,2,0,P|459:285|436:246,1,90,2|0,3:2|0:0,0:0:0:0:
419,241,54002,2,0,P|440:179|452:94,1,135
400,36,54579,5,2,3:2:0:0:
328,90,54810,1,2,0:0:0:0:
328,90,54925,1,0,0:0:0:0:
328,90,55041,1,10,0:0:0:0:
266,24,55271,1,2,0:0:0:0:
204,90,55502,6,0,P|209:145|218:194,1,90,2|0,3:2|0:0,0:0:0:0:
237,193,55848,1,0,0:0:0:0:
237,193,55964,1,10,0:0:0:0:
284,269,56194,1,2,0:0:0:0:
215,326,56425,2,0,P|169:316|120:311,1,90,2|2,3:2|0:0,0:0:0:0:
35,313,56887,2,0,P|48:257|51:218,1,90,10|2,0:0|0:0,0:0:0:0:
127,177,57348,6,0,P|111:117|47:94,2,121.499996292114,2|2|2,0:0|0:0|0:0,0:0:0:0:
187,282,58387,1,2,0:0:0:0:
300,238,58733,2,0,P|343:247|399:253,1,80.9999975280763,2|2,0:0|0:0,0:0:0:0:
448,209,59194,1,2,0:0:0:0:
478,141,73964,6,0,P|508:70|494:-18,2,144,2|8|2,0:0|0:0|0:0,0:0:0:0:
334,150,75348,2,0,P|285:140|243:127,1,72,8|0,0:0|0:0,0:0:0:0:
217,78,75810,2,0,P|182:57|74:79,1,144,2|8,0:0|0:0,0:0:0:0:
50,136,76502,1,0,0:0:0:0:
50,136,76733,2,0,P|58:202|61:282,1,144,2|8,0:0|0:0,0:0:0:0:
172,370,77656,6,0,P|189:298|196:75,2,288,2|2|2,0:0|0:0|0:0,0:0:0:0:
313,344,79964,2,0,P|380:341|431:325,1,108,8|0,0:0|0:0,0:0:0:0:
431,321,80425,2,0,P|437:270|433:235,1,72,2|0,0:0|0:0,0:0:0:0:
386,196,80887,1,8,0:0:0:0:
492,99,81348,6,0,P|434:84|350:58,1,144,2|8,0:0|0:0,0:0:0:0:
294,17,82041,1,0,0:0:0:0:
294,17,82271,1,2,0:0:0:0:
193,119,82733,2,0,P|140:105|118:25,2,144,8|2|8,0:0|0:0|0:0,0:0:0:0:
335,139,84118,2,0,P|342:196|349:231,1,72,2|0,0:0|0:0,0:0:0:0:
381,272,84579,2,0,P|350:313|251:319,1,144,8|2,0:0|0:0,0:0:0:0:
120,344,85502,6,0,P|134:277|148:187,2,144,8|2|8,0:0|0:0|0:0,0:0:0:0:
244,271,86887,6,0,P|295:282|381:286,2,108,2|0|0,0:0|0:0|0:0,0:0:0:0:
192,220,87810,2,0,P|139:231|85:235,2,108,2|0|0,0:0|0:0|0:0,0:0:0:0:
253,154,88733,6,0,P|304:162|344:161,1,90,2|0,3:2|0:0,0:0:0:0:
362,151,89079,1,0,0:0:0:0:
362,151,89194,1,10,0:0:0:0:
340,63,89425,1,2,0:0:0:0:
252,40,89656,2,0,P|205:46|153:49,1,90,2|2,3:2|0:0,0:0:0:0:
80,10,90118,1,10,0:0:0:0:
19,75,90348,5,0,0:0:0:0:
19,75,90464,1,0,0:0:0:0:
19,75,90579,2,0,P|22:121|31:183,1,90,2|0,3:2|0:0,0:0:0:0:
48,170,90925,2,0,P|61:230|65:272,1,90
52,274,91271,1,0,0:0:0:0:
117,335,91502,5,2,3:2:0:0:
147,250,91733,1,2,0:0:0:0:
209,315,91964,2,0,P|259:324|303:328,1,90,10|2,0:0|0:0,0:0:0:0:
377,370,92425,6,0,P|387:301|389:221,1,135,2|0,3:2|0:0,0:0:0:0:
378,226,92887,1,10,0:0:0:0:
426,149,93118,1,2,0:0:0:0:
363,84,93348,2,0,P|306:80|272:72,1,90,2|2,3:2|0:0,0:0:0:0:
265,56,93694,1,0,0:0:0:0:
265,56,93810,1,10,0:0:0:0:
208,126,94041,6,0,P|225:222|235:260,1,135,2|0,0:0|0:0,0:0:0:0:
253,268,94502,1,2,0:0:0:0:
213,348,94733,1,8,0:0:0:0:
124,331,94964,1,0,0:0:0:0:
124,331,95194,2,0,P|75:325|34:311,1,90,0|0,3:2|0:0,0:0:0:0:
13,224,95656,1,10,0:0:0:0:
13,224,95771,1,0,0:0:0:0:
13,224,95887,1,0,0:0:0:0:
85,171,96118,6,0,P|78:116|75:56,1,90,2|0,3:2|0:0,0:0:0:0:
89,62,96464,1,0,0:0:0:0:
89,62,96579,1,10,0:0:0:0:
178,52,96810,1,2,0:0:0:0:
267,43,97041,6,0,P|272:108|278:143,1,90,2|2,3:2|0:0,0:0:0:0:
285,152,97387,1,0,0:0:0:0:
285,152,97502,1,10,0:0:0:0:
374,143,97733,1,0,0:0:0:0:
463,138,97964,6,0,P|457:82|451:46,1,90,2|0,3:2|0:0,0:0:0:0:
442,36,98310,1,0,0:0:0:0:
442,36,98425,2,0,P|367:29|333:20,1,90,10|2,0:0|0:0,0:0:0:0:
330,14,98771,1,0,0:0:0:0:
330,14,98887,2,0,P|322:65|311:109,1,90,2|2,3:2|0:0,0:0:0:0:
329,190,99348,1,10,0:0:0:0:
252,237,99579,1,0,0:0:0:0:
304,309,99810,6,0,P|326:313|348:314,1,45,2|0,3:2|0:0,0:0:0:0:
370,329,100041,2,0,P|411:324|435:313,1,45
445,331,100271,2,0,P|453:279|457:234,1,90,8|0,0:0|0:0,0:0:0:0:
506,166,100733,5,0,3:2:0:0:
462,86,100964,1,0,0:0:0:0:
378,117,101194,1,8,0:0:0:0:
364,115,101310,1,0,0:0:0:0:
350,114,101425,1,0,0:0:0:0:
336,112,101541,1,0,0:0:0:0:
325,110,101656,6,0,P|332:58|364:-10,2,108,2|2|2,0:0|0:0|0:0,0:0:0:0:
2,51,103502,6,0,P|57:65|134:71,1,135,6|0,3:2|0:0,0:0:0:0:
150,60,103964,1,10,0:0:0:0:
225,108,104194,1,2,0:0:0:0:
157,167,104425,2,0,P|162:222|170:262,1,90,2|0,3:2|0:0,0:0:0:0:
182,273,104771,1,2,0:0:0:0:
182,273,104887,1,10,0:0:0:0:
179,363,105118,6,0,P|233:359|277:353,1,90,2|0,0:0|3:2,0:0:0:0:
336,295,105579,2,0,P|388:308|438:314,1,90,2|8,0:0|0:0,0:0:0:0:
443,303,105925,1,0,0:0:0:0:
443,303,106041,1,0,0:0:0:0:
412,218,106271,1,2,3:2:0:0:
485,164,106502,1,2,0:0:0:0:
485,164,106618,1,0,0:0:0:0:
485,164,106733,2,0,P|482:101|477:60,1,90,10|2,0:0|0:0,0:0:0:0:
401,28,107194,5,2,3:2:0:0:
311,37,107425,1,2,0:0:0:0:
324,126,107656,1,10,0:0:0:0:
234,134,107887,1,2,0:0:0:0:
227,44,108118,2,0,P|179:47|133:44,1,90,2|2,3:2|0:0,0:0:0:0:
130,27,108464,1,0,0:0:0:0:
130,27,108579,2,0,P|83:19|30:16,1,90,10|0,0:0|0:0,0:0:0:0:
9,100,109041,6,0,P|19:152|33:191,1,90,2|0,3:2|0:0,0:0:0:0:
49,199,109387,2,0,P|108:195|150:183,1,90
149,172,109733,1,0,0:0:0:0:
231,131,109964,1,0,3:2:0:0:
231,131,110079,2,0,P|239:193|247:225,1,90,8|0,0:0|0:0,0:0:0:0:
262,231,110425,2,0,P|262:289|256:325,1,90,10|0,0:0|0:0,0:0:0:0:
330,373,110887,6,0,P|397:368|466:311,1,135,2|0,3:2|0:0,0:0:0:0:
448,314,111348,1,10,0:0:0:0:
493,236,111579,1,2,0:0:0:0:
493,236,111694,1,0,0:0:0:0:
493,236,111810,1,2,3:2:0:0:
418,185,112041,1,2,0:0:0:0:
482,122,112271,2,0,P|469:70|466:24,1,90,10|0,0:0|0:0,0:0:0:0:
381,2,112733,6,0,P|325:20|239:24,1,135,2|0,3:2|0:0,0:0:0:0:
235,15,113194,1,10,0:0:0:0:
164,70,113425,1,2,0:0:0:0:
164,70,113541,1,0,0:0:0:0:
164,70,113656,1,2,3:2:0:0:
220,139,113887,1,2,0:0:0:0:
161,207,114118,2,0,P|168:260|177:301,1,90,10|0,0:0|0:0,0:0:0:0:
101,346,114579,5,2,3:2:0:0:
87,343,114694,1,0,0:0:0:0:
73,341,114810,1,0,0:0:0:0:
59,338,114925,1,0,0:0:0:0:
45,335,115041,2,0,P|37:268|40:212,1,90,8|0,0:0|0:0,0:0:0:0:
92,174,115502,5,0,3:2:0:0:
48,95,115733,1,0,0:0:0:0:
114,33,115964,2,0,P|140:39|162:40,1,45,8|0,0:0|0:0,0:0:0:0:
188,72,116194,2,0,P|212:71|236:65,1,45
249,45,116425,5,2,0:0:0:0:
512,62,132579,5,10,0:0:0:0:
512,62,133041,6,0,P|432:55|368:33,1,141.749995674133,6|0,3:2|0:0,0:0:0:0:
362,24,133502,1,10,0:0:0:0:
288,83,133733,1,2,0:0:0:0:
228,17,133964,1,2,3:2:0:0:
228,17,134079,1,0,0:0:0:0:
228,17,134194,1,2,0:0:0:0:
166,89,134425,2,0,P|169:145|169:186,1,94.499997116089,10|0,0:0|0:0,0:0:0:0:
189,197,134771,5,0,0:0:0:0:
189,197,134887,2,0,P|176:252|155:290,1,94.499997116089,2|0,3:2|0:0,0:0:0:0:
192,373,135348,1,10,0:0:0:0:
282,335,135579,1,2,0:0:0:0:
282,335,135694,1,0,0:0:0:0:
282,335,135810,2,0,P|344:351|382:353,1,94.499997116089,2|2,3:2|0:0,0:0:0:0:
464,323,136271,2,0,P|452:274|446:219,1,94.499997116089,10|0,0:0|0:0,0:0:0:0:
380,161,136733,5,2,3:2:0:0:
381,147,136848,1,0,0:0:0:0:
383,132,136964,1,0,0:0:0:0:
385,118,137079,1,0,0:0:0:0:
388,104,137194,2,0,P|335:99|290:86,1,94.499997116089,8|0,0:0|0:0,0:0:0:0:
225,23,137656,5,0,3:2:0:0:
213,116,137887,1,0,0:0:0:0:
217,210,138118,2,0,P|222:241|223:266,1,47.2499985580445,8|0,0:0|0:0,0:0:0:0:
240,275,138348,2,0,P|233:319|225:338,1,47.2499985580445
204,343,138579,6,0,P|146:334|110:323,1,94.499997116089,0|0,3:2|0:0,0:0:0:0:
95,332,138925,1,0,0:0:0:0:
24,268,139156,1,0,0:0:0:0:
24,268,139271,2,0,P|38:213|41:172,1,94.499997116089,0|0,0:0|3:2,0:0:0:0:
58,166,139618,2,0,P|61:114|52:56,1,94.499997116089,8|0,0:0|0:0,0:0:0:0:
43,60,139964,1,8,0:0:0:0:
122,9,140194,1,2,0:0:0:0:
189,74,140425,6,0,P|241:73|286:61,1,94.499997116089,2|0,3:2|0:0,0:0:0:0:
290,45,140771,1,0,0:0:0:0:
290,45,140887,1,10,0:0:0:0:
373,89,141118,1,2,0:0:0:0:
463,63,141348,2,0,P|468:118|477:161,1,94.499997116089,2|2,3:2|0:0,0:0:0:0:
467,176,141694,5,0,0:0:0:0:
467,176,141810,2,0,P|411:190|318:195,1,141.749995674133,10|0,0:0|0:0,0:0:0:0:
312,178,142271,1,0,3:2:0:0:
227,219,142502,1,0,0:0:0:0:
227,219,142618,1,0,0:0:0:0:
227,219,142733,2,0,P|231:282|238:320,1,94.499997116089,8|0,0:0|0:0,0:0:0:0:
158,366,143194,5,2,3:2:0:0:
91,298,143425,1,2,0:0:0:0:
169,244,143656,1,10,0:0:0:0:
236,312,143887,1,0,0:0:0:0:
240,316,144118,2,0,P|278:325|337:331,1,94.499997116089,0|0,3:2|0:0,0:0:0:0:
350,348,144464,5,0,0:0:0:0:
350,348,144579,2,0,P|381:305|388:190,1,141.749995674133,10|0,0:0|0:0,0:0:0:0:
375,208,145041,1,0,3:2:0:0:
463,175,145271,1,0,0:0:0:0:
491,84,145502,5,8,0:0:0:0:
488,70,145618,1,0,0:0:0:0:
485,56,145733,1,0,0:0:0:0:
481,42,145848,1,0,0:0:0:0:
479,31,145964,1,2,0:0:0:0:
500,361,147810,6,0,P|437:348|349:311,1,141.749995674133,6|0,3:2|0:0,0:0:0:0:
358,300,148271,1,10,0:0:0:0:
274,344,148502,1,2,0:0:0:0:
185,311,148733,2,0,P|131:321|82:324,1,94.499997116089,2|2,3:2|0:0,0:0:0:0:
68,336,149079,1,0,0:0:0:0:
68,336,149194,2,0,P|61:276|64:221,1,94.499997116089,10|0,0:0|0:0,0:0:0:0:
23,155,149656,5,2,3:2:0:0:
27,141,149771,1,0,0:0:0:0:
31,127,149887,1,0,0:0:0:0:
35,113,150002,1,0,0:0:0:0:
38,99,150118,6,0,P|89:106|134:106,1,94.499997116089,10|2,0:0|0:0,0:0:0:0:
214,152,150579,2,0,P|222:101|223:54,1,94.499997116089,2|2,3:2|0:0,0:0:0:0:
222,46,150925,1,0,0:0:0:0:
222,46,151041,1,10,0:0:0:0:
310,14,151271,1,0,0:0:0:0:
386,69,151502,6,0,P|379:127|369:167,1,94.499997116089,2|0,3:2|0:0,0:0:0:0:
356,179,151848,1,0,0:0:0:0:
356,179,151964,1,10,0:0:0:0:
438,225,152194,1,2,0:0:0:0:
391,307,152425,1,2,3:2:0:0:
306,263,152656,1,2,0:0:0:0:
254,342,152887,2,0,P|201:331|160:315,1,94.499997116089,10|0,0:0|0:0,0:0:0:0:
157,306,153233,5,0,0:0:0:0:
157,306,153348,2,0,P|164:248|171:204,1,94.499997116089,2|0,3:2|0:0,0:0:0:0:
246,155,153810,2,0,P|239:107|240:79,1,47.2499985580445,10|0,0:0|0:0,0:0:0:0:
255,92,154041,2,0,P|249:50|241:29,1,47.2499985580445,2|0,0:0|0:0,0:0:0:0:
225,26,154271,2,0,P|167:20|125:10,1,94.499997116089,2|2,3:2|0:0,0:0:0:0:
36,12,154733,1,10,0:0:0:0:
14,104,154964,5,0,0:0:0:0:
14,104,155079,1,0,0:0:0:0:
14,104,155194,2,0,P|21:168|33:259,1,141.749995674133,2|0,3:2|0:0,0:0:0:0:
21,259,155656,1,10,0:0:0:0:
86,327,155887,1,2,0:0:0:0:
172,288,156118,2,0,P|222:303|272:314,1,94.499997116089,2|2,3:2|0:0,0:0:0:0:
281,327,156464,1,0,0:0:0:0:
281,327,156579,2,0,P|291:269|290:222,1,94.499997116089,10|0,0:0|0:0,0:0:0:0:
233,157,157041,5,2,3:2:0:0:
229,143,157156,1,0,0:0:0:0:
225,129,157272,1,0,0:0:0:0:
221,115,157387,1,0,0:0:0:0:
218,105,157503,6,0,P|265:104|311:97,1,94.499997116089,10|2,0:0|0:0,0:0:0:0:
390,44,157964,2,0,P|399:96|420:144,1,94.499997116089,2|2,3:2|0:0,0:0:0:0:
433,144,158310,1,0,0:0:0:0:
433,144,158425,1,10,0:0:0:0:
499,210,158656,1,0,0:0:0:0:
473,300,158887,2,0,P|416:292|381:277,1,94.499997116089,2|0,3:2|0:0,0:0:0:0:
376,264,159233,5,0,0:0:0:0:
376,264,159348,1,10,0:0:0:0:
312,334,159579,1,2,0:0:0:0:
228,289,159810,1,2,3:2:0:0:
284,213,160041,1,2,0:0:0:0:
203,163,160271,2,0,P|152:171|104:174,1,94.499997116089,10|0,0:0|0:0,0:0:0:0:
91,165,160618,5,0,0:0:0:0:
91,165,160733,2,0,P|83:218|63:263,1,94.499997116089,2|0,3:2|0:0,0:0:0:0:
37,345,161194,2,0,P|80:364|98:367,1,47.2499985580445,10|0,0:0|0:0,0:0:0:0:
108,356,161425,2,0,P|146:347|159:339,1,47.2499985580445,2|0,0:0|0:0,0:0:0:0:
172,323,161656,2,0,P|223:345|271:352,1,94.499997116089,2|2,3:2|0:0,0:0:0:0:
351,381,162118,1,10,0:0:0:0:
415,312,162348,5,0,0:0:0:0:
415,312,162464,1,0,0:0:0:0:
415,312,162579,2,0,P|424:245|420:188,1,90,2|0,3:2|0:0,0:0:0:0:
439,208,162925,2,0,P|442:154|438:112,1,90,2|0,0:0|0:0,0:0:0:0:
452,101,163271,2,0,P|432:56|317:25,1,135,2|2,0:0|0:0,0:0:0:0:
290,76,163848,1,0,0:0:0:0:
290,76,163964,2,0,P|245:92|199:99,1,90,10|2,0:0|0:0,0:0:0:0:
127,50,164425,6,0,P|109:112|90:158,1,90,2|0,3:2|0:0,0:0:0:0:
83,146,164771,1,2,0:0:0:0:
21,211,165002,1,0,0:0:0:0:
21,211,165118,2,0,P|22:243|27:260,1,45,2|0,0:0|0:0,0:0:0:0:
110,286,165464,2,0,P|107:314|100:340,1,45,2|0,0:0|0:0,0:0:0:0:
93,354,165694,1,0,0:0:0:0:
93,354,165810,2,0,P|148:345|200:329,1,90,10|2,0:0|0:0,0:0:0:0:
265,366,166271,6,0,P|274:313|272:272,1,90,2|0,3:2|0:0,0:0:0:0:
289,260,166618,2,0,P|285:212|270:174,1,90,2|0,0:0|0:0,0:0:0:0:
245,172,166964,2,0,P|248:106|276:14,1,135,2|2,0:0|0:0,0:0:0:0:
286,29,167425,1,0,0:0:0:0:
374,10,167656,1,10,0:0:0:0:
395,97,167887,1,2,0:0:0:0:
483,79,168118,6,0,P|496:143|510:217,1,135,2|2,3:2|0:0,0:0:0:0:
460,287,168694,1,0,0:0:0:0:
460,287,168810,2,0,P|413:298|354:303,1,90,2|0,0:0|3:2,0:0:0:0:
356,291,169156,1,2,0:0:0:0:
277,336,169387,1,0,0:0:0:0:
277,336,169502,1,10,0:0:0:0:
201,287,169733,1,2,0:0:0:0:
134,348,169964,6,0,P|87:321|65:241,1,135,2|2,3:2|0:0,0:0:0:0:
139,134,170656,2,0,P|128:82|127:26,1,90,2|0,0:0|3:2,0:0:0:0:
115,27,171002,2,0,P|165:31|204:24,1,90,2|0,0:0|0:0,0:0:0:0:
227,34,171348,1,10,0:0:0:0:
280,106,171579,1,2,0:0:0:0:
232,182,171810,5,2,3:2:0:0:
278,308,172156,1,2,0:0:0:0:
366,281,172386,1,0,0:0:0:0:
366,281,172502,2,0,P|424:272|463:256,1,90,2|0,0:0|3:2,0:0:0:0:
465,241,172848,1,2,0:0:0:0:
427,164,173079,1,0,0:0:0:0:
427,164,173194,2,0,P|433:108|432:66,1,90,10|2,0:0|0:0,0:0:0:0:
346,46,173656,6,0,P|341:96|320:195,2,135,2|2|2,3:2|0:0|0:0,0:0:0:0:
266,3,174579,1,0,3:2:0:0:
266,3,174694,2,0,P|223:21|159:25,1,90,2|0,0:0|0:0,0:0:0:0:
163,12,175041,2,0,P|118:12|64:26,1,90,10|2,0:0|0:0,0:0:0:0:
21,95,175502,6,0,P|34:151|54:243,1,135,2|2,3:2|0:0,0:0:0:0:
152,314,176194,2,0,P|206:300|285:269,1,135,2|2,0:0|0:0,0:0:0:0:
360,232,176771,1,0,0:0:0:0:
360,232,176887,2,0,P|365:283|376:322,1,90,10|2,0:0|0:0,0:0:0:0:
457,357,177348,5,2,0:0:0:0:
