osu file format v14

[General]
AudioFilename: audio.mp3
AudioLeadIn: 0
PreviewTime: 76539
Countdown: 0
SampleSet: Soft
StackLeniency: 0.4
Mode: 0
LetterboxInBreaks: 0
WidescreenStoryboard: 0

[Editor]
Bookmarks: 27454,52228,64615,77002,101777,107970,120357,145131,169906,200873,227196,251970,258164,282938
DistanceSpacing: 0.4
BeatDivisor: 4
GridSize: 32
TimelineZoom: 1.5

[Metadata]
Title:Kaki Tsuzuketa Kimi e
TitleUnicode:描き続けた君へ
Artist:Isekaijoucho
ArtistUnicode:ヰ世界情緒
Creator:Cami
Version:kodou
Source:
Tags:To You, Who Kept on Drawing tsudzuketa he isekai joucho 香椎モイミ kashii moimi KAMITSUBAKI PHENOMENON RECORD Colors 色彩 shikisai japanese pop jpop j-pop
BeatmapID:4551067
BeatmapSetID:2158685

[Difficulty]
HPDrainRate:5
CircleSize:4
OverallDifficulty:8
ApproachRate:8.3
SliderMultiplier:1.55
SliderTickRate:1

[Events]
//Background and Video events
0,0,"bg.jpg",0,0
//Break Periods
//Storyboard Layer 0 (Background)
//Storyboard Layer 1 (Fail)
//Storyboard Layer 2 (Pass)
//Storyboard Layer 3 (Foreground)
//Storyboard Layer 4 (Overlay)
//Storyboard Sound Samples

[TimingPoints]
1152,387.096774193548,4,2,1,50,1,0
12958,-200,4,2,1,50,0,0
13539,-83.3333333333333,4,2,1,60,0,0
14313,-100,4,2,1,60,0,0
16635,-83.3333333333333,4,2,1,60,0,0
17409,-100,4,2,1,60,0,0
22829,-100,4,2,1,70,0,0
25926,-62.5,4,2,1,60,0,0
26700,-62.5,4,2,1,5,0,0
27281,-62.5,4,2,1,50,0,0
27474,-133.333333333333,4,2,1,50,0,0
33668,-111.111111111111,4,2,1,50,0,0
39861,-133.333333333333,4,2,1,50,0,0
46055,-111.111111111111,4,2,1,50,0,0
52442,-166.666666666666,4,2,1,50,0,0
63087,-142.857142857142,4,2,1,50,0,0
64635,-133.333333333333,4,2,1,60,0,0
69281,-133.333333333333,4,2,1,60,0,0
70829,-111.111111111111,4,2,1,60,0,0
76248,-83.3333333333333,4,2,1,60,0,0
77022,-83.3333333333333,4,2,1,75,0,0
88442,-76.9230769230769,4,2,1,75,0,0
89410,-83.3333333333333,4,2,1,75,0,0
103345,-90.9090909090909,4,2,1,75,0,0
107216,-133.333333333333,4,2,1,75,0,0
107990,-133.333333333333,4,2,1,50,0,0
111861,-153.846153846153,4,2,1,50,0,0
120377,-106.382978723404,4,2,1,60,0,0
157539,-98.0392156862745,4,2,1,60,0,0
169151,-76.9230769230769,4,2,1,60,0,0
169926,-83.3333333333333,4,2,1,75,0,0
230313,-83.3333333333333,4,2,1,82,0,0
251603,-133.333333333333,4,2,1,70,0,0
258184,-90.9090909090909,4,2,1,80,0,0
282958,-142.857142857143,4,2,1,82,0,0

[Colours]
Combo1 : 221,200,164
Combo2 : 197,197,197
Combo3 : 164,166,165
Combo4 : 227,140,140
Combo5 : 241,65,65
Combo6 : 174,215,244
Combo7 : 221,199,222
Combo8 : 148,173,226

[HitObjects]
64,288,12958,6,0,L|19:297,2,38.75
139,317,13539,2,0,B|267:281|214:361|322:371,1,185.999994323731,4|8,3:1|0:0,0:0:0:0:
377,337,14119,1,2,0:0:0:0:
286,262,14313,2,0,B|263:300|267:352,1,77.5,8|0,3:2|0:0,0:0:0:0:
435,285,14700,2,0,B|413:246|366:223,1,77.5,8|0,3:2|0:0,0:0:0:0:
228,210,15087,5,10,3:2:0:0:
217,219,15474,1,8,3:2:0:0:
316,175,15668,1,2,0:0:0:0:
259,95,15861,1,8,3:2:0:0:
160,139,16055,101,2,0:2:0:0:
150,281,16248,1,8,3:2:0:0:
22,249,16442,1,2,0:0:0:0:
17,244,16539,1,2,0:0:0:0:
13,239,16635,2,0,B|-2:145|29:38,1,185.999994323731,4|8,3:2|3:2,0:0:0:0:
92,99,17216,1,2,0:0:0:0:
206,41,17410,2,0,B|234:68|241:121,2,77.5,8|0|8,3:2|0:0|3:2,0:0:0:0:
130,26,17990,5,2,0:0:0:0:
185,168,18184,1,8,3:2:0:0:
185,168,18377,1,0,0:0:0:0:
318,104,18571,1,8,3:2:0:0:
383,148,18764,2,0,B|407:117|401:65,1,77.5,2|8,0:0|3:2,0:0:0:0:
341,7,19151,1,2,0:0:0:0:
341,7,19345,2,0,B|317:38|323:90,1,77.5,8|0,3:2|0:2,0:0:0:0:
221,120,19732,101,4,3:2:0:0:
137,73,19926,1,2,0:0:0:0:
140,168,20119,1,2,0:0:0:0:
140,168,20216,1,2,0:0:0:0:
140,168,20313,1,4,3:2:0:0:
246,96,20506,1,2,0:0:0:0:
131,41,20700,1,2,0:2:0:0:
256,192,20893,5,4,3:2:0:0:
256,192,21087,1,2,0:0:0:0:
375,311,21281,101,4,3:2:0:0:
373,214,21475,1,2,0:0:0:0:
292,264,21668,1,2,0:0:0:0:
292,264,21765,1,2,0:0:0:0:
292,264,21862,1,4,3:2:0:0:
408,320,22055,1,2,0:0:0:0:
398,193,22249,1,2,0:2:0:0:
271,367,22442,6,0,B|309:367|372:385,1,77.5,4|0,3:2|0:0,0:0:0:0:
208,317,22829,101,6,3:2:0:0:
16,377,23022,1,2,0:0:0:0:
116,382,23216,5,8,3:2:0:0:
125,369,23313,1,8,0:0:0:0:
133,356,23410,2,0,L|125:297,1,38.75,8|8,0:0|0:0,0:0:0:0:
30,231,23603,101,8,3:2:0:0:
21,244,23700,1,8,0:0:0:0:
13,257,23797,2,0,L|21:316,1,38.75,8|8,0:0|0:0,0:0:0:0:
151,197,23990,5,10,3:2:0:0:
144,159,24087,1,8,0:0:0:0:
136,121,24184,1,8,0:0:0:0:
128,83,24281,1,8,0:0:0:0:
121,45,24377,1,6,3:2:0:0:
57,155,24571,1,10,0:0:0:0:
159,225,24764,1,8,0:0:0:0:
238,129,24958,102,0,L|256:47,1,77.5,6|8,3:2|0:0,0:0:0:0:
316,8,25248,1,8,0:0:0:0:
323,0,25345,2,0,L|331:37,1,38.75,8|8,0:2|0:0,0:0:0:0:
512,205,25539,5,8,3:2:0:0:
469,184,25635,1,8,0:2:0:0:
423,197,25732,1,8,0:2:0:0:
398,237,25829,1,8,0:2:0:0:
405,284,25926,2,2,B|431:308|429:343|429:343|453:273|408:230|408:230|345:217|338:145|353:102|384:58|443:62|484:114|459:175|384:186,1,496,6|0,3:2|0:0,1:2:0:0:
351,341,27281,101,0,3:0:0:0:
351,341,27474,2,0,B|298:322|238:321,1,116.250004434586,4|0,3:1|0:0,0:0:0:0:
167,351,28055,2,0,B|156:295|127:243,1,116.250004434586,0|0,3:1|0:0,0:0:0:0:
69,296,28635,1,2,1:2:0:0:
69,296,28829,2,0,B|74:323|88:349,1,58.1250022172929,0|0,0:2|0:0,0:0:0:0:
219,242,29216,5,0,3:0:0:0:
228,167,29410,1,0,0:0:0:0:
162,127,29603,1,0,0:0:0:0:
94,166,29797,1,0,3:0:0:0:
94,166,30184,2,0,B|122:177|163:176,1,58.1250022172929,2|0,1:2|0:0,0:0:0:0:
245,43,30571,102,0,B|195:83|134:98,1,116.250004434586,0|0,3:2|0:0,0:0:0:0:
309,94,31151,2,0,B|323:70|326:39,1,58.1250022172929,0|0,3:2|0:0,0:0:0:0:
326,39,31732,1,2,1:2:0:0:
356,160,31926,1,0,0:0:0:0:
356,160,32313,6,0,B|391:164|432:142,1,58.1250022172929,0|0,3:2|0:0,0:0:0:0:
308,223,32700,2,0,B|322:255|361:279,1,58.1250022172929,0|0,3:2|0:0,0:0:0:0:
420,232,33087,101,0,1:0:0:0:
276,315,33281,1,0,3:0:0:0:
419,383,33474,1,0,1:0:0:0:
230,377,33668,6,0,P|235:334|164:272,1,139.499995742798,4|0,3:2|0:0,0:0:0:0:
96,296,34248,1,2,3:3:0:0:
38,241,34442,1,2,1:2:0:0:
34,230,34635,1,0,0:0:0:0:
47,234,34829,1,0,0:0:0:0:
180,285,35022,102,0,P|221:282|253:248,1,69.749997871399,2|0,3:2|0:0,0:0:0:0:
381,211,35410,2,0,P|378:169|344:138,1,69.749997871399,2|0,3:2|0:0,0:0:0:0:
288,182,35797,1,2,3:2:0:0:
284,193,35893,1,0,0:0:0:0:
297,189,35990,1,0,1:0:0:0:
321,79,36184,5,2,0:0:0:0:
285,9,36377,1,2,0:3:0:0:
207,0,36571,1,0,1:0:0:0:
154,57,36764,2,0,P|151:91|168:121,1,69.749997871399,2|2,3:2|0:3,0:0:0:0:
297,189,37151,101,0,1:0:0:0:
426,257,37345,1,0,3:0:0:0:
360,295,37539,1,2,1:2:0:0:
366,154,37732,1,8,0:3:0:0:
491,215,37926,1,0,1:3:0:0:
328,372,38119,6,0,P|287:340|192:355,1,139.499995742798,2|0,3:2|0:0,0:0:0:0:
138,303,38700,1,0,1:0:0:0:
43,384,38893,2,0,B|49:373|49:373|67:296,1,69.749997871399,2|0,3:2|0:0,0:0:0:0:
272,263,39281,101,0,3:0:0:0:
251,189,39474,1,2,1:3:0:0:
230,115,39668,1,0,0:3:0:0:
12,244,39861,5,4,3:1:0:0:
87,215,40055,1,0,0:0:0:0:
25,165,40248,1,0,0:1:0:0:
41,208,40442,2,0,B|90:188|157:186,1,116.250004434586,0|0,3:0|0:0,0:0:0:0:
223,224,41022,2,0,B|238:197|235:161,1,58.1250022172929,2|0,1:2|0:0,0:0:0:0:
92,7,41603,101,0,3:1:0:0:
18,36,41797,1,0,0:0:0:0:
78,86,41990,1,0,0:1:0:0:
63,43,42183,1,0,3:0:0:0:
63,43,42571,2,0,B|71:76|69:110,1,58.1250022172929,2|0,1:2|0:0,0:0:0:0:
173,19,42958,6,0,B|169:68|185:134,1,116.250004434586,0|0,3:2|0:0,0:0:0:0:
252,179,43539,2,0,B|301:182|367:166,1,116.250004434586,0|0,3:2|0:0,0:0:0:0:
444,16,44119,2,0,B|416:26|373:26,1,58.1250022172929,2|0,1:2|0:0,0:0:0:0:
386,25,44700,1,0,3:2:0:0:
467,92,44893,1,0,0:0:0:0:
450,193,45087,2,0,B|442:224|444:265,1,58.1250022172929,0|0,3:0|0:0,0:0:0:0:
382,299,45474,101,2,1:2:0:0:
285,204,45668,1,2,3:0:0:0:
399,134,45861,1,0,1:0:0:0:
221,257,46055,6,0,P|178:223|185:123,1,139.499995742798,4|0,3:2|0:0,0:0:0:0:
230,88,46635,1,0,3:0:0:0:
383,61,46829,1,2,1:2:0:0:
377,140,47022,1,0,0:0:0:0:
311,95,47216,1,0,0:0:0:0:
357,98,47410,101,2,3:2:0:0:
473,182,47797,1,2,3:2:0:0:
389,298,48184,1,0,3:2:0:0:
385,290,48281,1,0,0:0:0:0:
395,295,48377,1,0,1:0:0:0:
342,356,48571,1,0,0:0:0:0:
267,341,48764,1,2,0:3:0:0:
249,269,48958,1,0,1:0:0:0:
113,199,49151,6,0,P|53:205|19:261,1,104.624996807098,2|0,3:2|2:0,2:0:0:0:
25,236,49539,2,0,B|38:265|45:307,1,69.749997871399,0|0,1:0|3:0,0:0:0:0:
169,138,49926,101,0,1:0:0:0:
142,275,50119,1,8,0:3:0:0:
290,238,50313,1,4,0:3:0:0:
209,213,50506,6,0,B|183:155|169:71,1,139.499995742798,2|0,3:2|0:0,0:0:0:0:
251,86,51087,1,0,1:2:0:0:
132,236,51281,2,0,B|125:274|112:302,1,69.749997871399,2|0,3:2|0:0,0:0:0:0:
355,320,51668,101,0,1:0:0:0:
296,373,51861,2,0,B|276:329|267:272,1,104.624996807098,2|0,3:2|0:0,0:0:0:0:
267,272,52248,1,4,3:1:0:0:
375,325,52442,2,0,P|410:281|429:151,1,185.999994323731,0|0,3:0|3:0,3:0:0:0:
365,116,53410,1,2,0:0:0:0:
439,0,53797,5,0,3:0:0:0:
439,0,53990,2,0,P|401:26|347:35,1,92.9999971618653,0|0,3:0|0:0,0:0:0:0:
380,55,54764,2,0,P|334:50|287:22,1,92.9999971618653
208,14,55345,101,0,3:1:0:0:
208,14,55539,2,0,B|237:96|226:210,1,185.999994323731,0|0,3:0|0:0,0:0:0:0:
160,238,56506,1,2,0:0:0:0:
41,169,56893,5,0,3:0:0:0:
41,169,57087,2,0,B|54:127|50:74,1,92.9999971618653,0|0,3:0|0:0,0:0:0:0:
78,110,57861,2,0,B|65:152|69:205,1,92.9999971618653
11,258,58442,101,0,3:0:0:0:
11,258,58635,2,0,P|85:259|132:323,1,139.499995742798,0|0,3:0|0:0,0:0:0:0:
104,380,59603,1,0,0:0:0:0:
28,357,59990,5,0,3:0:0:0:
28,357,60184,1,0,3:0:0:0:
151,314,60377,2,0,L|168:217,2,92.9999971618653
211,374,61539,101,0,3:0:0:0:
211,374,61732,2,0,B|272:348|349:358,1,139.499995742798,0|0,3:0|0:0,0:0:0:0:
317,332,62700,2,0,L|366:345,1,46.4999985809327
431,299,63087,6,0,P|420:247|386:189,1,108.499996688843,0|0,3:0|0:0,0:0:0:0:
471,96,63668,2,0,P|421:78|353:79,1,108.499996688843,0|0,3:0|0:0,0:0:0:0:
331,9,64248,2,0,B|301:22|287:56,1,54.2499983444214,0|0,3:2|0:0,0:0:0:0:
256,192,64635,102,0,L|247:258,1,58.1250022172929,4|0,3:1|0:0,0:0:0:0:
174,220,65022,2,0,L|165:286,1,58.1250022172929,0|0,3:2|0:0,0:0:0:0:
83,177,65410,2,0,L|90:119,1,58.1250022172929,0|0,3:2|0:0,0:0:0:0:
12,136,65797,2,0,L|19:78,1,58.1250022172929,2|0,3:2|0:0,0:0:0:0:
163,77,66184,6,0,B|224:77|288:53,1,116.250004434586,2|0,3:2|3:0,0:0:0:0:
347,89,66764,1,2,0:0:0:0:
335,186,66958,1,0,3:0:0:0:
245,152,67151,1,2,0:0:0:0:
355,166,67345,2,0,B|374:188|372:220,1,58.1250022172929,0|0,3:0|0:0,0:0:0:0:
331,359,67732,102,0,L|274:348,1,58.1250022172929,0|0,3:2|0:0,0:0:0:0:
306,275,68119,2,0,L|249:264,1,58.1250022172929,0|0,3:2|0:0,0:0:0:0:
402,197,68506,2,0,L|458:207,1,58.1250022172929,0|0,3:2|0:0,0:0:0:0:
455,128,68893,2,0,L|511:138,1,58.1250022172929,0|0,3:2|0:0,0:0:0:0:
326,138,69281,6,0,B|313:77|310:10,1,116.250004434586,2|0,3:2|3:0,0:0:0:0:
241,132,69861,1,2,0:0:0:0:
241,132,70055,2,0,B|251:199,1,58.1250022172929,0|0,3:2|0:0,0:0:0:0:
174,188,70442,2,0,B|184:255,1,58.1250022172929,0|0,3:2|0:0,0:0:0:0:
209,374,70829,101,2,3:2:0:0:
50,271,71216,1,8,3:2:0:0:
133,108,71603,1,8,3:2:0:0:
292,211,71990,1,8,3:2:0:0:
229,260,72377,5,8,3:2:0:0:
221,245,72764,2,0,B|230:211|236:169,1,69.749997871399,10|0,3:2|0:0,0:0:0:0:
323,151,73151,1,8,3:2:0:0:
374,29,73345,1,0,0:2:0:0:
243,46,73539,1,8,3:2:0:0:
314,74,73732,1,0,0:0:0:0:
349,1,73926,102,0,B|411:39|487:29,1,139.499995742798,10|8,3:2|3:2,0:0:0:0:
421,184,74506,1,0,0:0:0:0:
421,184,74603,1,0,0:0:0:0:
421,184,74700,2,0,B|390:165|336:166,1,69.749997871399,8|0,3:2|0:0,0:0:0:0:
233,294,75087,5,2,3:2:0:0:
363,249,75281,1,2,0:0:0:0:
208,158,75474,5,2,3:1:0:0:
303,384,75764,5,2,3:1:0:0:
512,248,76055,101,2,3:1:0:0:
436,322,76248,2,0,B|434:314|434:314|440:277,1,46.4999985809327,8|0,0:1|0:0,0:0:0:0:
461,137,76442,1,0,3:0:0:0:
275,296,76635,85,2,3:2:0:0:
230,305,76731,1,2,0:0:0:0:
191,283,76828,1,2,0:0:0:0:
177,240,76925,1,2,0:0:0:0:
177,240,77022,53,6,3:1:0:0:
302,193,77216,1,2,0:0:0:0:
358,320,77410,1,8,3:2:0:0:
227,163,77603,5,2,0:0:0:0:
229,151,77699,1,0,1:0:0:0:
231,140,77796,1,0,3:0:0:0:
233,128,77893,1,0,1:0:0:0:
235,117,77990,1,2,0:2:0:0:
125,178,78184,1,8,0:2:0:0:
290,236,78377,1,0,1:0:0:0:
311,226,78473,1,0,1:0:0:0:
332,217,78570,1,2,3:2:0:0:
199,137,78764,5,2,0:0:0:0:
136,256,78958,1,8,3:2:0:0:
255,319,79151,2,0,B|299:303|370:302,1,92.9999971618653,2|0,0:0|3:0,0:0:0:0:
346,302,79442,1,0,1:0:0:0:
346,302,79539,1,2,0:0:0:0:
218,219,79732,1,8,3:2:0:0:
142,363,79926,1,0,1:0:0:0:
119,369,80022,1,0,1:0:0:0:
96,374,80119,1,0,3:2:0:0:
29,325,80313,6,0,B|8:281|16:231,1,92.9999971618653,2|8,0:0|3:2,0:0:0:0:
129,77,80700,2,0,B|150:121|142:171,1,92.9999971618653,2|0,0:0|3:2,0:0:0:0:
22,136,81087,1,2,0:0:0:0:
67,20,81281,1,8,3:2:0:0:
212,51,81474,69,2,0:0:0:0:
212,51,81571,1,0,1:0:0:0:
212,51,81668,2,0,B|257:48|305:32|305:32,1,92.9999971618653,2|0,3:2|0:0,0:0:0:0:
512,129,82055,5,8,3:2:0:0:
365,181,82248,1,2,0:0:0:0:
365,181,82345,1,0,1:0:0:0:
365,181,82442,1,0,3:0:0:0:
393,27,82635,1,2,0:0:0:0:
462,226,82829,5,8,3:2:0:0:
377,146,83022,1,2,0:0:0:0:
488,112,83216,1,4,3:1:0:0:
365,181,83410,2,0,B|322:182|270:201,1,92.9999971618653,2|8,0:0|3:2,0:0:0:0:
128,101,83797,5,2,0:0:0:0:
126,89,83893,1,0,1:0:0:0:
124,78,83990,1,0,3:0:0:0:
122,66,84087,1,0,1:0:0:0:
120,55,84184,1,2,0:2:0:0:
201,39,84377,1,8,3:2:0:0:
235,368,84764,69,2,3:2:0:0:
180,250,84958,1,2,0:0:0:0:
310,261,85151,1,8,3:2:0:0:
132,320,85345,5,2,0:0:0:0:
132,320,85442,1,0,1:0:0:0:
132,320,85539,1,0,3:0:0:0:
255,185,85732,1,2,0:0:0:0:
311,359,85926,1,8,3:2:0:0:
209,293,86119,6,0,L|193:229,1,46.4999985809327,0|0,1:0|1:0,0:0:0:0:
122,376,86313,2,0,B|127:285|76:198,1,185.999994323731,2|8,3:2|3:2,0:0:0:0:
9,160,86893,1,2,0:0:0:0:
12,148,86989,1,0,1:0:0:0:
15,137,87086,1,0,3:0:0:0:
18,126,87183,1,0,1:0:0:0:
21,114,87280,1,2,0:0:0:0:
114,171,87474,1,8,3:2:0:0:
44,245,87668,1,2,0:0:0:0:
96,78,87861,53,6,3:2:0:0:
196,220,88055,1,4,3:3:0:0:
181,47,88248,1,8,0:3:0:0:
277,266,88442,6,0,B|270:218|294:161,1,100.749995388031,6|0,3:2|0:0,0:0:0:0:
306,204,88732,1,0,1:0:0:0:
306,204,88829,1,2,3:2:0:0:
415,317,89022,1,12,1:2:0:0:
462,331,89118,1,0,1:0:0:0:
500,302,89215,1,0,1:0:0:0:
497,249,89312,1,0,1:0:0:0:
497,249,89410,5,6,3:1:0:0:
329,328,89603,2,0,B|287:350|225:351,1,92.9999971618653,2|8,0:0|3:2,0:0:0:0:
103,183,89990,5,2,0:0:0:0:
115,181,90086,1,0,1:0:0:0:
126,178,90183,1,0,3:0:0:0:
138,175,90280,1,0,1:0:0:0:
149,173,90377,1,2,0:2:0:0:
129,77,90571,1,8,3:2:0:0:
34,94,90764,1,2,0:0:0:0:
53,244,90958,6,0,P|56:313|90:373,1,139.499995742798,2|0,3:2|0:0,0:0:0:0:
108,338,91345,1,8,3:2:0:0:
246,365,91539,1,2,0:0:0:0:
246,365,91635,1,0,1:0:0:0:
246,365,91732,2,0,B|286:333|272:276,1,92.9999971618653,0|0,3:0|0:0,0:0:0:0:
367,195,92119,2,0,B|359:144|302:127,1,92.9999971618653,8|0,3:2|0:0,0:0:0:0:
273,146,92410,5,0,1:0:0:0:
273,146,92506,1,2,3:2:0:0:
431,245,92700,2,0,B|464:233|464:233|478:217|478:217|512:205,1,92.9999971618653,2|8,0:0|3:2,0:0:0:0:
227,75,93087,69,2,0:0:0:0:
195,96,93184,1,0,1:0:0:0:
193,140,93281,1,0,3:0:0:0:
314,247,93474,1,2,0:0:0:0:
440,144,93668,2,0,B|459:97|463:54,1,92.9999971618653,8|0,3:2|0:0,0:0:0:0:
193,140,94055,5,2,3:2:0:0:
135,257,94248,1,0,0:0:0:0:
105,169,94442,1,8,3:2:0:0:
222,227,94635,1,2,0:2:0:0:
260,213,94732,1,0,1:0:0:0:
297,198,94829,1,0,3:0:0:0:
354,119,95022,5,2,0:0:0:0:
321,280,95216,1,8,3:2:0:0:
481,233,95410,1,2,0:0:0:0:
454,223,95506,1,0,1:0:0:0:
428,214,95603,1,6,3:1:0:0:
399,284,95797,1,2,0:0:0:0:
469,313,95990,1,8,3:2:0:0:
469,104,96184,5,2,0:0:0:0:
456,100,96280,1,0,1:0:0:0:
446,96,96377,1,0,3:0:0:0:
433,93,96474,1,0,1:0:0:0:
423,89,96571,1,2,0:2:0:0:
353,246,96764,1,8,3:2:0:0:
373,0,97055,69,0,1:0:0:0:
373,0,97151,2,0,B|363:37|363:37|347:53|347:53|336:89,1,92.9999971618653,2|0,3:2|0:0,0:0:0:0:
288,298,97539,1,8,3:2:0:0:
353,246,97732,5,2,0:0:0:0:
357,233,97828,1,0,1:0:0:0:
361,223,97925,1,0,3:0:0:0:
364,210,98022,1,0,1:0:0:0:
368,200,98119,1,2,0:2:0:0:
182,251,98313,2,0,B|213:308|219:386,1,139.499995742798,10|0,3:2|0:0,0:0:0:0:
186,353,98700,5,4,3:1:0:0:
265,239,98893,1,2,0:0:0:0:
324,364,99087,1,8,3:2:0:0:
108,311,99281,5,2,0:0:0:0:
98,274,99377,1,0,1:0:0:0:
89,239,99474,1,0,3:0:0:0:
16,183,99668,1,2,0:0:0:0:
89,125,99861,1,8,3:2:0:0:
162,181,100055,1,2,0:0:0:0:
324,53,100248,70,0,B|377:40|377:40|401:20|401:20|462:7,1,139.499995742798,6|0,3:2|0:0,0:0:0:0:
485,33,100635,1,8,3:2:0:0:
262,117,100829,2,0,B|229:105|229:105|214:91|214:91|176:80,1,92.9999971618653,6|4,3:2|0:3,0:0:0:0:
372,186,101216,5,0,3:0:0:0:
188,270,101410,1,6,1:2:0:0:
303,380,101603,1,0,0:0:0:0:
303,380,101700,1,0,1:0:0:0:
303,380,101797,2,0,B|286:289|293:190,1,185.999994323731,6|8,3:1|3:2,0:0:0:0:
138,164,102377,5,2,0:0:0:0:
173,179,102473,1,0,1:0:0:0:
205,194,102570,1,0,3:0:0:0:
157,87,102764,1,2,0:0:0:0:
22,198,102958,5,8,3:2:0:0:
70,305,103151,1,2,0:0:0:0:
70,305,103248,1,2,0:0:0:0:
70,305,103345,2,0,B|112:305|167:279,1,85.2500026016236,2|0,3:2|0:0,0:0:0:0:
295,241,103732,1,8,3:2:0:0:
346,383,103926,1,2,0:0:0:0:
382,371,104022,1,0,1:0:0:0:
415,358,104119,1,0,3:0:0:0:
512,192,104313,69,2,0:0:0:0:
389,169,104506,1,8,3:2:0:0:
432,287,104700,1,2,0:0:0:0:
432,287,104797,1,0,1:0:0:0:
432,287,104893,2,0,B|449:210|412:101,1,170.500005203247,2|8,3:2|3:2,0:0:0:0:
295,168,105474,1,0,0:0:0:0:
292,173,105571,1,0,1:0:0:0:
289,179,105668,2,0,L|202:200,1,85.2500026016236,2|0,3:2|0:0,0:0:0:0:
81,53,106055,6,0,B|124:63|124:63|150:82|150:82|233:101,1,127.875003902435,8|0,3:2|0:0,0:0:0:0:
257,45,106442,1,2,3:1:0:0:
122,235,106732,69,2,3:1:0:0:
313,344,107022,5,2,3:1:0:0:
198,383,107216,2,0,L|209:314,1,58.1250022172929,2|0,3:1|0:0,0:0:0:0:
222,252,107506,1,0,1:0:0:0:
222,252,107603,1,8,3:1:0:0:
434,345,107797,69,0,1:0:0:0:
427,329,107893,1,0,1:0:0:0:
421,315,107990,1,4,3:1:0:0:
256,192,108087,12,0,111087,3:0:0:0:
198,241,111474,5,0,3:0:0:0:
198,241,111861,2,0,L|210:190,1,50.3749976940156,0|0,3:0|0:0,0:0:0:0:
134,189,112248,2,0,L|146:138,1,50.3749976940156,0|0,3:0|0:0,0:0:0:0:
276,255,112635,101,0,3:0:0:0:
293,330,112829,1,0,0:0:0:0:
220,356,113022,2,0,L|170:344,1,50.3749976940156,2|0,3:2|0:0,0:0:0:0:
97,376,113410,2,0,L|47:364,1,50.3749976940156,0|0,3:2|0:0,0:0:0:0:
120,286,113797,1,0,3:2:0:0:
120,286,113990,1,0,0:0:0:0:
170,344,114184,6,0,P|222:351|342:262,1,201.499990776062,2|0,3:2|3:0,0:0:0:0:
422,271,115151,1,2,0:0:0:0:
422,271,115248,1,2,0:0:0:0:
422,271,115345,1,2,3:2:0:0:
441,344,115539,1,2,0:0:0:0:
365,325,115732,102,0,L|300:308,1,50.3749976940156,0|0,3:0|0:0,0:0:0:0:
278,248,116119,1,0,3:0:0:0:
278,248,116313,2,0,L|166:218,1,100.749995388031,2|0,0:0|0:0,0:0:0:0:
130,157,116893,2,0,L|74:142,1,50.3749976940156,2|0,3:2|0:0,0:0:0:0:
256,162,117281,6,0,L|233:4,1,151.124993082047,2|0,3:2|0:0,0:0:0:0:
311,23,118055,1,0,3:0:0:0:
311,23,118248,2,0,L|319:74,1,50.3749976940156,2|0,0:0|3:0,0:0:0:0:
332,148,118635,1,2,0:0:0:0:
353,283,118829,1,0,1:0:0:0:
353,283,119410,101,0,1:0:0:0:
427,248,119603,1,0,3:0:0:0:
407,229,119700,1,0,1:0:0:0:
387,210,119797,1,0,1:0:0:0:
333,361,119990,1,0,3:0:0:0:
406,342,120184,1,4,0:3:0:0:
291,233,120377,54,0,L|270:309,1,72.8499988883972,4|0,3:1|0:0,0:0:0:0:
291,233,120764,1,8,3:2:0:0:
193,331,120958,2,0,L|164:181,1,145.699997776794,2|0,0:0|0:0,0:0:0:0:
217,129,121539,1,8,3:2:0:0:
162,70,121732,1,2,0:0:0:0:
114,130,121926,53,0,3:0:0:0:
185,220,122119,1,2,0:0:0:0:
275,149,122313,1,8,3:2:0:0:
204,59,122506,1,2,0:0:0:0:
75,199,122700,54,0,B|43:213|-5:212,1,72.8499988883972,0|0,3:0|0:0,0:0:0:0:
30,130,123087,1,10,3:2:0:0:
30,130,123281,1,0,0:0:0:0:
122,269,123474,54,0,B|154:255|193:255,1,72.8499988883972,2|0,3:2|0:0,0:0:0:0:
258,299,123861,1,8,3:2:0:0:
238,374,124055,1,2,0:0:0:0:
335,283,124248,1,0,3:0:0:0:
258,299,124442,2,0,L|274:376,1,72.8499988883972,2|8,0:0|3:2,0:0:0:0:
413,313,124829,2,0,L|427:384,1,72.8499988883972,2|0,0:0|3:0,0:0:0:0:
461,252,125216,53,2,0:0:0:0:
401,200,125410,1,8,3:2:0:0:
464,153,125603,1,2,0:0:0:0:
401,200,125797,1,0,3:0:0:0:
298,108,125990,2,0,L|283:36,2,72.8499988883972,2|8|0,0:0|3:2|0:0,0:0:0:0:
232,157,126571,54,0,B|165:178|169:123|81:162,2,145.699997776794,4|10|0,3:1|3:2|3:0,0:0:0:0:
204,85,127539,2,0,L|189:13,1,72.8499988883972,2|8,0:0|3:2,0:0:0:0:
134,227,127926,2,0,L|203:249,1,72.8499988883972,2|0,0:0|3:0,0:0:0:0:
54,90,128313,2,0,L|0:138,1,72.8499988883972,2|8,0:0|3:2,0:0:0:0:
130,142,128700,1,2,0:0:0:0:
130,142,129087,53,2,0:0:0:0:
109,239,129281,1,8,3:2:0:0:
88,336,129474,1,0,0:0:0:0:
155,375,129668,54,0,P|192:355|275:364,1,109.274998332596,2|0,3:2|0:0,0:0:0:0:
252,372,130055,2,0,L|323:356,1,72.8499988883972,8|0,3:2|0:0,0:0:0:0:
472,320,130442,53,2,3:2:0:0:
397,298,130635,1,4,0:3:0:0:
416,374,130829,1,8,3:2:0:0:
428,331,131022,54,0,B|419:273|421:180,1,145.699997776794,2|0,0:0|0:0,0:0:0:0:
342,205,131603,1,8,3:2:0:0:
342,205,131797,2,0,B|342:161|338:132,1,72.8499988883972,2|0,0:2|3:0,0:0:0:0:
382,68,132184,1,2,0:0:0:0:
466,116,132377,1,8,3:2:0:0:
422,0,132571,1,2,0:0:0:0:
306,54,132764,1,4,3:1:0:0:
351,171,132958,53,2,0:0:0:0:
381,104,133151,1,8,3:2:0:0:
277,151,133345,1,2,0:0:0:0:
328,255,133539,1,0,3:0:0:0:
328,255,133732,2,0,B|364:254|414:270,1,72.8499988883972,2|8,0:0|3:2,0:0:0:0:
358,336,134119,2,0,B|389:353|424:391,1,72.8499988883972,2|0,0:0|3:0,0:0:0:0:
242,381,134506,54,0,B|241:345|256:296,1,72.8499988883972,2|8,0:0|3:2,0:0:0:0:
190,262,134893,2,0,B|214:236|260:212,1,72.8499988883972,2|0,0:0|3:0,0:0:0:0:
316,182,135281,1,2,0:0:0:0:
201,152,135474,1,8,3:2:0:0:
156,40,135668,1,2,0:0:0:0:
233,4,135861,54,0,B|232:46|222:96,1,72.8499988883972,2|0,3:2|0:0,0:0:0:0:
120,115,136248,1,8,3:2:0:0:
44,142,136442,2,0,B|45:100|55:50,1,72.8499988883972,2|0,0:2|3:0,0:0:0:0:
201,152,136829,53,2,0:0:0:0:
188,251,137022,1,8,3:2:0:0:
108,190,137216,1,2,0:0:0:0:
255,208,137410,53,0,3:0:0:0:
158,289,137603,1,2,0:0:0:0:
77,192,137797,1,8,3:2:0:0:
174,111,137990,1,2,0:0:0:0:
151,213,138184,53,0,3:0:0:0:
34,296,138377,2,0,B|16:264|11:211,2,72.8499988883972,2|8|0,0:0|3:2|0:0,0:0:0:0:
0,378,138958,54,0,L|144:355,1,145.699997776794,4|8,3:1|3:2,0:0:0:0:
218,339,139539,1,0,0:0:0:0:
280,384,139732,1,0,3:2:0:0:
336,231,139926,2,0,P|298:239|264:242,1,72.8499988883972,2|8,0:2|3:2,0:0:0:0:
313,313,140313,53,2,0:0:0:0:
412,240,140506,1,0,3:0:0:0:
309,161,140700,1,2,0:0:0:0:
336,231,140893,1,8,3:2:0:0:
479,288,141087,53,2,0:0:0:0:
479,288,141184,1,2,0:0:0:0:
479,288,141281,1,0,3:0:0:0:
512,146,141474,1,2,0:0:0:0:
370,111,141668,1,8,3:2:0:0:
337,253,141861,1,2,0:2:0:0:
427,174,142055,54,0,B|405:95|407:7,1,145.699997776794,2|8,3:2|3:2,0:0:0:0:
483,57,142635,1,2,0:0:0:0:
339,146,142829,1,0,3:0:0:0:
245,9,143022,53,8,0:3:0:0:
315,49,143216,1,8,3:2:0:0:
245,87,143410,1,2,0:0:0:0:
333,16,143603,53,0,3:0:0:0:
283,157,143797,1,0,1:0:0:0:
177,51,143990,1,8,3:2:0:0:
265,241,144184,53,0,1:0:0:0:
292,232,144281,1,0,1:0:0:0:
319,223,144377,1,0,3:0:0:0:
285,359,144571,1,2,1:2:0:0:
155,277,144764,2,0,L|165:234,2,36.4249994441986,8|0|4,3:2|1:0|0:3,0:0:0:0:
36,374,145151,53,4,3:1:0:0:
15,299,145345,1,2,0:0:0:0:
73,245,145539,1,8,3:2:0:0:
149,259,145732,1,0,1:0:0:0:
152,268,145829,1,0,1:0:0:0:
155,277,145926,1,0,3:0:0:0:
231,279,146119,1,0,1:0:0:0:
261,210,146313,2,0,L|246:130,1,72.8499988883972,8|0,3:2|0:0,0:0:0:0:
148,10,146700,5,2,3:2:0:0:
77,159,146893,1,0,1:0:0:0:
34,94,147087,1,8,3:2:0:0:
110,93,147281,1,2,0:0:0:0:
113,87,147377,1,0,1:0:0:0:
116,81,147474,1,0,3:0:0:0:
6,201,147668,101,2,0:0:0:0:
46,49,147861,1,8,3:2:0:0:
171,147,148055,2,0,L|218:156,1,36.4249994441986,0|0,1:0|1:0,0:0:0:0:
215,236,148248,6,0,P|291:217|367:215,1,145.699997776794,2|8,3:2|3:2,0:0:0:0:
408,155,148829,1,0,1:0:0:0:
402,150,148926,1,0,1:0:0:0:
396,145,149022,1,0,3:0:0:0:
308,203,149216,1,0,1:0:0:0:
377,291,149410,1,10,3:2:0:0:
171,358,149700,101,0,1:0:0:0:
171,358,149797,2,0,B|204:348|262:345,1,72.8499988883972,2|0,3:2|0:0,0:0:0:0:
298,289,150184,1,8,3:2:0:0:
175,268,150377,5,2,0:0:0:0:
170,273,150474,1,0,1:0:0:0:
165,278,150571,2,0,B|132:288|74:291,1,72.8499988883972,0|0,3:2|1:0,0:0:0:0:
305,211,150958,2,0,B|351:225|432:229,1,109.274998332596,8|0,3:2|1:0,0:0:0:0:
386,261,151345,102,0,B|384:184|361:112,1,145.699997776794,2|8,3:2|3:2,0:0:0:0:
319,56,151926,1,0,1:0:0:0:
312,53,152022,1,0,1:0:0:0:
305,49,152119,1,2,3:2:0:0:
213,102,152313,1,0,1:0:0:0:
293,175,152506,1,8,3:2:0:0:
385,122,152700,1,0,1:2:0:0:
393,118,152797,1,0,1:0:0:0:
401,114,152893,1,2,3:2:0:0:
152,8,153281,5,10,3:2:0:0:
81,42,153474,1,0,1:0:0:0:
92,57,153571,1,0,1:0:0:0:
103,72,153668,1,0,1:0:0:0:
224,29,153861,1,0,1:0:0:0:
152,8,154055,2,0,B|137:57|136:133,1,109.274998332596,10|0,3:2|1:0,2:0:0:0:
167,143,154442,102,0,B|107:159|107:159|84:188|84:188|38:202,1,145.699997776794,2|8,3:2|3:2,0:0:0:0:
0,137,155022,1,0,0:0:0:0:
6,132,155119,1,0,1:0:0:0:
13,127,155216,1,0,3:0:0:0:
83,211,155410,1,0,1:0:0:0:
0,285,155603,1,8,3:2:0:0:
66,370,155797,2,0,L|118:355,1,36.4249994441986,0|0,1:0|1:0,0:0:0:0:
153,300,155990,6,0,L|169:217,1,72.8499988883972,2|0,3:2|0:0,0:0:0:0:
153,300,156377,1,8,3:2:0:0:
227,178,156571,1,0,1:0:0:0:
222,172,156668,1,0,1:0:0:0:
217,165,156764,1,0,3:2:0:0:
283,122,156958,1,2,0:0:0:0:
354,153,157151,1,0,1:0:0:0:
362,229,157345,1,2,0:0:0:0:
434,365,157539,86,0,B|472:364|519:382,1,79.0500004824829,4|0,3:1|0:0,0:0:0:0:
378,309,157926,2,0,B|340:310|300:294,1,79.0500004824829,8|0,3:2|0:0,0:0:0:0:
294,299,158216,1,0,1:0:0:0:
287,304,158313,1,2,3:2:0:0:
327,168,158506,1,0,1:0:0:0:
190,201,158700,1,10,3:2:0:0:
274,229,158893,5,0,1:0:0:0:
274,229,158990,1,0,1:0:0:0:
274,229,159087,2,0,B|276:187|288:141,1,79.0500004824829,2|0,3:2|0:0,0:0:0:0:
192,217,159474,2,0,B|201:180|203:138,1,79.0500004824829,10|0,3:2|0:0,0:0:0:0:
199,133,159764,1,0,1:0:0:0:
194,127,159861,1,0,3:0:0:0:
75,170,160055,1,0,1:0:0:0:
32,52,160248,1,8,3:2:0:0:
32,52,160635,102,0,B|70:68|118:69,1,79.0500004824829,2|0,3:2|0:0,0:0:0:0:
192,217,161022,2,0,B|154:201|106:200,1,79.0500004824829,10|0,3:2|0:0,0:0:0:0:
43,236,161410,1,2,3:2:0:0:
95,361,161603,1,0,1:0:0:0:
210,293,161797,1,8,3:2:0:0:
132,279,161990,5,0,1:0:0:0:
127,285,162087,1,0,1:0:0:0:
123,291,162184,2,0,B|183:306|183:306|206:332|206:332|276:350,1,158.100000964966,2|8,3:2|3:2,0:0:0:0:
422,376,162764,1,0,1:0:0:0:
431,363,162861,1,0,1:0:0:0:
441,351,162958,1,8,3:2:0:0:
358,290,163151,1,0,1:0:0:0:
341,384,163345,1,8,3:2:0:0:
512,319,163539,102,0,L|493:269,1,39.5250002412415,0|0,1:0|1:0,0:0:0:0:
427,250,163732,2,0,B|453:176|445:87,1,158.100000964966,2|8,3:2|3:2,0:0:0:0:
381,48,164313,1,0,1:0:0:0:
377,56,164410,1,0,1:0:0:0:
373,64,164506,1,0,3:0:0:0:
295,176,164700,1,0,1:0:0:0:
196,77,164893,1,8,3:2:0:0:
264,104,165087,1,0,0:0:0:0:
138,260,165281,5,2,3:2:0:0:
127,187,165475,1,0,0:0:0:0:
195,213,165668,1,8,3:2:0:0:
42,190,165861,101,0,1:0:0:0:
46,185,165958,1,0,1:0:0:0:
50,180,166055,1,2,3:2:0:0:
151,145,166248,1,0,1:0:0:0:
186,245,166442,1,8,3:2:0:0:
85,280,166635,1,0,0:2:0:0:
261,337,166829,6,0,B|254:264|281:170,1,158.100000964966,2|8,3:2|3:2,0:0:0:0:
379,294,167410,1,0,1:0:0:0:
375,300,167506,1,0,1:0:0:0:
371,307,167603,2,0,B|349:272|348:225,1,79.0500004824829,0|0,3:2|1:0,0:0:0:0:
511,302,167990,21,8,3:2:0:0:
436,244,168184,1,0,0:0:0:0:
499,169,168377,1,2,3:1:0:0:
351,380,168668,5,2,3:1:0:0:
193,213,168958,101,2,3:1:0:0:
281,146,169151,2,0,B|290:164|290:164|272:212,1,50.3749976940156,8|0,0:1|0:0,0:0:0:0:
230,287,169345,1,0,3:0:0:0:
126,167,169539,85,2,3:2:0:0:
112,119,169635,1,2,1:2:0:0:
69,96,169732,1,2,1:2:0:0:
27,116,169829,1,2,1:2:0:0:
27,116,169926,53,6,3:1:0:0:
203,38,170119,2,0,B|228:46|228:46|266:39|309:61,1,92.9999971618653,2|8,0:0|3:2,0:0:0:0:
193,213,170506,5,2,0:0:0:0:
190,205,170603,1,0,1:0:0:0:
187,197,170700,1,0,3:0:0:0:
304,165,170893,1,2,0:0:0:0:
336,282,171087,2,0,B|288:290|243:311,1,92.9999971618653,8|0,3:2|0:0,0:0:0:0:
233,304,171377,1,0,1:0:0:0:
240,297,171474,1,2,3:2:0:0:
364,355,171668,1,2,0:0:0:0:
439,246,171861,1,8,3:2:0:0:
376,192,172055,5,2,0:0:0:0:
364,194,172151,1,0,1:0:0:0:
353,197,172248,1,0,3:0:0:0:
342,200,172345,1,0,1:0:0:0:
330,202,172442,1,2,0:0:0:0:
221,109,172635,1,8,3:2:0:0:
334,16,172829,1,2,0:0:0:0:
391,117,173022,5,0,3:0:0:0:
391,117,173216,2,0,B|343:118|291:137,1,92.9999971618653,2|8,0:0|3:2,0:0:0:0:
175,45,173603,1,2,0:0:0:0:
181,22,173699,1,0,1:0:0:0:
188,0,173796,1,0,3:0:0:0:
258,73,173990,1,2,0:0:0:0:
174,129,174184,1,8,3:2:0:0:
104,56,174377,1,0,1:0:0:0:
99,50,174474,1,0,1:0:0:0:
93,44,174571,2,0,B|110:117|81:220,1,139.499995742798,2|0,3:2|0:0,0:0:0:0:
62,154,174958,69,8,3:2:0:0:
164,309,175151,2,0,B|183:266|167:200,1,92.9999971618653,2|0,0:2|3:2,0:0:0:0:
90,280,175539,1,2,0:0:0:0:
209,379,175732,1,8,3:2:0:0:
315,266,175926,1,2,0:2:0:0:
246,304,176119,5,4,3:2:0:0:
416,343,176313,2,0,L|535:362,1,92.9999971618653,2|8,0:2|3:2,0:2:0:0:
361,275,176700,5,2,0:0:0:0:
338,270,176796,1,0,1:0:0:0:
315,266,176893,1,0,3:0:0:0:
400,182,177087,1,2,0:0:0:0:
476,277,177281,1,8,3:2:0:0:
321,169,177474,5,2,0:0:0:0:
410,143,177668,1,0,3:0:0:0:
388,233,177861,1,0,0:0:0:0:
249,204,178055,69,8,3:2:0:0:
293,80,178248,1,2,0:0:0:0:
417,124,178442,1,0,3:2:0:0:
373,248,178635,1,2,1:2:0:0:
199,135,178829,6,0,B|188:98|195:36,1,92.9999971618653,8|0,3:2|0:0,0:0:0:0:
202,39,179119,1,0,1:0:0:0:
210,46,179216,2,0,P|161:88|46:68,1,185.999994323731,2|8,3:2|3:2,0:0:0:0:
0,170,179797,1,2,0:0:0:0:
8,166,179893,1,0,1:0:0:0:
16,162,179990,1,0,3:0:0:0:
93,232,180184,1,0,0:0:0:0:
10,288,180377,1,8,3:2:0:0:
221,317,180571,5,0,1:0:0:0:
185,306,180668,1,0,1:0:0:0:
149,295,180764,1,6,3:1:0:0:
105,367,180958,1,0,1:0:0:0:
273,253,181151,1,8,1:2:0:0:
131,137,181345,1,2,3:1:0:0:
276,8,181539,1,0,1:0:0:0:
320,2,181635,1,0,1:0:0:0:
356,31,181732,1,0,1:0:0:0:
367,80,181829,1,0,1:0:0:0:
367,80,181926,21,8,3:2:0:0:
307,156,182119,5,0,1:0:0:0:
377,224,182313,37,6,3:1:0:0:
452,205,182506,1,2,0:0:0:0:
408,145,182700,1,8,3:2:0:0:
248,220,182893,5,2,0:0:0:0:
251,241,182989,1,0,1:0:0:0:
256,264,183086,1,0,3:0:0:0:
273,363,183281,1,0,0:0:0:0:
354,303,183474,1,8,3:2:0:0:
162,195,183668,5,2,0:0:0:0:
65,157,183861,1,0,3:0:0:0:
27,254,184055,1,2,0:0:0:0:
124,292,184248,1,8,3:2:0:0:
230,139,184442,5,2,0:0:0:0:
242,152,184539,1,0,1:0:0:0:
253,166,184635,2,0,B|239:125|240:70,1,92.9999971618653,0|0,3:0|2:0,2:0:0:0:
340,272,185022,2,0,B|354:313|353:368,1,92.9999971618653,10|0,3:2|2:0,2:0:0:0:
346,359,185313,1,0,1:0:0:0:
339,356,185410,2,0,B|457:301|427:386|515:373,1,185.999994323731,2|8,3:2|3:2,0:0:0:0:
262,322,185990,69,2,0:0:0:0:
260,310,186086,1,0,1:0:0:0:
258,299,186183,1,0,3:0:0:0:
256,287,186280,1,0,1:0:0:0:
254,276,186377,1,2,0:0:0:0:
175,177,186571,1,8,3:2:0:0:
52,204,186764,1,2,0:0:0:0:
114,255,186958,5,0,3:0:0:0:
158,103,187151,1,2,0:0:0:0:
290,174,187345,1,8,3:2:0:0:
194,218,187539,5,2,0:0:0:0:
186,212,187635,1,0,1:2:0:0:
178,206,187732,1,0,3:2:0:0:
239,95,187926,1,2,0:0:0:0:
366,138,188119,2,0,B|362:183|387:239,1,92.9999971618653,8|0,3:2|0:0,0:0:0:0:
307,271,188410,5,0,1:0:0:0:
312,260,188506,1,4,3:1:0:0:
453,193,188700,1,2,0:0:0:0:
500,339,188893,1,8,3:2:0:0:
377,371,189087,69,2,0:0:0:0:
351,359,189184,1,0,1:0:0:0:
325,347,189281,1,0,3:0:0:0:
283,186,189474,1,2,0:0:0:0:
247,309,189668,2,0,B|213:320|213:320|198:336|198:336|154:348,1,92.9999971618653,8|0,3:2|0:0,0:0:0:0:
157,340,189958,1,0,1:0:0:0:
149,335,190055,1,0,3:2:0:0:
249,64,190442,5,8,3:2:0:0:
159,135,190635,1,2,0:0:0:0:
167,118,190732,1,0,1:0:0:0:
175,102,190829,1,0,3:0:0:0:
258,180,191022,1,2,0:0:0:0:
147,218,191216,2,0,B|81:189|8:188,1,139.499995742798,8|0,3:2|0:0,0:0:0:0:
24,220,191603,6,0,B|55:189|51:132,1,92.9999971618653,2|0,3:2|0:0,0:0:0:0:
202,16,191990,2,0,B|171:47|175:104,1,92.9999971618653,8|0,3:2|0:0,0:0:0:0:
155,89,192281,1,0,1:0:0:0:
135,77,192377,1,0,3:0:0:0:
219,173,192571,5,2,0:0:0:0:
404,92,192764,1,8,3:2:0:0:
288,0,192958,1,0,1:0:0:0:
286,228,193151,37,6,3:1:0:0:
307,232,193247,1,0,1:0:0:0:
330,237,193344,1,0,1:0:0:0:
353,242,193441,1,0,1:0:0:0:
376,247,193538,1,2,1:0:0:0:
186,382,193732,5,4,3:2:0:0:
154,272,193926,1,4,0:3:0:0:
273,303,194119,1,0,3:0:0:0:
273,120,194313,102,0,L|190:138,1,46.4999985809327,12|0,3:2|0:0,0:0:0:0:
117,196,194506,2,0,L|162:186,1,46.4999985809327,4|4,3:3|0:3,0:0:0:0:
242,97,194700,22,0,B|307:114|307:114|337:149|337:149|416:167,1,185.999994323731,6|8,3:1|3:2,0:0:0:0:
480,71,195281,1,0,1:0:0:0:
458,80,195377,1,0,1:0:0:0:
436,89,195474,1,0,3:0:0:0:
487,198,195668,1,2,0:0:0:0:
377,253,195861,1,8,3:2:0:0:
326,144,196055,1,2,0:0:0:0:
131,223,196248,6,0,B|162:163|152:76,1,139.499995742798,2|0,3:2|0:0,0:0:0:0:
123,117,196635,1,8,3:2:0:0:
191,278,196829,1,2,0:0:0:0:
193,289,196925,1,0,1:0:0:0:
195,300,197022,1,0,3:0:0:0:
198,312,197119,1,0,1:0:0:0:
200,323,197216,1,2,0:0:0:0:
282,375,197410,1,8,3:2:0:0:
344,305,197603,1,2,0:0:0:0:
431,358,197797,6,0,B|412:256|509:194,1,185.999994323731,2|8,3:2|3:2,0:0:0:0:
377,216,198377,1,0,0:0:0:0:
360,224,198474,1,0,1:0:0:0:
343,231,198571,2,0,P|315:224|270:217,2,46.4999985809327,2|0|0,3:2|1:0|0:0,0:0:0:0:
419,85,198958,2,0,B|447:73|447:73|466:53|466:53|515:36,1,92.9999971618653,8|0,3:2|1:0,0:0:0:0:
499,41,199248,1,0,1:0:0:0:
499,41,199345,1,2,3:2:0:0:
360,140,199539,5,2,0:2:0:0:
286,42,199732,1,8,3:2:0:0:
399,0,199926,1,0,1:2:0:0:
291,184,200119,37,2,3:2:0:0:
275,186,200216,1,2,1:2:0:0:
260,189,200312,1,2,1:2:0:0:
245,191,200409,1,2,1:2:0:0:
228,225,200506,5,10,3:2:0:0:
183,213,200602,1,2,1:2:0:0:
153,179,200699,1,2,1:2:0:0:
148,133,200796,1,2,1:2:0:0:
170,93,200893,1,4,3:1:0:0:
242,31,201087,1,0,0:0:0:0:
152,0,201281,1,8,3:2:0:0:
177,73,201474,1,2,0:0:0:0:
242,31,201668,1,0,3:0:0:0:
87,77,201861,22,0,B|58:117|60:165,1,92.9999971618653,2|8,0:0|3:2,0:0:0:0:
212,254,202248,1,2,0:0:0:0:
212,254,202345,1,0,1:0:0:0:
212,254,202442,2,0,B|240:213|239:166,1,92.9999971618653,0|0,3:0|0:2,0:0:0:0:
213,178,202732,1,0,0:0:0:0:
186,187,202829,1,8,3:2:0:0:
220,331,203022,1,2,0:0:0:0:
353,263,203216,1,0,3:0:0:0:
291,220,203410,53,0,1:0:0:0:
358,369,203603,1,8,3:2:0:0:
196,355,203797,1,0,1:0:0:0:
434,280,203990,54,0,B|479:311|479:381,1,92.9999971618653,2|0,3:2|0:0,0:0:0:0:
292,317,204377,1,8,3:2:0:0:
253,227,204571,1,0,0:0:0:0:
247,204,204668,1,0,1:0:0:0:
241,181,204764,1,0,3:0:0:0:
296,118,204958,1,2,0:0:0:0:
340,255,205151,1,8,3:2:0:0:
213,299,205345,53,2,2:0:0:0:
208,305,205442,1,0,1:0:0:0:
203,311,205539,2,0,B|132:281|46:286,1,139.499995742798,2|0,3:2|0:0,0:0:0:0:
98,307,205926,2,0,B|120:264|118:218,1,92.9999971618653,8|0,3:2|0:0,0:0:0:0:
113,212,206216,1,0,1:0:0:0:
108,206,206313,1,2,3:2:0:0:
67,121,206506,1,0,1:0:0:0:
128,46,206700,2,0,B|203:84|183:168,1,139.499995742798,10|0,3:2|1:0,0:0:0:0:
159,134,207087,54,0,B|209:126|250:96,1,92.9999971618653,2|0,3:2|0:0,0:0:0:0:
303,286,207474,2,0,B|289:237|255:208,1,92.9999971618653,8|0,3:2|0:0,0:0:0:0:
251,215,207764,1,0,1:0:0:0:
248,222,207861,1,0,3:0:0:0:
353,192,208055,1,0,0:0:0:0:
327,87,208248,1,8,3:2:0:0:
327,87,208442,1,0,0:0:0:0:
406,258,208635,54,0,L|504:280,1,92.9999971618653,2|0,3:2|0:0,0:0:0:0:
353,192,209022,1,8,3:2:0:0:
269,296,209216,1,2,0:0:0:0:
254,314,209313,1,0,1:0:0:0:
240,332,209410,2,0,B|193:329|146:349,1,92.9999971618653,0|0,3:2|0:0,0:0:0:0:
217,148,209797,2,0,B|237:190|278:220,1,92.9999971618653,8|0,3:2|0:0,0:0:0:0:
346,162,210087,53,0,1:0:0:0:
334,167,210184,2,0,B|313:251|317:362,1,185.999994323731,2|8,3:2|3:2,0:0:0:0:
172,253,210764,1,2,0:0:0:0:
162,263,210861,1,0,1:0:0:0:
152,273,210958,1,0,3:0:0:0:
116,203,211151,1,0,1:0:0:0:
191,182,211345,1,8,3:2:0:0:
228,307,211539,53,0,0:0:0:0:
234,319,211636,1,0,1:0:0:0:
240,332,211733,1,0,3:0:0:0:
137,299,211926,1,0,0:0:0:0:
202,204,212119,1,10,3:2:0:0:
263,249,212313,1,0,0:0:0:0:
139,336,212506,53,2,3:2:0:0:
86,200,212700,1,0,0:0:0:0:
224,154,212893,1,10,3:2:0:0:
277,290,213087,1,0,0:2:0:0:
129,121,213281,38,0,B|142:75|136:18,1,92.9999971618653,6|0,3:2|0:0,0:0:0:0:
41,0,213668,1,8,3:2:0:0:
59,164,213861,1,0,0:0:0:0:
72,182,213958,1,0,1:0:0:0:
86,200,214055,1,0,3:0:0:0:
193,162,214248,1,0,1:0:0:0:
105,82,214442,1,10,3:2:0:0:
173,258,214635,1,2,0:0:0:0:
177,271,214732,1,0,1:0:0:0:
182,283,214829,1,0,3:0:0:0:
182,283,215216,70,0,B|228:269|282:311,1,92.9999971618653,10|0,3:2|2:0,3:0:0:0:
275,312,215506,1,0,1:0:0:0:
281,322,215603,1,2,3:2:0:0:
368,352,215797,1,0,0:0:0:0:
405,262,215990,1,8,3:2:0:0:
317,233,216184,37,2,0:0:0:0:
310,223,216281,1,0,1:0:0:0:
303,213,216377,1,0,3:0:0:0:
395,154,216571,1,0,0:0:0:0:
405,262,216764,1,8,3:2:0:0:
320,134,216958,69,2,0:0:0:0:
433,187,217151,1,0,3:0:0:0:
422,309,217345,1,0,1:0:0:0:
309,256,217539,1,10,3:2:0:0:
397,99,217732,37,0,1:0:0:0:
406,83,217829,1,0,1:0:0:0:
415,66,217926,2,0,B|418:117|433:169,1,92.9999971618653,2|0,3:2|0:0,0:0:0:0:
349,15,218313,1,8,3:2:0:0:
243,177,218506,69,0,0:0:0:0:
234,193,218603,1,0,1:0:0:0:
225,210,218700,2,0,B|222:159|207:107,1,92.9999971618653,2|0,3:2|0:0,0:0:0:0:
287,274,219087,1,8,3:2:0:0:
287,274,219474,37,2,3:2:0:0:
172,322,219668,1,0,0:0:0:0:
105,221,219861,1,8,3:2:0:0:
166,173,220055,69,0,1:0:0:0:
176,182,220151,1,0,1:0:0:0:
186,191,220248,1,0,3:0:0:0:
102,266,220442,1,0,0:0:0:0:
30,179,220635,1,8,3:2:0:0:
68,111,220829,37,2,0:0:0:0:
81,107,220926,1,0,1:0:0:0:
94,102,221022,2,0,B|175:95|231:73,1,139.499995742798,0|0,3:2|0:0,0:0:0:0:
200,54,221410,2,0,B|182:98|185:146,1,92.9999971618653,10|0,3:2|0:0,0:0:0:0:
365,224,221797,2,0,B|382:179|379:131,1,92.9999971618653,2|0,3:2|0:0,0:0:0:0:
237,214,222184,69,8,3:2:0:0:
365,303,222377,1,0,0:0:0:0:
240,384,222571,2,0,B|237:337|262:283,1,92.9999971618653,2|0,3:2|0:0,0:0:0:0:
290,148,222958,1,8,3:2:0:0:
195,23,223151,38,0,B|215:66|212:113,1,92.9999971618653,2|0,0:2|3:0,0:0:0:0:
312,231,223539,1,0,0:0:0:0:
164,275,223732,1,8,3:2:0:0:
135,198,223926,1,2,0:0:0:0:
217,212,224119,1,2,3:1:0:0:
0,383,224410,21,2,3:1:0:0:
94,131,224700,5,2,3:1:0:0:
160,330,224893,2,0,B|134:322|134:322|117:304|117:304|60:283,1,92.9999971618653,10|0,0:1|1:2,0:0:0:0:
72,281,225184,1,0,1:0:0:0:
67,273,225281,1,0,1:0:0:0:
240,228,225474,1,0,1:0:0:0:
147,133,225668,102,0,B|149:180|159:224,1,92.9999971618653,2|0,3:1|0:0,0:0:0:0:
294,292,225958,2,0,B|339:290|384:273,1,92.9999971618653,2|0,3:1|0:0,0:0:0:0:
414,201,226248,2,0,B|417:176|409:155,1,46.4999985809327,2|0,3:1|0:0,0:0:0:0:
270,111,226442,1,2,3:1:0:0:
325,56,226635,85,0,1:0:0:0:
293,189,226829,1,2,3:2:0:0:
190,106,227022,1,8,0:3:0:0:
493,168,227216,53,6,3:2:0:0:
493,168,227410,1,0,0:0:0:0:
465,260,227603,1,0,0:0:0:0:
346,92,227797,69,6,3:2:0:0:
346,92,227991,1,0,0:0:0:0:
374,0,228184,1,0,1:0:0:0:
199,153,228377,37,0,1:0:0:0:
206,178,228474,1,0,1:0:0:0:
214,204,228571,1,2,3:2:0:0:
87,327,228958,69,4,3:2:0:0:
118,202,229151,1,0,1:0:0:0:
39,222,229345,5,0,1:0:0:0:
46,238,229442,1,0,1:0:0:0:
53,254,229539,1,0,3:0:0:0:
198,320,229732,1,2,3:2:0:0:
353,264,229926,2,0,B|413:244,2,46.4999985809327,12|0|0,3:2|1:0|1:0,0:0:0:0:
211,200,230313,69,4,3:1:0:0:
290,157,230506,1,2,0:0:0:0:
251,238,230700,1,8,3:2:0:0:
235,149,230893,1,2,0:0:0:0:
300,212,231087,1,0,3:0:0:0:
182,196,231281,37,2,0:0:0:0:
315,143,231474,1,8,3:2:0:0:
238,263,231668,1,2,0:2:0:0:
230,120,231861,1,0,3:0:0:0:
320,232,232055,1,2,0:0:0:0:
160,185,232248,5,8,3:2:0:0:
339,139,232441,1,2,0:2:0:0:
221,281,232635,1,0,3:2:0:0:
233,96,232828,1,2,0:0:0:0:
331,253,233022,1,8,3:2:0:0:
173,343,233216,1,2,1:2:0:0:
157,333,233313,1,0,1:0:0:0:
141,324,233410,1,2,3:2:0:0:
141,324,233797,54,0,B|138:277|121:221,1,92.9999971618653,8|0,3:2|0:0,0:0:0:0:
249,140,234184,1,0,3:2:0:0:
243,107,234281,1,0,1:0:0:0:
237,75,234377,1,2,0:0:0:0:
156,141,234571,1,8,3:2:0:0:
224,211,234764,1,2,0:0:0:0:
305,145,234958,37,0,3:0:0:0:
258,279,235151,1,2,0:0:0:0:
124,232,235345,1,8,3:2:0:0:
171,98,235539,5,2,0:0:0:0:
164,102,235635,1,0,1:0:0:0:
157,106,235732,1,0,3:2:0:0:
188,179,235926,1,2,0:0:0:0:
273,73,236119,1,0,1:2:0:0:
242,0,236313,1,2,0:0:0:0:
224,254,236506,54,0,B|317:223|412:227,1,185.999994323731,0|8,3:2|3:2,0:0:0:0:
469,177,237087,1,2,0:0:0:0:
399,74,237281,1,0,3:0:0:0:
300,153,237474,1,0,0:0:0:0:
441,154,237668,2,0,B|456:113|443:52,1,92.9999971618653,10|0,3:2|0:0,0:0:0:0:
224,254,238055,37,6,3:2:0:0:
213,286,238151,1,0,1:0:0:0:
220,320,238248,1,0,1:0:0:0:
243,346,238345,1,0,1:0:0:0:
275,358,238442,1,2,0:0:0:0:
359,321,238635,2,0,B|346:276|347:224,1,92.9999971618653,6|0,3:2|0:0,0:0:0:0:
111,223,239022,5,2,1:2:0:0:
106,190,239119,1,0,1:0:0:0:
102,157,239216,2,0,B|89:168|89:168|6:192,1,92.9999971618653,6|0,1:2|0:0,0:0:0:0:
274,194,239603,53,4,3:1:0:0:
249,71,239796,1,2,0:0:0:0:
338,156,239990,1,8,3:2:0:0:
216,140,240183,1,2,0:0:0:0:
326,80,240377,1,0,3:0:0:0:
254,229,240571,37,2,0:0:0:0:
242,32,240764,1,8,3:2:0:0:
365,184,240958,1,2,0:2:0:0:
175,133,241151,1,0,3:0:0:0:
360,63,241345,1,2,0:0:0:0:
231,252,241539,5,8,3:2:0:0:
246,0,241731,1,2,0:2:0:0:
382,213,241925,1,0,3:2:0:0:
146,119,242118,1,2,0:0:0:0:
393,58,242312,1,8,3:2:0:0:
298,180,242506,54,0,L|228:162,1,46.4999985809327,0|0,1:0|1:0,0:0:0:0:
148,82,242700,1,0,3:0:0:0:
148,82,243087,1,8,3:2:0:0:
76,115,243281,1,2,0:0:0:0:
48,108,243377,1,0,1:0:0:0:
21,100,243474,1,0,3:0:0:0:
74,7,243668,1,2,0:0:0:0:
148,82,243861,1,8,3:2:0:0:
95,175,244055,1,2,0:2:0:0:
26,210,244248,37,0,3:2:0:0:
182,171,244442,1,2,0:0:0:0:
137,325,244635,1,8,3:2:0:0:
95,175,244829,5,2,0:0:0:0:
119,188,244926,1,0,1:0:0:0:
143,200,245022,1,0,3:0:0:0:
209,362,245216,1,2,0:0:0:0:
35,382,245410,1,8,3:2:0:0:
113,302,245603,1,0,0:0:0:0:
312,384,245797,54,0,B|294:323|294:230,1,139.499995742798,4|0,3:2|0:0,0:0:0:0:
334,276,246184,2,0,B|332:229|352:182,1,92.9999971618653,8|0,3:2|0:0,0:0:0:0:
295,136,246474,1,0,1:0:0:0:
288,142,246571,1,2,3:2:0:0:
377,225,246764,1,0,0:0:0:0:
474,155,246958,1,8,3:2:0:0:
402,23,247151,37,2,0:2:0:0:
379,40,247248,1,0,1:0:0:0:
356,56,247345,1,0,3:0:0:0:
390,144,247539,1,2,0:0:0:0:
467,77,247732,1,8,3:2:0:0:
282,93,247926,5,2,0:0:0:0:
341,257,248119,1,0,3:0:0:0:
341,257,248216,1,0,1:0:0:0:
341,257,248313,1,2,0:0:0:0:
495,194,248506,1,8,3:2:0:0:
409,154,248700,2,0,P|400:176|394:203,1,46.4999985809327,0|0,1:0|1:0,0:0:0:0:
511,337,248893,54,0,B|390:287|431:368|341:379,1,185.999994323731,2|8,3:2|3:2,0:0:0:0:
233,321,249474,1,2,0:0:0:0:
229,302,249571,1,0,1:0:0:0:
226,283,249668,1,0,3:0:0:0:
294,209,249861,1,2,0:0:0:0:
318,300,250055,1,8,3:2:0:0:
148,351,250248,37,0,1:0:0:0:
121,360,250345,1,0,1:0:0:0:
94,369,250442,2,0,B|111:314|111:314|132:298|132:298|150:233,1,139.499995742798,6|0,3:2|1:0,0:0:0:0:
97,186,250829,1,8,3:2:0:0:
359,167,251022,6,0,B|343:94|343:94|311:69|311:69|297:-6,1,185.999994323731,6|0,3:2|3:0,0:0:0:0:
237,149,251603,69,14,3:2:0:0:
237,149,251700,2,0,L|249:213,1,58.1250022172929,0|0,1:0|0:0,0:0:0:0:
252,224,251990,1,6,3:1:0:0:
252,224,252377,1,8,3:2:0:0:
189,272,252571,2,0,P|164:229|162:155,1,116.250004434586,2|0,0:0|0:0,0:0:0:0:
169,178,253151,2,0,L|98:192,1,58.1250022172929,8|0,3:2|0:0,0:0:0:0:
41,120,253539,2,0,L|97:108,1,58.1250022172929,0|0,3:0|0:0,0:0:0:0:
95,268,253926,5,10,3:2:0:0:
24,312,254119,1,0,0:0:0:0:
18,230,254313,1,2,3:2:0:0:
112,289,254506,1,0,0:0:0:0:
54,384,254700,1,10,3:2:0:0:
196,302,254893,101,0,1:0:0:0:
203,311,254990,1,0,1:0:0:0:
210,319,255087,2,0,L|190:196,1,116.250004434586,2|8,3:2|3:2,0:0:0:0:
272,148,255668,1,0,0:0:0:0:
331,225,255861,2,0,B|337:257|312:294,1,58.1250022172929,0|0,3:2|0:0,0:0:0:0:
384,332,256248,2,0,B|408:310|453:313,1,58.1250022172929,10|0,3:2|0:0,0:0:0:0:
427,307,256539,1,0,1:0:0:0:
416,301,256635,1,0,3:0:0:0:
456,167,256829,5,0,1:0:0:0:
505,254,257022,1,8,3:2:0:0:
416,301,257216,1,0,0:0:0:0:
367,214,257410,1,2,3:2:0:0:
222,271,257603,101,0,1:2:0:0:
216,264,257700,1,0,1:2:0:0:
207,256,257797,1,10,3:2:0:0:
211,245,257893,1,0,1:2:0:0:
215,234,257990,1,2,0:3:0:0:
165,162,258184,22,0,B|128:131|80:139,1,85.2500026016236,6|0,3:1|0:0,0:0:0:0:
257,126,258571,2,2,B|300:74|289:6,1,127.875003902435,8|0,3:2|1:0,0:1:0:0:
260,43,258958,1,0,3:0:0:0:
353,148,259151,1,2,0:0:0:0:
353,148,259248,1,2,0:0:0:0:
353,148,259345,1,8,3:2:0:0:
251,229,259539,6,0,B|246:242|246:242|265:315,1,85.2500026016236,2|0,0:1|3:0,0:0:0:0:
326,359,259926,1,2,0:1:0:0:
350,330,260022,1,2,0:0:0:0:
341,293,260119,1,8,3:2:0:0:
251,229,260313,1,0,0:0:0:0:
162,273,260506,101,0,3:0:0:0:
297,223,260700,1,2,0:0:0:0:
213,99,260893,1,8,3:2:0:0:
78,149,261087,1,0,0:0:0:0:
89,161,261184,1,0,0:0:0:0:
99,174,261281,2,0,B|95:129|112:76,1,85.2500026016236,0|0,3:0|0:0,0:0:0:0:
143,306,261668,6,0,L|59:323,1,85.2500026016236,8|0,3:2|0:0,0:0:0:0:
222,335,262055,1,0,3:0:0:0:
249,307,262151,1,0,1:0:0:0:
282,322,262248,1,0,1:0:0:0:
311,296,262345,1,0,1:0:0:0:
343,309,262442,1,10,3:2:0:0:
424,269,262635,2,0,L|492:282,2,42.6250013008118,2|0|0,0:0|1:0|3:0,0:0:0:0:
290,109,263022,101,2,0:1:0:0:
306,138,263119,1,2,0:0:0:0:
320,170,263216,1,8,3:2:0:0:
362,59,263410,1,0,0:0:0:0:
230,166,263603,1,2,3:1:0:0:
357,250,263797,1,2,0:2:0:0:
373,222,263893,1,0,1:0:0:0:
376,191,263990,1,8,3:2:0:0:
367,160,264087,1,0,1:0:0:0:
345,137,264184,1,2,0:0:0:0:
206,80,264377,6,0,B|153:95|153:95|140:113|140:113|74:132,1,127.875003902435,6|0,3:1|0:0,0:0:0:0:
39,70,264764,2,0,B|73:90|128:99,1,85.2500026016236,8|0,3:2|0:2,0:2:0:0:
75,288,265151,1,0,3:0:0:0:
88,247,265248,1,0,1:0:0:0:
57,220,265345,1,2,0:0:0:0:
0,275,265539,1,8,3:2:0:0:
146,362,265732,101,2,0:0:0:0:
150,373,265829,1,0,1:0:0:0:
155,384,265926,2,0,B|193:366|247:367,1,85.2500026016236,0|0,3:0|0:0,0:0:0:0:
341,237,266313,1,8,3:2:0:0:
279,190,266506,1,2,0:0:0:0:
265,206,266602,1,0,1:0:0:0:
252,222,266700,1,0,3:0:0:0:
259,242,266796,1,0,1:0:0:0:
266,262,266893,1,2,0:0:0:0:
326,383,267087,1,8,3:2:0:0:
385,326,267281,5,2,0:0:0:0:
387,317,267377,1,0,1:0:0:0:
390,309,267474,2,0,B|391:267|410:212,1,85.2500026016236,2|0,3:1|0:0,0:0:0:0:
273,94,267861,2,0,B|240:156|155:147,1,127.875003902435,8|0,3:2|1:0,0:0:0:0:
142,116,268248,2,0,L|195:134,1,42.6250013008118,0|0,3:0|1:0,0:0:0:0:
224,224,268442,1,2,0:0:0:0:
80,58,268635,2,0,B|42:69|42:69|29:81|29:81|-16:94,1,85.2500026016236,8|0,3:2|0:0,0:0:0:0:
190,300,269022,101,6,3:1:0:0:
378,217,269216,1,4,0:3:0:0:
213,96,269410,1,0,3:1:0:0:
330,298,269603,6,0,B|392:299|455:355,1,127.875003902435,6|0,3:1|0:0,0:0:0:0:
431,304,269990,1,8,3:2:0:0:
255,356,270184,2,0,B|219:386|160:378,1,85.2500026016236,8|0,3:1|0:0,0:0:0:0:
19,244,270571,101,6,3:1:0:0:
60,157,270764,1,0,0:0:0:0:
123,237,270958,1,8,3:2:0:0:
187,64,271151,5,0,1:0:0:0:
184,74,271248,1,0,1:0:0:0:
181,83,271345,2,0,B|197:122|197:167|197:167,1,85.2500026016236,0|0,3:2|0:0,0:0:0:0:
212,292,271732,1,8,3:2:0:0:
282,201,271926,101,2,0:0:0:0:
304,219,272022,1,0,1:0:0:0:
324,238,272119,1,0,3:0:0:0:
294,124,272313,2,0,L|282:65,1,42.6250013008118,2|2,0:1|0:0,0:0:0:0:
329,274,272506,2,0,B|330:318|355:372,1,85.2500026016236,8|0,3:2|0:0,0:0:0:0:
361,325,272797,1,0,1:0:0:0:
361,325,272893,1,0,3:0:0:0:
390,172,273087,1,2,0:0:0:0:
512,269,273281,1,8,3:2:0:0:
418,263,273474,5,2,0:0:0:0:
398,243,273571,1,0,1:0:0:0:
378,227,273668,1,2,3:1:0:0:
301,168,273861,1,0,0:0:0:0:
382,122,274055,1,8,3:2:0:0:
459,181,274248,1,0,0:1:0:0:
270,244,274442,101,2,3:1:0:0:
249,250,274539,1,0,1:0:0:0:
228,256,274635,1,2,2:0:0:0:
173,135,274829,1,8,3:2:0:0:
294,80,275022,1,2,0:1:0:0:
151,222,275216,6,0,B|107:220|55:240,1,85.2500026016236,0|2,3:0|0:1,0:0:0:0:
102,255,275506,1,0,0:0:0:0:
102,255,275603,1,8,3:2:0:0:
173,135,275797,1,2,0:0:0:0:
183,116,275893,1,0,1:0:0:0:
193,97,275990,1,0,3:0:0:0:
64,145,276184,101,2,0:0:0:0:
223,268,276377,1,8,3:2:0:0:
244,289,276473,1,0,1:0:0:0:
252,320,276570,1,2,0:0:0:0:
245,351,276668,1,2,1:2:0:0:
224,375,276764,2,0,B|221:350|198:319,1,42.6250013008118,6|2,3:1|0:0,0:0:0:0:
306,200,276958,2,0,B|312:157|350:106,1,85.2500026016236,2|8,0:0|3:2,0:0:0:0:
486,155,277345,5,2,0:0:0:0:
461,163,277442,1,0,1:0:0:0:
437,172,277539,1,0,3:0:0:0:
365,47,277732,1,2,0:0:0:0:
495,6,277926,1,8,3:2:0:0:
427,99,278119,101,2,0:0:0:0:
435,92,278216,1,0,1:0:0:0:
444,86,278313,1,0,3:0:0:0:
501,202,278506,1,2,0:0:0:0:
385,259,278700,1,8,3:2:0:0:
328,143,278893,1,2,0:0:0:0:
495,238,279087,5,2,3:1:0:0:
317,311,279281,1,2,0:2:0:0:
341,121,279474,1,8,3:2:0:0:
416,320,279668,101,0,1:0:0:0:
395,346,279764,1,0,1:0:0:0:
366,376,279861,2,0,B|410:366|410:366|446:375|446:375|502:365,1,127.875003902435,2|0,3:1|0:0,0:0:0:0:
512,298,280248,2,0,B|479:331|441:343,1,85.2500026016236,8|0,3:2|0:0,0:0:0:0:
257,317,280635,5,0,3:2:0:0:
268,336,280732,1,0,1:0:0:0:
278,353,280829,1,2,0:0:0:0:
363,203,281022,2,0,B|385:166|389:122,1,85.2500026016236,8|0,3:2|0:0,0:0:0:0:
157,180,281410,101,6,3:1:0:0:
250,263,281603,1,8,0:3:0:0:
276,141,281797,1,4,3:0:0:0:
114,250,281990,5,6,3:1:0:0:
340,194,282184,1,4,0:3:0:0:
199,109,282377,1,4,3:0:0:0:
255,335,282571,1,12,3:2:0:0:
454,218,282764,1,2,3:1:0:0:
58,166,282958,69,4,0:1:0:0:
