osu file format v14

[General]
AudioFilename: audio.mp3
AudioLeadIn: 0
PreviewTime: 70910
Countdown: 0
SampleSet: Soft
StackLeniency: 0.4
Mode: 0
LetterboxInBreaks: 0
WidescreenStoryboard: 0

[Editor]
Bookmarks: 172285,211386,296330,301049
DistanceSpacing: 1.1
BeatDivisor: 4
GridSize: 8
TimelineZoom: 1.9

[Metadata]
Title:kiraful chain (Club Edit)
TitleUnicode:キラフルチェイン (Club Edit)
Artist:irucaice x Ichinose LUPO x Twinfield x Capchii
ArtistUnicode:irucaice × 市瀬るぽ × Twinfield × Capchii
Creator:gazimal
Version:Future
Source:
Tags:vocaloid japanese electronic on prism records hatsune miku 初音ミク キラハピ kirahapi
BeatmapID:4502645
BeatmapSetID:2139428

[Difficulty]
HPDrainRate:5
CircleSize:4
OverallDifficulty:9
ApproachRate:9.4
SliderMultiplier:1.8
SliderTickRate:1

[Events]
//Background and Video events
0,0,"106037097_p0_waifu2x_art_noise3_scale (1).png",0,0
//Break Periods
//Storyboard Layer 0 (Background)
//Storyboard Layer 1 (Fail)
//Storyboard Layer 2 (Pass)
//Storyboard Layer 3 (Foreground)
//Storyboard Layer 4 (Overlay)
//Storyboard Sound Samples

[TimingPoints]
-972,337.078651685393,4,2,0,60,1,0
1724,-76.9230769230769,4,2,1,55,0,0
1977,-76.9230769230769,4,2,1,5,0,0
2061,-133.333333333333,4,2,1,55,0,0
4421,-76.9230769230769,4,2,1,55,0,0
4674,-76.9230769230769,4,2,1,5,0,0
4758,-133.333333333333,4,2,1,55,0,0
6780,-83.3333333333333,4,2,1,55,0,0
7033,-76.9230769230769,4,2,1,5,0,0
7117,-83.3333333333333,4,2,1,55,0,0
7370,-76.9230769230769,4,2,1,5,0,0
7454,-133.333333333333,4,2,1,55,0,0
9814,-83.3333333333333,4,2,1,55,0,0
10067,-76.9230769230769,4,2,1,5,0,0
10151,-133.333333333333,4,2,1,55,0,0
11162,-76.9230769230769,4,2,1,55,0,0
11499,-133.333333333333,4,2,1,55,0,0
12005,-76.9230769230769,4,2,1,55,0,0
12131,-76.9230769230769,4,2,1,5,0,0
12174,-133.333333333333,4,2,1,55,0,0
12342,-76.9230769230769,4,2,1,55,0,0
12469,-76.9230769230769,4,2,1,5,0,0
12511,-76.9230769230769,4,2,1,55,0,0
12763,-76.9230769230769,4,2,1,5,0,0
12848,-133.333333333333,4,2,1,55,0,0
15207,-83.3333333333333,4,2,1,55,0,0
15460,-76.9230769230769,4,2,1,5,0,0
15544,-83.3333333333333,4,2,1,55,0,0
15713,-133.333333333333,4,2,1,55,0,0
16556,-83.3333333333333,4,2,1,55,0,0
16808,-76.9230769230769,4,2,1,5,0,0
16893,-133.333333333333,4,2,1,55,0,0
17230,-100,4,2,1,55,0,0
18157,-76.9230769230769,4,2,1,5,0,0
18241,-133.333333333333,4,2,1,55,0,0
19252,-83.3333333333333,4,2,1,55,0,0
19505,-76.9230769230769,4,2,1,5,0,0
19589,-100,4,2,1,55,0,0
19926,-133.333333333333,4,2,1,55,0,0
21443,-100,4,2,1,55,0,0
21612,-80,4,2,1,55,0,0
21780,-66.6666666666667,4,2,1,55,0,0
21949,-1000,4,2,1,55,0,0
23297,-1000,4,2,2,55,0,0
25994,-133.333333333333,4,2,1,50,0,0
26668,-133.333333333333,4,2,1,45,0,0
27174,-200,4,2,1,45,0,0
36696,-76.9230769230769,4,2,1,5,0,0
36780,-66.6666666666667,4,2,1,60,0,0
37454,-133.333333333333,4,2,2,60,0,0
37623,-133.333333333333,4,2,1,60,0,0
37876,-76.9230769230769,4,2,1,5,0,0
37960,-133.333333333333,4,2,1,60,0,0
38466,-83.3333333333333,4,2,1,60,0,0
38719,-76.9230769230769,4,2,1,5,0,0
38803,-250,4,2,1,60,0,0
39477,-66.6666666666667,4,2,1,60,0,0
39983,-133.333333333333,4,2,1,60,0,0
40151,-133.333333333333,4,2,3,60,0,0
41162,-83.3333333333333,4,2,3,60,0,0
41415,-76.9230769230769,4,2,1,5,0,0
41499,-250,4,2,3,60,0,0
41836,-83.3333333333333,4,2,1,60,0,0
42089,-76.9230769230769,4,2,1,5,0,0
42174,-133.333333333333,4,2,1,60,0,0
42848,-100,4,2,3,60,0,0
43101,-76.9230769230769,4,2,1,5,0,0
43185,-100,4,2,3,60,0,0
43522,-133.333333333333,4,2,3,60,0,0
43859,-100,4,2,3,60,0,0
44112,-76.9230769230769,4,2,1,5,0,0
44196,-133.333333333333,4,2,1,60,0,0
44870,-100,4,2,1,60,0,0
45376,-133.333333333333,4,2,1,60,0,0
45544,-250,4,2,1,60,0,0
46893,-133.333333333333,4,2,2,60,0,0
47567,-250,4,2,1,50,0,0
58353,-76.9230769230769,4,2,1,65,0,0
58606,-76.9230769230769,4,2,1,5,0,0
58690,-76.9230769230769,4,2,1,65,0,0
59702,-83.3333333333333,4,2,1,65,0,0
59954,-76.9230769230769,4,2,1,5,0,0
60039,-83.3333333333333,4,2,1,65,0,0
61303,-76.9230769230769,4,2,1,5,0,0
61387,-83.3333333333333,4,2,1,65,0,0
61640,-76.9230769230769,4,2,1,5,0,0
61724,-71.4285714285714,4,2,1,65,0,0
61977,-76.9230769230769,4,2,1,5,0,0
62061,-71.4285714285714,4,2,1,65,0,0
62230,-133.333333333333,4,2,1,65,0,0
62398,-76.9230769230769,4,2,1,65,0,0
62651,-76.9230769230769,4,2,1,5,0,0
62735,-76.9230769230769,4,2,1,65,0,0
63072,-76.9230769230769,4,2,1,65,0,0
63410,-100,4,2,1,65,0,0
63747,-66.6666666666667,4,2,1,65,0,0
64252,-100,4,2,1,65,0,0
64758,-83.3333333333333,4,2,1,65,0,0
66106,-100,4,2,1,65,0,0
66443,-71.4285714285714,4,2,1,65,0,0
66696,-76.9230769230769,4,2,1,5,0,0
66780,-71.4285714285714,4,2,1,65,0,0
66949,-100,4,2,1,65,0,0
67117,-133.333333333333,4,2,1,65,0,0
69140,-1000,4,2,1,65,0,0
69224,-76.9230769230769,4,2,1,5,0,0
70404,-76.9230769230769,4,2,1,5,0,0
70488,-133.333333333333,4,2,1,45,0,0
70530,-76.9230769230769,4,2,1,5,0,0
71836,-58.8235294117647,4,2,1,80,0,1
72089,-58.8235294117647,4,2,1,5,0,1
72174,-100,4,2,1,80,0,1
72342,-76.9230769230769,4,2,1,80,0,1
72679,-66.6666666666667,4,2,1,80,0,1
73438,-58.8235294117647,4,2,1,5,0,1
73522,-66.6666666666667,4,2,1,80,0,1
73690,-83.3333333333333,4,2,1,80,0,1
74196,-100,4,2,1,80,0,1
74449,-58.8235294117647,4,2,1,5,0,1
74533,-66.6666666666667,4,2,1,80,0,1
74786,-58.8235294117647,4,2,1,5,0,1
74870,-66.6666666666667,4,2,1,80,0,1
75292,-58.8235294117647,4,2,1,5,0,1
75376,-100,4,2,1,80,0,1
75713,-66.6666666666667,4,2,1,80,0,1
75966,-58.8235294117647,4,2,1,5,0,1
76050,-100,4,2,1,80,0,1
76556,-71.4285714285714,4,2,1,80,0,1
77483,-58.8235294117647,4,2,1,5,0,1
77567,-100,4,2,1,80,0,1
78578,-71.4285714285714,4,2,1,80,0,1
78831,-58.8235294117647,4,2,1,5,0,1
78915,-71.4285714285714,4,2,1,80,0,1
79758,-100,4,2,1,80,0,1
79926,-71.4285714285714,4,2,1,80,0,1
80179,-58.8235294117647,4,2,1,5,0,1
80263,-100,4,2,1,80,0,1
80432,-66.6666666666667,4,2,1,80,0,1
80769,-100,4,2,1,80,0,1
81106,-66.6666666666667,4,2,1,80,0,1
81443,-100,4,2,1,80,0,1
82623,-58.8235294117647,4,2,1,80,0,1
82876,-58.8235294117647,4,2,1,5,0,1
82960,-100,4,2,1,80,0,1
83129,-76.9230769230769,4,2,1,80,0,1
83297,-66.6666666666667,4,2,1,80,0,1
84224,-58.8235294117647,4,2,1,5,0,1
84308,-66.6666666666667,4,2,1,80,0,1
84477,-100,4,2,1,80,0,1
84645,-76.9230769230769,4,2,1,80,0,1
84983,-100,4,2,1,80,0,1
85235,-58.8235294117647,4,2,1,5,0,1
85320,-55.5555555555556,4,2,1,80,0,1
85572,-58.8235294117647,4,2,1,5,0,1
85657,-55.5555555555556,4,2,1,80,0,1
86078,-58.8235294117647,4,2,1,5,0,1
86162,-100,4,2,1,80,0,1
86499,-55.5555555555556,4,2,1,80,0,1
86752,-58.8235294117647,4,2,1,5,0,1
86836,-55.5555555555556,4,2,1,80,0,1
87342,-100,4,2,1,80,0,1
88016,-55.5555555555556,4,2,1,80,0,1
88269,-58.8235294117647,4,2,1,5,0,1
88353,-100,4,2,1,80,0,1
88522,-55.5555555555556,4,2,1,80,0,1
88775,-58.8235294117647,4,2,1,5,0,1
88859,-100,4,2,1,80,0,1
89027,-76.9230769230769,4,2,1,80,0,1
89702,-55.5555555555556,4,2,2,80,0,1
89954,-58.8235294117647,4,2,1,5,0,1
90039,-200,4,2,1,80,0,1
90713,-55.5555555555556,4,2,1,80,0,1
90966,-58.8235294117647,4,2,1,5,0,1
91050,-100,4,2,1,80,0,1
91219,-55.5555555555556,4,2,1,80,0,1
91471,-58.8235294117647,4,2,1,5,0,1
91556,-100,4,2,1,80,0,1
92398,-100,4,2,1,80,0,1
93410,-66.6666666666667,4,2,3,80,0,1
93494,-66.6666666666667,4,2,1,80,0,1
93662,-58.8235294117647,4,2,1,5,0,1
93747,-83.3333333333333,4,2,1,80,0,1
95432,-66.6666666666667,4,2,3,80,0,1
95685,-58.8235294117647,4,2,1,5,0,1
95769,-250,4,2,1,80,0,1
96106,-66.6666666666667,4,2,1,70,0,1
96695,-58.8235294117647,4,2,1,5,0,1
96780,337.078651685393,4,2,1,65,1,0
96780,-45.4545454545455,4,2,1,65,0,0
97454,-45.4545454545455,4,2,2,65,0,0
97580,-45.4545454545455,4,2,2,5,0,0
97622,-90.9090909090909,4,2,2,65,0,0
97875,-90.9090909090909,4,2,2,5,0,0
97959,-133.333333333333,4,2,1,65,0,0
98128,-333.333333333333,4,2,1,65,0,0
98802,-100,4,2,2,65,0,0
98971,-100,4,2,1,65,0,0
99139,-76.9230769230769,4,2,1,65,0,0
99392,-90.9090909090909,4,2,2,5,0,0
99476,-45.4545454545455,4,2,1,65,0,0
99729,-90.9090909090909,4,2,2,5,0,0
99813,-133.333333333333,4,2,2,65,0,0
100150,-66.6666666666667,4,2,2,65,0,0
100277,-90.9090909090909,4,2,2,5,0,0
100319,-100,4,2,1,65,0,0
100487,-100,4,2,3,65,0,0
100824,-45.4545454545455,4,2,1,65,0,0
101246,-90.9090909090909,4,2,2,5,0,0
101330,-45.4545454545455,4,2,1,65,0,0
101499,-71.4285714285714,4,2,2,65,0,0
101751,-90.9090909090909,4,2,2,5,0,0
101836,-200,4,2,2,65,0,0
101878,-90.9090909090909,4,2,2,5,0,0
102004,-200,4,2,2,65,0,0
102046,-90.9090909090909,4,2,2,5,0,0
102173,-45.4545454545455,4,2,1,65,0,0
102426,-90.9090909090909,4,2,2,5,0,0
102510,-83.3333333333333,4,2,1,65,0,0
102847,-66.6666666666667,4,2,2,65,0,0
103184,-66.6666666666667,4,2,1,65,0,0
104195,-66.6666666666667,4,2,3,65,0,0
104322,-90.9090909090909,4,2,2,5,0,0
104364,-133.333333333333,4,2,3,65,0,0
104532,-133.333333333333,4,2,1,65,0,0
104617,-90.9090909090909,4,2,2,5,0,0
104701,-133.333333333333,4,2,1,65,0,0
104869,-45.4545454545455,4,2,1,65,0,0
105122,-90.9090909090909,4,2,2,5,0,0
105206,-133.333333333333,4,2,3,65,0,0
105544,-58.8235294117647,4,2,1,65,0,0
105670,-90.9090909090909,4,2,2,5,0,0
105712,-45.4545454545455,4,2,1,65,0,0
105881,-45.4545454545455,4,2,2,65,0,0
106007,-90.9090909090909,4,2,2,5,0,0
106049,-100,4,2,1,65,0,0
106218,-50,4,2,1,65,0,0
106260,-90.9090909090909,4,2,2,5,0,0
106555,-100,4,2,1,65,0,0
106892,-76.9230769230769,4,2,3,65,0,0
107566,-55.5555555555556,4,2,1,65,0,0
107819,-90.9090909090909,4,2,2,5,0,0
107903,-100,4,2,1,65,0,0
108240,-66.6666666666667,4,2,1,65,0,0
108577,-100,4,2,1,65,0,0
108914,-66.6666666666667,4,2,1,65,0,0
109251,-100,4,2,1,65,0,0
109588,-200,4,2,1,65,0,0
109757,-200,4,2,1,50,0,0
109926,-100,4,2,1,50,0,0
110178,-90.9090909090909,4,2,2,5,0,0
110263,-45.4545454545455,4,2,1,65,0,0
110515,-90.9090909090909,4,2,2,5,0,0
110600,-100,4,2,1,65,0,0
110768,-133.333333333333,4,2,1,65,0,0
112285,-76.9230769230769,4,2,1,65,0,0
112454,-200,4,2,2,45,0,0
112959,-43.4782608695652,4,2,1,70,0,0
113212,-90.9090909090909,4,2,2,5,0,0
113296,-83.3333333333333,4,2,1,70,0,0
113633,-83.3333333333333,4,2,1,65,0,0
113802,-100,4,2,1,65,0,0
113971,-125,4,2,1,65,0,0
114139,-166.666666666667,4,2,1,65,0,0
114308,-50,4,2,1,65,0,0
114603,-90.9090909090909,4,2,2,5,0,0
114645,-66.6666666666667,4,2,1,65,0,0
115656,-66.6666666666667,4,2,1,55,0,0
116330,-66.6666666666667,4,2,1,60,0,0
119701,-66.6666666666667,4,2,1,50,0,0
120544,-200,4,2,1,50,0,0
120712,-133.333333333333,4,2,1,50,0,0
120965,-90.9090909090909,4,2,2,5,0,0
121049,-133.333333333333,4,2,1,50,0,0
123072,-200,4,2,1,50,0,0
123409,-133.333333333333,4,2,1,50,0,0
123662,-90.9090909090909,4,2,2,5,0,0
123746,-133.333333333333,4,2,1,50,0,0
125768,-200,4,2,1,50,0,0
126358,-90.9090909090909,4,2,2,5,0,0
126442,-133.333333333333,4,2,1,50,0,0
126527,-90.9090909090909,4,2,2,5,0,0
127622,-133.333333333333,4,2,1,50,0,0
127959,-200,4,2,1,50,0,0
129139,-133.333333333333,4,2,2,50,0,0
131751,-90.9090909090909,4,2,2,5,0,0
131836,-100,4,2,2,55,0,0
132088,-90.9090909090909,4,2,2,5,0,0
132173,-133.333333333333,4,2,2,55,0,0
132847,-200,4,2,2,55,0,0
133184,-100,4,2,2,55,0,0
135206,-200,4,2,2,55,0,0
135881,-133.333333333333,4,2,2,55,0,0
136808,-90.9090909090909,4,2,2,5,0,0
136892,-133.333333333333,4,2,2,55,0,0
137903,-200,4,2,2,55,0,0
138072,-166.666666666667,4,2,2,55,0,0
138240,-142.857142857143,4,2,2,55,0,0
138409,-125,4,2,2,55,0,0
138577,-111.111111111111,4,2,2,55,0,0
139251,-100,4,2,2,55,0,0
139926,-83.3333333333333,4,2,2,60,0,0
140178,-90.9090909090909,4,2,2,5,0,0
140263,-83.3333333333333,4,2,2,60,0,0
140600,-100,4,2,2,60,0,0
141527,-90.9090909090909,4,2,2,5,0,0
141611,-133.333333333333,4,2,2,60,0,0
142622,-83.3333333333333,4,2,2,60,0,0
142875,-90.9090909090909,4,2,2,5,0,0
142959,-83.3333333333333,4,2,2,60,0,0
143128,-100,4,2,2,60,0,0
143549,-90.9090909090909,4,2,2,5,0,0
143633,-133.333333333333,4,2,2,60,0,0
145235,-90.9090909090909,4,2,2,5,0,0
145319,-83.3333333333333,4,2,2,60,0,0
145572,-90.9090909090909,4,2,2,5,0,0
145656,-83.3333333333333,4,2,2,60,0,0
145824,-133.333333333333,4,2,2,60,0,0
145993,-100,4,2,2,60,0,0
146920,-90.9090909090909,4,2,2,5,0,0
147004,-133.333333333333,4,2,2,60,0,0
147931,-90.9090909090909,4,2,2,5,0,0
148015,-83.3333333333333,4,2,2,60,0,0
148268,-90.9090909090909,4,2,2,5,0,0
148353,-83.3333333333333,4,2,4,65,0,0
148521,-83.3333333333333,4,2,1,65,0,0
148690,-83.3333333333333,4,2,4,65,0,0
149279,-83.3333333333333,4,2,1,65,0,0
149364,-100,4,2,4,65,0,0
149532,-100,4,2,1,65,0,0
149701,-100,4,2,2,65,0,0
149869,-100,4,2,3,65,0,0
150038,-100,4,2,4,65,0,0
150122,-100,4,2,1,65,0,0
150375,-66.6666666666667,4,2,4,65,0,0
150712,-66.6666666666667,4,2,4,60,0,0
150965,-90.9090909090909,4,2,2,5,0,0
151049,-66.6666666666667,4,2,1,60,0,0
151386,-100,4,2,2,60,0,0
151723,-100,4,2,1,60,0,0
151892,-83.3333333333333,4,2,2,60,0,0
152145,-90.9090909090909,4,2,2,5,0,0
152229,-100,4,2,2,60,0,0
152397,-100,4,2,1,60,0,0
152735,-100,4,2,2,60,0,0
153072,-100,4,2,1,60,0,0
153409,-66.6666666666667,4,2,2,60,0,0
153662,-66.6666666666667,4,2,1,60,0,0
153746,-133.333333333333,4,2,1,60,0,0
154083,-100,4,2,2,60,0,0
154251,-100,4,2,1,60,0,0
154420,-71.4285714285714,4,2,2,60,0,0
155094,-133.333333333333,4,2,1,60,0,0
155431,-100,4,2,2,60,0,0
155768,-100,4,2,1,60,0,0
156105,-66.6666666666667,4,2,2,60,0,0
156358,-90.9090909090909,4,2,2,5,0,0
156442,-83.3333333333333,4,2,1,60,0,0
156779,-83.3333333333333,4,2,2,60,0,0
157117,-83.3333333333333,4,2,1,60,0,0
157285,-100,4,2,2,60,0,0
157454,-76.9230769230769,4,2,2,60,0,0
157791,-71.4285714285714,4,2,1,60,0,0
158044,-90.9090909090909,4,2,2,5,0,0
158128,-71.4285714285714,4,2,2,60,0,0
158296,-100,4,2,2,60,0,0
158465,-100,4,2,1,60,0,0
158633,-100,4,2,2,60,0,0
158802,-71.4285714285714,4,2,2,60,0,0
158971,-71.4285714285714,4,2,1,65,0,0
159055,-90.9090909090909,4,2,2,5,0,0
159139,-71.4285714285714,4,2,4,65,0,0
159308,-71.4285714285714,4,2,1,65,0,0
159476,-71.4285714285714,4,2,4,65,0,0
159982,-200,4,2,4,65,0,0
160319,-200,4,2,1,65,0,0
160656,-200,4,2,2,65,0,0
160909,-200,4,2,1,65,0,0
160993,-200,4,2,2,65,0,0
161162,-333.333333333333,4,2,1,65,0,0
161414,-90.9090909090909,4,2,2,5,0,0
161499,-58.8235294117647,4,2,1,60,0,0
162004,-200,4,2,1,60,0,0
162173,-66.6666666666667,4,2,1,60,0,0
162678,-200,4,2,1,60,0,0
162847,-333.333333333333,4,2,1,60,0,0
163521,-66.6666666666667,4,2,1,60,0,0
163647,-90.9090909090909,4,2,2,5,0,0
163690,-133.333333333333,4,2,1,60,0,0
164195,-66.6666666666667,4,2,1,60,0,0
164448,-90.9090909090909,4,2,2,5,0,0
164532,-100,4,2,1,60,0,0
164701,-83.3333333333333,4,2,1,60,0,0
165038,-133.333333333333,4,2,1,60,0,0
165206,-76.9230769230769,4,2,1,60,0,0
165459,-90.9090909090909,4,2,2,5,0,0
165544,-76.9230769230769,4,2,1,60,0,0
166218,-100,4,2,1,60,0,0
166555,-76.9230769230769,4,2,1,60,0,0
166808,-90.9090909090909,4,2,2,5,0,0
166892,-66.6666666666667,4,2,1,60,0,0
167145,-90.9090909090909,4,2,2,5,0,0
167229,-200,4,2,1,60,0,0
167903,-66.6666666666667,4,2,1,60,0,0
168156,-90.9090909090909,4,2,2,5,0,0
168240,-100,4,2,1,60,0,0
169588,-58.8235294117647,4,2,1,60,0,0
169841,-90.9090909090909,4,2,2,5,0,0
169926,-100,4,2,1,60,0,0
170937,-58.8235294117647,4,2,1,60,0,0
171737,-90.9090909090909,4,2,2,5,0,0
171779,-133.333333333333,4,2,1,60,0,0
171948,-58.8235294117647,4,2,1,60,0,0
172074,-90.9090909090909,4,2,2,5,0,0
172117,-133.333333333333,4,2,1,60,0,0
172285,-133.333333333333,4,2,1,65,0,0
178353,-200,4,2,1,65,0,0
180375,-83.3333333333333,4,2,1,65,0,0
181049,-83.3333333333333,4,2,1,70,0,0
183072,-55.5555555555556,4,2,1,80,0,1
183324,-55.5555555555556,4,2,1,5,0,1
183409,-55.5555555555556,4,2,1,80,0,1
183914,-66.6666666666667,4,2,1,80,0,1
184673,-55.5555555555556,4,2,1,5,0,1
184757,-66.6666666666667,4,2,1,80,0,1
184926,-83.3333333333333,4,2,1,80,0,1
185431,-100,4,2,1,80,0,1
185684,-55.5555555555556,4,2,1,5,0,1
185768,-66.6666666666667,4,2,1,80,0,1
186021,-55.5555555555556,4,2,1,5,0,1
186105,-66.6666666666667,4,2,1,80,0,1
186527,-55.5555555555556,4,2,1,5,0,1
186611,-83.3333333333333,4,2,1,80,0,1
186948,-66.6666666666667,4,2,1,80,0,1
187201,-55.5555555555556,4,2,1,5,0,1
187285,-100,4,2,1,80,0,1
187791,-76.9230769230769,4,2,1,80,0,1
188465,-58.8235294117647,4,2,1,80,0,1
188718,-55.5555555555556,4,2,1,5,0,1
188802,-100,4,2,1,80,0,1
189813,-71.4285714285714,4,2,1,80,0,1
190066,-55.5555555555556,4,2,1,5,0,1
190150,-71.4285714285714,4,2,1,80,0,1
190487,-83.3333333333333,4,2,1,80,0,1
191077,-55.5555555555556,4,2,1,5,0,1
191162,-71.4285714285714,4,2,1,80,0,1
191414,-55.5555555555556,4,2,1,5,0,1
191499,-83.3333333333333,4,2,1,80,0,1
192004,-100,4,2,1,80,0,1
192341,-66.6666666666667,4,2,1,80,0,1
192847,-100,4,2,1,80,0,1
193858,-55.5555555555556,4,2,1,80,0,1
194111,-55.5555555555556,4,2,1,5,0,1
194195,-100,4,2,1,80,0,1
194701,-76.9230769230769,4,2,1,80,0,1
195459,-55.5555555555556,4,2,1,5,0,1
195544,-76.9230769230769,4,2,1,80,0,1
195712,-100,4,2,1,80,0,1
195881,-76.9230769230769,4,2,1,80,0,1
196555,-55.5555555555556,4,2,1,80,0,1
196808,-55.5555555555556,4,2,1,5,0,1
196892,-55.5555555555556,4,2,1,80,0,1
197313,-55.5555555555556,4,2,1,5,0,1
197397,-100,4,2,1,80,0,1
197735,-66.6666666666667,4,2,1,80,0,1
197987,-55.5555555555556,4,2,1,5,0,1
198072,-66.6666666666667,4,2,1,80,0,1
198577,-100,4,2,1,80,0,1
199251,-55.5555555555556,4,2,1,80,0,1
199504,-55.5555555555556,4,2,1,5,0,1
199588,-100,4,2,1,80,0,1
199757,-58.8235294117647,4,2,1,80,0,1
200010,-55.5555555555556,4,2,1,5,0,1
200094,-100,4,2,1,80,0,1
200263,-76.9230769230769,4,2,1,80,0,1
200937,-55.5555555555556,4,2,2,80,0,1
201190,-55.5555555555556,4,2,1,5,0,1
201274,-200,4,2,1,80,0,1
201948,-55.5555555555556,4,2,1,80,0,1
202201,-55.5555555555556,4,2,1,5,0,1
202285,-100,4,2,1,80,0,1
202454,-55.5555555555556,4,2,1,80,0,1
202706,-55.5555555555556,4,2,1,5,0,1
202791,-100,4,2,1,80,0,1
203465,-133.333333333333,4,2,1,80,0,1
203886,-55.5555555555556,4,2,1,5,0,1
203971,-133.333333333333,4,2,1,80,0,1
204645,-66.6666666666667,4,2,1,80,0,0
204897,-55.5555555555556,4,2,1,5,0,0
204982,-100,4,2,1,70,0,0
205150,-76.9230769230769,4,2,1,70,0,0
205656,-200,4,2,1,70,0,0
205993,-66.6666666666667,4,2,1,70,0,0
206246,-55.5555555555556,4,2,1,5,0,0
206330,-200,4,2,1,70,0,0
206499,-83.3333333333333,4,2,1,70,0,0
207004,-100,4,2,1,70,0,0
207341,-58.8235294117647,4,2,1,70,0,0
207594,-55.5555555555556,4,2,1,5,0,0
207678,-58.8235294117647,4,2,1,70,0,0
208100,-55.5555555555556,4,2,1,5,0,0
208184,-58.8235294117647,4,2,1,70,0,0
208437,-55.5555555555556,4,2,1,5,0,0
208521,-83.3333333333333,4,2,1,70,0,0
210038,-71.4285714285714,4,2,1,70,0,0
211049,-133.333333333333,4,2,1,70,0,0
213409,-133.333333333333,4,2,1,75,0,0
214083,-133.333333333333,4,2,1,80,0,0
214757,-133.333333333333,4,2,1,90,0,1
215431,-76.9230769230769,4,2,1,80,0,0
216274,-100,4,2,1,80,0,0
217285,-76.9230769230769,4,2,1,80,0,0
217622,-100,4,2,1,80,0,0
218128,-55.5555555555556,4,2,1,80,0,0
218381,-55.5555555555556,4,2,1,5,0,0
218465,-100,4,2,1,80,0,0
218633,-55.5555555555556,4,2,1,80,0,0
218886,-55.5555555555556,4,2,1,5,0,0
218971,-333.333333333333,4,2,1,80,0,0
219223,-55.5555555555556,4,2,1,5,0,0
219308,-55.5555555555556,4,2,1,80,0,0
219560,-55.5555555555556,4,2,1,5,0,0
219645,-55.5555555555556,4,2,1,80,0,0
220150,-100,4,2,1,80,0,0
220993,-66.6666666666667,4,2,1,80,0,0
221330,-100,4,2,1,80,0,0
221499,-66.6666666666667,4,2,1,80,0,0
221836,-100,4,2,1,80,0,0
222257,-55.5555555555556,4,2,1,5,0,0
222341,-200,4,2,1,80,0,0
223521,-100,4,2,1,80,0,0
223690,-58.8235294117647,4,2,1,80,0,0
223942,-55.5555555555556,4,2,1,5,0,0
224027,-100,4,2,1,80,0,0
224195,-66.6666666666667,4,2,1,80,0,0
224532,-100,4,2,1,80,0,0
224954,-55.5555555555556,4,2,1,5,0,0
225038,-100,4,2,1,80,0,0
226218,-66.6666666666667,4,2,1,70,0,0
226723,-100,4,2,1,70,0,0
226892,-166.666666666667,4,2,3,70,0,0
227566,-83.3333333333334,4,2,3,70,0,0
228240,-100,4,2,3,70,0,0
229588,-100,4,2,1,70,0,0
230515,-55.5555555555556,4,2,1,5,0,0
230600,-100,4,2,1,70,0,0
230937,-133.333333333333,4,2,2,70,0,0
231611,-76.9230769230769,4,2,1,70,0,0
231864,-55.5555555555556,4,2,1,5,0,0
231948,-100,4,2,1,70,0,0
232117,-133.333333333333,4,2,1,70,0,0
232791,-100,4,2,1,70,0,0
233296,-133.333333333333,4,2,1,70,0,0
233633,-133.333333333333,4,2,3,70,0,0
234308,-100,4,2,3,70,0,0
234982,-100,4,2,1,70,0,0
235572,-55.5555555555556,4,2,1,5,0,0
235656,-133.333333333333,4,2,1,70,0,0
236330,-133.333333333333,4,2,2,70,0,0
237004,-100,4,2,1,70,0,0
237510,-133.333333333333,4,2,1,70,0,0
238942,-55.5555555555556,4,2,1,5,0,0
239027,-133.333333333333,4,2,3,70,0,0
239701,-83.3333333333333,4,2,3,70,0,0
239954,-55.5555555555556,4,2,1,5,0,0
240038,-100,4,2,3,70,0,0
240375,-100,4,2,1,70,0,0
241133,-55.5555555555556,4,2,1,5,0,0
241218,-100,4,2,1,70,0,0
241723,-100,4,2,2,70,0,0
241976,-55.5555555555556,4,2,1,5,0,0
242060,-133.333333333333,4,2,2,70,0,0
242313,-55.5555555555556,4,2,1,5,0,0
242397,-76.9230769230769,4,2,1,75,0,0
242650,-55.5555555555556,4,2,1,5,0,0
242735,-133.333333333333,4,2,1,75,0,0
242903,-83.3333333333333,4,2,1,75,0,0
243240,-133.333333333333,4,2,1,75,0,0
243409,-76.9230769230769,4,2,1,75,0,0
244083,-76.9230769230769,4,2,1,70,0,0
244336,-55.5555555555556,4,2,1,5,0,0
244420,-100,4,2,2,70,0,0
245010,-55.5555555555556,4,2,1,5,0,0
245094,-83.3333333333333,4,2,1,70,0,0
245600,-133.333333333333,4,2,1,70,0,0
247032,-55.5555555555556,4,2,1,5,0,0
247117,-83.3333333333333,4,2,2,70,0,0
247369,-55.5555555555556,4,2,1,5,0,0
247454,-83.3333333333333,4,2,1,70,0,0
252510,-250,4,2,1,40,0,0
253184,-250,4,2,1,45,0,0
255038,-250,4,2,1,45,0,0
257229,-500,4,2,1,45,0,0
258577,-200,4,2,1,45,0,0
261105,-200,4,2,1,55,0,0
261274,-133.333333333333,4,2,1,55,0,0
262622,-250,4,2,2,55,0,0
262706,-250,4,2,2,30,0,0
263296,-250,4,2,2,55,0,0
263971,-58.8235294117647,4,2,1,80,0,1
264223,-58.8235294117647,4,2,1,5,0,1
264308,-100,4,2,1,80,0,1
264476,-76.9230769230769,4,2,1,80,0,1
265319,-66.6666666666667,4,2,1,80,0,1
265572,-58.8235294117647,4,2,1,5,0,1
265656,-66.6666666666667,4,2,1,80,0,1
265824,-100,4,2,1,80,0,1
265993,-76.9230769230769,4,2,1,80,0,1
266667,-55.5555555555556,4,2,1,80,0,1
266920,-58.8235294117647,4,2,1,5,0,1
267004,-100,4,2,1,80,0,1
267173,-50,4,2,1,80,0,1
267426,-58.8235294117647,4,2,1,5,0,1
267510,-100,4,2,1,80,0,1
267847,-55.5555555555556,4,2,1,80,0,1
268100,-58.8235294117647,4,2,1,5,0,1
268184,-55.5555555555556,4,2,1,80,0,1
268690,-100,4,2,1,80,0,1
269364,-52.6315789473684,4,2,1,80,0,1
269617,-58.8235294117647,4,2,1,5,0,1
269701,-100,4,2,1,80,0,1
269869,-66.6666666666667,4,2,1,80,0,1
270122,-58.8235294117647,4,2,1,5,0,1
270206,-66.6666666666667,4,2,1,80,0,1
270459,-58.8235294117647,4,2,1,5,0,1
270544,-66.6666666666667,4,2,1,80,0,1
270796,-58.8235294117647,4,2,1,5,0,1
270881,-66.6666666666667,4,2,1,80,0,1
271049,-66.6666666666667,4,2,2,80,0,1
271302,-58.8235294117647,4,2,1,5,0,1
271386,-200,4,2,1,80,0,1
271723,-55.5555555555556,4,2,1,80,0,1
271976,-58.8235294117647,4,2,1,5,0,1
272060,-55.5555555555556,4,2,1,85,0,1
272313,-58.8235294117647,4,2,1,5,0,1
272397,-50,4,2,1,85,0,1
272566,-55.5555555555556,4,2,1,85,0,1
272819,-58.8235294117647,4,2,1,5,0,1
272903,-50,4,2,1,85,0,1
273240,-55.5555555555556,4,2,1,85,0,1
273493,-58.8235294117647,4,2,1,5,0,1
273577,-55.5555555555556,4,2,1,85,0,1
273746,-200,4,2,1,85,0,1
274757,-66.6666666666667,4,2,1,85,0,0
274926,-66.6666666666667,4,2,1,65,0,0
275010,-58.8235294117647,4,2,1,5,0,0
275094,-133.333333333333,4,2,1,65,0,0
277454,-76.9230769230769,4,2,1,65,0,0
277706,-58.8235294117647,4,2,1,5,0,0
277791,-133.333333333333,4,2,1,65,0,0
279813,-76.9230769230769,4,2,1,65,0,0
280066,-58.8235294117647,4,2,1,5,0,0
280150,-83.3333333333333,4,2,1,65,0,0
280403,-58.8235294117647,4,2,1,5,0,0
280487,-133.333333333333,4,2,1,65,0,0
282847,-83.3333333333333,4,2,1,65,0,0
283100,-58.8235294117647,4,2,1,5,0,0
283184,-133.333333333333,4,2,1,65,0,0
284195,-76.9230769230769,4,2,1,65,0,0
284532,-133.333333333333,4,2,1,65,0,0
285038,-76.9230769230769,4,2,1,65,0,0
285164,-58.8235294117647,4,2,1,5,0,0
285206,-133.333333333333,4,2,1,65,0,0
285375,-76.9230769230769,4,2,1,65,0,0
285501,-58.8235294117647,4,2,1,5,0,0
285544,-83.3333333333333,4,2,1,65,0,0
285796,-58.8235294117647,4,2,1,5,0,0
285881,-133.333333333333,4,2,1,65,0,0
287566,-100,4,2,1,65,0,0
288240,-83.3333333333333,4,2,1,65,0,0
288409,-58.8235294117647,4,2,1,5,0,0
288577,-83.3333333333333,4,2,1,65,0,0
289083,-133.333333333333,4,2,1,65,0,0
289588,-83.3333333333333,4,2,1,65,0,0
289841,-58.8235294117647,4,2,1,5,0,0
289926,-133.333333333333,4,2,1,65,0,0
290263,-100,4,2,1,65,0,0
290937,-83.3333333333333,4,2,1,65,0,0
291190,-58.8235294117647,4,2,1,5,0,0
291274,-83.3333333333333,4,2,1,65,0,0
291611,-133.333333333333,4,2,1,65,0,0
292285,-83.3333333333333,4,2,1,65,0,0
292538,-58.8235294117647,4,2,1,5,0,0
292622,-83.3333333333333,4,2,1,65,0,0
292959,-100,4,2,1,65,0,0
296330,-200,4,2,1,65,0,0
296414,-58.8235294117647,4,2,1,5,0,0

[Colours]
Combo1 : 192,192,192
Combo2 : 0,255,255

[HitObjects]
256,192,1724,6,0,L|84:228,1,175.499991966248,6|0,3:2|0:0,0:0:0:0:
2,244,2061,2,0,L|16:177,1,67.5000025749208,0|2,3:3|2:3,0:0:0:0:
61,90,2398,1,0,3:3:0:0:
61,90,2483,2,0,L|27:97,2,33.7500012874604,2|0|2,2:3|0:0|2:3,0:0:0:0:
123,26,2735,1,0,3:3:0:0:
123,26,2904,1,2,2:3:0:0:
197,140,3072,6,0,P|164:133|147:105,1,67.5000025749208,2|2,3:2|2:3,0:0:0:0:
147,105,3325,1,2,2:3:0:0:
147,105,3410,1,0,3:3:0:0:
84,227,3578,1,2,2:3:0:0:
226,285,3747,1,2,3:2:0:0:
139,342,3915,2,0,L|146:308,1,33.7500012874604,8|2,2:1|2:3,0:0:0:0:
21,283,4084,2,0,L|35:349,1,67.5000025749208,8|2,3:2|2:3,0:0:0:0:
259,384,4421,6,0,B|277:316|355:329|355:329|370:358|402:366,1,175.499991966248,2|0,3:2|0:0,0:0:0:0:
424,292,4758,2,0,P|441:263|435:231,1,67.5000025749208,0|2,3:3|2:3,0:0:0:0:
352,160,5095,1,0,3:3:0:0:
352,160,5179,2,0,P|359:180|382:194,2,33.7500012874604,2|0|2,2:3|0:0|2:3,0:0:0:0:
336,70,5432,1,0,3:3:0:0:
336,70,5601,1,2,2:3:0:0:
482,110,5769,6,0,L|415:95,1,67.5000025749208,0|2,3:3|2:3,0:0:0:0:
285,174,6106,2,0,L|351:159,1,67.5000025749208,0|2,3:3|2:3,0:0:0:0:
247,22,6443,2,0,L|239:55,1,33.7500012874604,2|0,3:2|0:0,0:0:0:0:
206,129,6612,1,2,2:3:0:0:
206,129,6696,1,2,2:3:0:0:
206,129,6780,2,0,B|178:122|166:97|166:97|136:77|84:84|65:130,1,161.999995056153,2|2,3:3|2:3,0:0:0:0:
46,214,7117,6,0,B|-6:202|-3:140|-3:140|10:181|49:189,1,161.999995056153,2|0,3:2|0:0,0:0:0:0:
125,244,7454,2,0,P|107:275|82:293,1,67.5000025749208,0|0,3:3|0:0,0:0:0:0:
13,358,7792,1,0,3:3:0:0:
13,358,7876,2,0,L|5:324,2,33.7500012874604,2|0|2,0:3|2:3|2:3,0:0:0:0:
100,379,8129,1,0,3:3:0:0:
100,379,8297,1,2,2:3:0:0:
239,342,8466,6,0,L|172:327,1,67.5000025749208,0|2,3:3|2:3,0:0:0:0:
173,327,8719,1,2,0:3:0:0:
173,327,8803,1,0,3:3:0:0:
259,259,8971,1,2,0:3:0:0:
324,384,9140,2,0,L|391:369,1,67.5000025749208,2|2,3:2|2:3,0:0:0:0:
389,369,9393,1,2,2:3:0:0:
389,369,9477,1,0,3:3:0:0:
351,289,9645,1,2,2:3:0:0:
468,351,9814,6,0,P|521:296|491:226,1,161.999995056153,2|0,3:2|0:0,0:0:0:0:
422,189,10151,2,0,P|399:166|395:133,1,67.5000025749208,0|0,3:3|0:0,0:0:0:0:
493,79,10488,1,0,3:3:0:0:
493,79,10572,2,0,L|459:86,2,33.7500012874604,2|0|2,0:3|2:3|2:3,0:0:0:0:
387,54,10825,1,0,3:3:0:0:
387,54,10994,1,2,2:3:0:0:
304,164,11162,6,0,L|317:101,1,58.4999973220826,2|0,3:2|0:0,0:0:0:0:
239,31,11331,1,2,2:3:0:0:
239,31,11415,1,2,2:3:0:0:
239,31,11499,2,0,L|246:64,1,33.7500012874604,0|0,3:3|0:0,0:0:0:0:
180,121,11668,2,0,L|187:154,1,33.7500012874604,2|2,2:3|2:3,0:0:0:0:
255,233,11836,5,2,3:3:0:0:
255,233,11921,1,2,2:3:0:0:
255,233,12005,2,0,L|236:318,1,87.749995983124,2|0,2:3|0:0,0:0:0:0:
236,318,12174,2,0,L|269:310,1,33.7500012874604,0|0,3:3|0:0,0:0:0:0:
370,286,12342,6,0,L|351:371,1,87.749995983124,2|0,2:3|0:0,0:0:0:0:
351,371,12511,6,0,L|387:199,1,175.499991966248,6|0,3:2|0:0,0:0:0:0:
401,124,12848,1,0,3:3:0:0:
310,84,13016,2,0,L|324:150,1,67.5000025749208,2|0,2:3|3:3,0:0:0:0:
387,36,13353,1,2,0:3:0:0:
387,36,13438,1,2,2:3:0:0:
387,36,13522,1,0,3:3:0:0:
467,66,13690,1,2,2:3:0:0:
470,213,13859,6,0,L|484:146,1,67.5000025749208,0|2,3:3|2:3,0:0:0:0:
484,146,14112,1,2,2:3:0:0:
484,146,14196,1,0,3:3:0:0:
387,199,14365,1,2,2:3:0:0:
446,351,14533,2,0,P|480:342|512:336,1,67.5000025749208,2|0,3:2|0:0,0:0:0:0:
511,336,14786,1,2,2:3:0:0:
511,336,14870,1,0,3:3:0:0:
411,278,15039,1,2,2:3:0:0:
320,384,15207,6,0,P|255:340|259:262,1,161.999995056153,2|0,3:2|0:0,0:0:0:0:
300,196,15544,1,0,3:3:0:0:
157,182,15713,2,0,P|195:183|227:208,1,67.5000025749208,2|0,2:3|3:3,0:0:0:0:
135,315,16050,1,2,0:3:0:0:
135,315,16134,1,2,2:3:0:0:
135,315,16219,6,0,L|131:299,6,16.8750006437302,2|2|2|2|2|2|2,3:3|0:3|2:3|0:3|2:3|0:3|0:3,0:0:0:0:
67,384,16556,6,0,L|30:211,1,161.999995056153,2|2,3:2|2:3,0:0:0:0:
19,151,16893,2,0,P|45:130|77:133,1,67.5000025749208,0|2,3:3|2:3,0:0:0:0:
157,182,17145,1,0,0:0:0:0:
157,182,17230,2,0,P|196:163|213:122,1,90,2|2,3:2|2:3,0:0:0:0:
213,122,17483,1,2,2:3:0:0:
213,122,17567,1,2,3:3:0:0:
134,62,17735,1,0,0:0:0:0:
245,44,17904,6,0,B|248:-8|182:-6|182:-6|211:14|214:47,1,135,2|0,3:2|0:0,0:0:0:0:
307,106,18241,2,0,P|339:114|371:126,1,67.5000025749208,0|0,3:3|0:0,0:0:0:0:
475,57,18578,2,0,L|441:64,1,33.7500012874604,2|0,3:3|0:0,0:0:0:0:
497,139,18747,1,2,2:3:0:0:
497,139,18831,1,2,2:3:0:0:
497,139,18915,2,0,L|463:146,1,33.7500012874604,2|0,3:3|0:0,0:0:0:0:
286,188,19084,5,2,2:3:0:0:
286,188,19168,1,2,2:3:0:0:
286,188,19252,2,0,P|363:212|438:243,1,161.999995056153,2|0,3:2|0:0,0:0:0:0:
468,317,19589,2,0,B|498:311|503:283|503:283|490:304|470:311,1,90,0|0,3:3|0:0,0:0:0:0:
367,369,19926,2,0,P|372:338|381:302,1,67.5000025749208,0|2,3:3|2:3,0:0:0:0:
381,302,20179,1,2,2:3:0:0:
381,302,20263,1,0,3:3:0:0:
287,372,20432,1,2,2:3:0:0:
137,238,20601,5,0,3:3:0:0:
243,289,20769,1,0,3:3:0:0:
106,345,20938,5,0,3:3:0:0:
256,192,21106,1,0,3:3:0:0:
40,252,21275,6,0,P|41:233|48:215,1,33.7500012874604,0|0,3:3|0:0,0:0:0:0:
3,137,21443,2,0,P|26:120|51:117,1,45,0|0,3:3|0:0,0:0:0:0:
78,18,21612,2,0,P|105:24|128:39,1,56.25,0|0,3:3|0:0,0:0:0:0:
246,12,21780,2,0,P|260:47|260:86,1,67.5000025749208,0|0,3:3|0:0,0:0:0:0:
256,192,21949,5,2,3:2:0:0:
256,192,22623,1,2,2:2:0:0:
256,192,23297,5,2,3:2:0:0:
331,211,23803,5,0,0:0:0:0:
297,121,24308,5,0,0:0:0:0:
139,112,24814,5,0,0:0:0:0:
23,216,25320,5,0,0:0:0:0:
29,201,25657,1,0,0:0:0:0:
128,324,25994,6,0,B|163:308|158:258|158:258|150:300|125:312,1,135.000005149842,6|0,3:2|0:0,0:0:0:0:
75,383,26668,2,0,P|136:361|206:354,1,135.000005149842,2|2,2:2|2:2,0:0:0:0:
306,351,27174,2,0,P|287:338|275:319,2,45,2|0|0,2:2|0:0|0:0,0:0:0:0:
344,276,27679,2,0,P|372:241|383:198,2,90,2|2|2,2:2|2:2|2:2,0:0:0:0:
298,202,28690,6,0,P|279:189|267:170,3,45,2|0|0|0,2:2|0:0|0:0|0:0,0:0:0:0:
182,171,29365,2,0,P|183:148|193:128,3,45,2|0|0|0,0:0|0:0|0:0|0:0,0:0:0:0:
150,55,30039,2,0,P|169:44|192:43,3,45,2|0|0|0,0:0|0:0|0:0|0:0,0:0:0:0:
287,67,30713,6,0,P|291:46|296:22,1,45,2|0,2:2|0:0,0:0:0:0:
367,83,31050,2,0,P|371:62|376:38,1,45,2|0,2:2|0:0,0:0:0:0:
463,37,31387,6,0,P|453:79|444:125,1,90,2|0,2:2|0:0,0:0:0:0:
425,240,32061,2,0,P|442:255|467:263,2,45,2|0|0,2:2|0:0|0:0,0:0:0:0:
330,170,32567,2,0,P|308:177|289:194,2,45,2|0|0,2:2|0:0|0:0,0:0:0:0:
277,298,33072,2,0,P|240:273|176:263,2,90,2|2|2,2:2|2:2|2:2,0:0:0:0:
153,184,34084,6,0,P|138:201|119:213,1,45,2|0,2:2|0:0,0:0:0:0:
110,304,34421,2,0,P|87:299|67:289,1,45,2|0,2:2|0:0,0:0:0:0:
110,304,34758,1,2,2:2:0:0:
28,205,35095,2,0,P|34:182|37:160,1,45,2|0,2:2|0:0,0:0:0:0:
68,39,35432,6,0,P|42:34|24:28,3,45,2|0|2|0,2:3|0:0|2:3|0:0,0:0:0:0:
153,102,36106,2,0,P|127:107|109:113,1,45,2|0,2:3|0:0,0:0:0:0:
215,24,36443,2,0,P|242:41|280:49,1,67.5,2|0,2:3|0:0,0:0:0:0:
353,64,36780,6,0,B|377:53|385:16|385:16|418:73|393:125|344:148|344:148|323:125|297:124,1,270.000010299683,4|0,3:2|0:0,0:0:0:0:
299,124,37286,2,0,B|278:140|278:140|330:118,1,67.5000025749208,0|0,3:3|0:0,0:0:0:0:
486,33,37454,2,0,L|493:66,1,33.7500012874604,10|0,2:2|0:0,0:0:0:0:
465,132,37623,2,0,L|486:32,1,101.250003862381,8|0,2:2|0:0,0:0:0:0:
416,0,37960,6,0,P|382:8|349:14,2,67.5000025749208,2|2|0,2:2|2:2|0:0,0:0:0:0:
299,124,38466,2,0,P|229:106|140:90,1,161.999995056153,2|0,3:2|0:0,0:0:0:0:
140,90,38803,2,0,L|132:54,1,36,2|0,2:2|0:0,0:0:0:0:
59,110,39140,2,0,L|51:74,1,36,2|0,2:2|0:0,0:0:0:0:
114,175,39477,6,0,B|124:245|66:293|1:267|1:267|-6:231|10:201|40:196,1,270.000010299683,2|2,3:2|2:2,0:0:0:0:
38,196,39983,2,0,L|71:203,1,33.7500012874604,0|0,3:3|0:0,0:0:0:0:
219,259,40151,2,0,P|252:256|281:240,1,67.5000025749208,10|0,2:2|0:0,0:0:0:0:
206,358,40488,2,0,P|268:332|335:325,1,135.000005149842,2|0,2:2|0:0,0:0:0:0:
126,302,41162,6,0,P|78:236|123:170,1,161.999995056153,2|0,3:2|0:0,0:0:0:0:
113,174,41499,2,0,P|128:164|136:148,1,36,10|0,2:2|2:2,0:0:0:0:
174,36,41836,2,0,P|96:52|15:69,1,161.999995056153,2|0,3:2|0:0,0:0:0:0:
15,69,42174,6,0,B|3:49|-23:42|-23:42|16:30|42:58|31:104,1,135.000005149842,2|0,3:2|0:0,0:0:0:0:
33,86,42679,2,0,P|41:71|59:59,1,33.7500012874604,2|0,3:2|0:0,0:0:0:0:
174,36,42848,2,0,P|227:74|294:73,1,135,10|0,2:2|0:0,0:0:0:0:
294,72,43185,1,2,2:2:0:0:
345,7,43353,1,2,2:2:0:0:
444,95,43522,6,0,P|411:89|379:79,1,67.5000025749208,2|0,2:2|0:0,0:0:0:0:
470,197,43859,2,0,B|519:189|521:131|521:131|504:165|479:167,1,135,2|0,3:2|0:0,0:0:0:0:
397,170,44196,2,0,P|363:163|332:150,1,67.5000025749208,10|0,2:2|0:0,0:0:0:0:
444,95,44533,1,2,2:2:0:0:
444,95,44702,1,2,2:2:0:0:
294,72,44870,6,0,P|216:94|131:151,1,180,0|0,3:3|0:0,0:0:0:0:
134,148,45376,2,0,L|141:114,1,33.7500012874604,0|0,3:3|0:0,0:0:0:0:
81,24,45544,2,0,L|88:59,1,36,8|0,2:2|0:0,0:0:0:0:
10,60,45881,1,2,0:3:0:0:
10,60,46050,1,0,0:0:0:0:
43,164,46219,6,0,L|52:117,2,36,2|0|0,0:3|0:0|0:0,0:0:0:0:
6,247,46724,2,0,L|23:243,1,18,0|0,3:3|0:0,0:0:0:0:
134,148,46893,2,0,L|266:176,1,135.000005149842,8|2,2:2|2:2,0:0:0:0:
158,278,47567,6,0,L|150:242,3,36,6|0|2|0,3:2|0:0|2:2|0:0,0:0:0:0:
84,344,48241,2,0,L|76:308,3,36,2|0|2|0,2:2|0:0|2:2|0:0,0:0:0:0:
181,378,48915,5,2,2:2:0:0:
264,382,49084,1,0,0:0:0:0:
308,312,49252,1,2,2:2:0:0:
269,238,49421,1,0,0:0:0:0:
391,315,49589,5,2,2:2:0:0:
391,315,49758,1,0,0:0:0:0:
473,270,49926,1,2,2:2:0:0:
473,270,50095,1,0,0:0:0:0:
389,195,50263,6,0,L|396:230,1,36,2|0,2:2|0:0,0:0:0:0:
480,116,50601,2,0,L|472:151,1,36,2|0,2:2|0:0,0:0:0:0:
389,104,50938,1,2,2:2:0:0:
389,104,51106,1,0,0:0:0:0:
440,35,51275,1,2,2:2:0:0:
480,116,51443,1,0,0:0:0:0:
349,23,51612,5,2,2:2:0:0:
300,98,51780,1,0,0:0:0:0:
341,179,51949,1,2,2:2:0:0:
434,178,52117,1,0,0:0:0:0:
389,104,52286,5,2,2:2:0:0:
389,104,52454,1,0,0:0:0:0:
255,172,52623,1,2,2:2:0:0:
255,172,52792,1,0,0:0:0:0:
333,214,52960,6,0,L|340:178,3,36,2|0|2|0,2:2|0:0|2:2|0:0,0:0:0:0:
408,264,53634,2,0,L|415:228,2,36,2|0|2,2:2|0:0|2:2,0:0:0:0:
480,312,54140,1,2,2:2:0:0:
364,356,54308,6,0,P|382:350|399:348,1,36,2|0,2:2|0:0,0:0:0:0:
321,278,54645,1,2,2:2:0:0:
255,344,54814,2,0,L|262:379,1,36,2|0,2:2|0:0,0:0:0:0:
235,259,55151,1,2,2:2:0:0:
235,259,55320,1,2,2:2:0:0:
165,319,55488,1,2,2:2:0:0:
262,379,55657,6,0,L|255:344,1,36,2|0,2:2|0:0,0:0:0:0:
399,279,55994,1,2,2:2:0:0:
328,242,56162,2,0,L|320:277,2,36,2|0|2,2:2|0:0|2:2,0:0:0:0:
464,211,56668,2,0,P|480:207|499:203,1,36,2|2,2:2|2:2,0:0:0:0:
456,130,57005,5,2,2:2:0:0:
384,188,57174,2,0,P|380:171|376:152,1,36,2|0,2:2|0:0,0:0:0:0:
328,242,57511,1,2,2:2:0:0:
238,150,57679,5,2,2:2:0:0:
189,239,57848,1,0,0:0:0:0:
116,177,58016,1,2,2:2:0:0:
62,237,58185,1,0,0:0:0:0:
0,194,58353,6,0,B|0:144|41:117|94:141|94:141|104:172|128:186,1,175.499991966248,6|0,3:2|0:0,0:0:0:0:
168,122,58690,1,0,3:3:0:0:
37,329,58859,1,2,2:2:0:0:
189,239,59027,1,2,3:2:0:0:
62,237,59196,1,2,2:2:0:0:
176,351,59365,1,2,3:2:0:0:
343,271,59533,5,2,2:2:0:0:
343,271,59617,1,2,2:2:0:0:
343,271,59702,2,0,L|309:112,1,161.999995056153,2|0,3:2|0:0,0:0:0:0:
297,37,60039,5,2,3:2:0:0:
233,128,60207,1,0,0:0:0:0:
467,78,60376,5,2,3:2:0:0:
403,169,60544,1,0,0:0:0:0:
169,76,60713,5,2,3:2:0:0:
217,214,60881,1,0,0:0:0:0:
467,78,61050,6,0,L|294:114,1,161.999995056153,2|0,3:2|0:0,0:0:0:0:
238,38,61387,2,0,B|227:12|191:1|191:1|241:-6|268:20|265:62,1,161.999995056153,2|0,3:2|0:0,0:0:0:0:
233,128,61724,2,0,B|205:181|266:209|268:199|331:213|305:279,1,188.999994232178,2|0,3:2|0:0,0:0:0:0:
272,343,62061,1,2,3:2:0:0:
420,274,62230,2,0,P|403:275|386:281,1,33.7500012874604,2|2,2:2|2:2,0:0:0:0:
193,367,62398,6,0,B|140:384|91:361|91:361|81:317|33:309,1,175.499991966248,2|0,3:2|0:0,0:0:0:0:
14,381,62735,1,0,3:3:0:0:
153,286,62904,1,0,0:0:0:0:
51,133,63072,1,2,3:2:0:0:
7,224,63241,2,0,P|59:212|121:199,2,116.999994644165,0|0|0,0:0|3:3|0:0,0:0:0:0:
200,121,63747,6,0,P|303:141|398:163,1,202.500007724762,6|0,3:2|0:0,0:0:0:0:
472,176,64084,1,0,3:3:0:0:
373,72,64252,2,0,L|382:27,1,45,2|0,2:3|0:0,0:0:0:0:
456,76,64421,1,0,3:3:0:0:
290,58,64589,2,0,L|299:13,1,45,2|0,2:3|0:0,0:0:0:0:
200,121,64758,2,0,L|233:279,1,161.999995056153,2|0,3:2|0:0,0:0:0:0:
259,362,65095,6,0,B|295:358|299:315|299:315|286:343|256:349,1,107.999996704102,2|0,3:2|0:0,0:0:0:0:
98,329,65432,2,0,P|53:303|52:251,1,107.999996704102,2|0,3:2|0:0,0:0:0:0:
200,121,65769,2,0,L|94:143,1,107.999996704102,2|0,3:2|0:0,0:0:0:0:
299,13,66106,2,0,L|343:22,1,45,2|0,3:2|0:0,0:0:0:0:
501,104,66275,5,2,2:2:0:0:
501,104,66359,1,2,2:2:0:0:
501,104,66443,2,0,B|512:60|474:20|418:40|418:40|409:79|371:91,1,188.999994232178,2|2,3:2|2:3,0:0:0:0:
309,92,66780,1,2,3:3:0:0:
461,250,66949,2,0,L|470:205,1,45,2|2,2:3|2:3,0:0:0:0:
392,164,67117,6,0,L|384:197,3,33.7500012874604,2|2|2|2,3:3|2:3|2:3|2:3,0:0:0:0:
306,277,67454,2,0,L|298:243,3,33.7500012874604,2|2|2|2,3:3|2:3|2:3|2:3,0:0:0:0:
236,165,67792,5,2,3:3:0:0:
226,157,67876,1,2,2:3:0:0:
210,154,67960,1,2,2:3:0:0:
187,159,68044,1,2,2:3:0:0:
169,181,68129,1,2,3:3:0:0:
148,212,68213,1,2,2:3:0:0:
112,230,68297,1,2,2:3:0:0:
64,232,68381,1,2,2:3:0:0:
34,206,68466,5,2,3:3:0:0:
76,212,68550,1,2,2:3:0:0:
117,204,68634,1,2,2:3:0:0:
150,170,68719,1,2,2:3:0:0:
160,118,68803,1,2,3:3:0:0:
138,65,68887,1,2,2:3:0:0:
85,42,68971,1,2,2:3:0:0:
27,54,69056,1,2,2:3:0:0:
0,108,69140,6,0,L|13:174,1,67.5,2|0,2:2|0:0,0:0:0:0:
13,174,70488,6,0,L|16:158,1,16.8750006437302,2|0,2:3|0:0,0:0:0:0:
63,320,71836,6,0,L|110:95,1,229.500004377365,6|0,3:2|0:0,0:0:0:0:
122,19,72174,2,0,L|77:28,1,45,2|0,3:2|0:0,0:0:0:0:
281,138,72342,2,0,P|303:153|345:143,1,58.4999973220826,2|0,2:2|0:0,0:0:0:0:
395,94,72511,1,0,3:3:0:0:
239,227,72679,2,0,P|302:208|333:150,1,135.000005149842,2|0,2:2|3:3,0:0:0:0:
500,313,73016,5,2,2:2:0:0:
500,313,73101,1,2,2:2:0:0:
500,313,73185,2,0,B|496:261|452:226|393:244|393:244|382:276|345:296,1,202.500007724762,2|0,3:2|0:0,0:0:0:0:
317,222,73522,1,0,3:3:0:0:
342,373,73690,2,0,P|321:355|296:345,1,53.9999983520508,2|0,2:2|0:0,0:0:0:0:
154,286,73859,2,0,P|204:267|239:227,1,107.999996704102,2|0,3:2|0:0,0:0:0:0:
227,50,74196,2,0,B|222:4|167:2|167:2|200:17|204:49,1,135,2|0,3:2|0:0,0:0:0:0:
132,71,74533,6,0,L|330:28,1,202.500007724762,6|0,3:2|0:0,0:0:0:0:
127,163,74870,5,2,3:2:0:0:
119,165,74926,5,0,3:3:0:0:
112,169,74983,5,0,3:3:0:0:
106,171,75039,6,0,B|55:157|10:188|10:188|54:156|48:93,1,202.500007724762,6|0,3:2|0:0,0:0:0:0:
17,9,75376,2,0,L|61:18,1,45,2|0,3:2|0:0,0:0:0:0:
227,50,75544,2,0,L|271:59,1,45,2|0,2:2|0:0,0:0:0:0:
495,127,75713,6,0,B|504:77|475:33|404:39|404:39|401:80|359:95,1,202.500007724762,6|0,3:2|0:0,0:0:0:0:
302,154,76050,2,0,L|310:198,1,45,0|0,3:3|0:0,0:0:0:0:
241,291,76219,2,0,L|222:202,1,90,0|2,3:3|2:2,0:0:0:0:
424,325,76556,2,0,B|456:288|420:256|420:256|427:280|412:308,1,125.999996154785,2|0,3:2|0:0,0:0:0:0:
264,384,76893,5,2,3:2:0:0:
229,344,76978,1,0,3:3:0:0:
241,291,77062,1,0,3:3:0:0:
289,267,77146,1,0,3:3:0:0:
343,277,77230,6,0,P|283:208|310:122,1,188.999994232178,6|0,3:2|0:0,0:0:0:0:
256,55,77567,2,0,P|277:41|303:38,1,45,2|0,3:2|0:0,0:0:0:0:
469,137,77735,2,0,P|425:133|393:101,1,90,2|0,2:2|3:3,0:0:0:0:
469,31,78072,1,2,2:2:0:0:
469,31,78157,1,2,0:0:0:0:
469,31,78241,1,0,3:3:0:0:
401,208,78410,2,0,P|381:199|365:183,1,45,2|0,2:2|2:2,0:0:0:0:
286,47,78578,6,0,B|231:12|181:44|181:44|170:92|117:99,1,188.999994232178,2|0,3:2|0:0,0:0:0:0:
85,20,78915,2,0,B|78:2|47:-6|47:-6|86:-17|106:4|110:38,1,125.999996154785,2|0,3:2|0:0,0:0:0:0:
69,222,79252,1,2,3:2:0:0:
28,70,79421,1,2,2:2:0:0:
238,115,79589,1,2,3:2:0:0:
183,214,79758,2,0,L|173:169,1,45,2|0,2:2|0:0,0:0:0:0:
340,16,79926,6,0,L|300:200,1,188.999994232178,6|0,3:2|0:0,0:0:0:0:
373,240,80263,2,0,L|382:195,1,45,2|0,3:2|0:0,0:0:0:0:
504,97,80432,2,0,B|501:152|448:157|448:157|430:130|410:127,1,135.000005149842,2|0,2:2|3:3,0:0:0:0:
197,44,80769,2,0,L|241:34,1,45,2|0,2:2|0:0,0:0:0:0:
340,16,80938,1,0,3:3:0:0:
173,170,81106,2,0,L|40:141,1,135.000005149842,2|2,3:2|2:2,0:0:0:0:
85,13,81443,5,0,3:3:0:0:
93,16,81499,5,0,3:3:0:0:
100,19,81556,5,0,3:3:0:0:
106,22,81612,6,0,L|115:66,1,45,0|0,3:3|0:0,0:0:0:0:
40,141,81780,2,0,L|30:96,1,45,2|0,3:2|0:0,0:0:0:0:
241,34,81949,2,0,L|231:78,1,45,2|0,3:2|0:0,0:0:0:0:
185,275,82117,5,2,3:2:0:0:
229,265,82201,1,0,3:3:0:0:
273,256,82285,1,2,3:2:0:0:
317,246,82369,1,0,3:3:0:0:
361,237,82454,1,2,3:2:0:0:
405,228,82538,1,0,3:3:0:0:
449,218,82623,6,0,B|428:257|369:272|323:230|339:165|339:165|364:172|403:151,1,229.500004377365,6|0,3:2|0:0,0:0:0:0:
462,131,82960,2,0,P|481:113|493:86,1,45,2|2,3:2|2:2,0:0:0:0:
309,6,83129,2,0,P|324:34|372:49,1,58.4999973220826,2|0,2:2|0:0,0:0:0:0:
420,64,83297,1,0,3:3:0:0:
242,111,83466,2,0,P|281:58|351:48,1,135.000005149842,2|0,2:2|3:3,0:0:0:0:
211,197,83803,5,2,2:2:0:0:
211,197,83887,1,2,2:2:0:0:
211,197,83971,2,0,B|156:183|117:221|117:221|156:182|147:115,1,202.500007724762,2|0,3:2|0:0,0:0:0:0:
103,66,84308,1,0,3:3:0:0:
347,47,84477,2,0,P|342:68|337:91,1,45,2|0,2:2|0:0,0:0:0:0:
411,184,84645,2,0,P|422:124|435:69,1,116.999994644165,2|0,3:2|0:0,0:0:0:0:
315,226,84983,2,0,B|297:264|310:294|357:299|357:299|362:271|387:257,1,135,2|0,3:2|0:0,0:0:0:0:
463,284,85320,6,0,P|342:300|226:334,1,242.999992584229,6|0,3:2|0:0,0:0:0:0:
156,361,85657,1,2,2:2:0:0:
265,161,85825,6,0,B|247:54|134:85|134:85|169:112|171:163,1,242.999992584229,2|0,3:2|0:0,0:0:0:0:
315,226,86162,2,0,P|332:209|342:184,1,45,2|0,3:2|0:0,0:0:0:0:
276,34,86331,2,0,P|258:17|232:9,1,45,2|0,2:2|0:0,0:0:0:0:
88,150,86499,6,0,L|325:99,1,242.999992584229,6|0,3:2|0:0,0:0:0:0:
505,67,86836,1,0,3:3:0:0:
460,2,86920,1,0,3:3:0:0:
384,23,87004,1,2,3:2:0:0:
384,23,87342,6,0,L|393:67,1,45,2|0,3:2|0:0,0:0:0:0:
480,193,87511,1,2,3:2:0:0:
473,222,87595,1,0,3:3:0:0:
467,251,87679,1,2,3:2:0:0:
461,281,87763,1,0,3:3:0:0:
455,310,87848,1,2,3:2:0:0:
448,339,87932,1,2,3:2:0:0:
442,369,88016,6,0,B|482:369|499:313|499:313|434:275|374:305|366:361,1,242.999992584229,6|0,3:2|0:0,0:0:0:0:
297,384,88353,2,0,P|278:371|266:352,1,45,2|0,2:2|0:0,0:0:0:0:
176,225,88522,6,0,B|167:171|98:145|36:209|83:274|83:274|107:273|131:292,1,242.999992584229,2|0,3:2|0:0,0:0:0:0:
215,293,88859,2,0,P|233:280|245:261,1,45,2|0,3:2|0:0,0:0:0:0:
304,167,89027,2,0,L|246:179,1,58.4999973220826,2|0,2:2|0:0,0:0:0:0:
340,88,89196,1,0,3:3:0:0:
449,174,89365,6,0,L|391:161,1,58.4999973220826,2|0,2:2|0:0,0:0:0:0:
180,103,89533,1,0,3:3:0:0:
180,103,89617,1,0,3:3:0:0:
180,103,89702,2,0,B|168:44|215:0|298:17|298:17|266:33|260:80,1,242.999992584229,10|0,2:2|0:0,0:0:0:0:
114,158,90039,6,0,P|105:147|98:133,1,22.5,2|0,3:3|0:0,0:0:0:0:
22,121,90207,2,0,P|26:108|35:94,1,22.5,2|0,2:3|0:0,0:0:0:0:
191,187,90376,6,0,P|186:199|177:213,1,22.5,2|0,3:2|0:0,0:0:0:0:
204,285,90544,2,0,P|190:287|174:286,1,22.5,2|0,2:3|0:0,0:0:0:0:
73,328,90713,6,0,P|177:267|297:257,1,242.999992584229,6|0,3:2|0:0,0:0:0:0:
342,192,91050,2,0,P|361:208|377:239,1,45,2|0,2:2|0:0,0:0:0:0:
512,138,91219,6,0,P|407:77|287:67,1,242.999992584229,6|0,3:2|0:0,0:0:0:0:
136,114,91556,2,0,P|117:98|101:67,1,45,2|0,3:2|0:0,0:0:0:0:
188,0,91724,2,0,P|207:11|222:27,1,45,2|0,2:2|0:0,0:0:0:0:
256,192,91893,5,2,3:2:0:0:
264,200,92230,5,0,3:3:0:0:
264,200,92314,1,0,3:3:0:0:
264,200,92398,2,0,L|289:65,1,135,2|0,3:2|0:0,0:0:0:0:
222,27,92735,1,2,3:2:0:0:
413,136,92904,1,2,2:2:0:0:
158,206,93072,1,2,3:2:0:0:
429,56,93241,5,2,2:2:0:0:
429,56,93325,1,2,2:2:0:0:
429,56,93410,2,0,B|475:58|517:14|517:14|479:60|493:110,1,202.500007724762,10|0,3:2|0:1,0:0:0:0:
413,136,93747,2,0,P|384:155|380:177,1,53.9999983520508,0|0,3:3|0:0,0:0:0:0:
437,331,93915,5,2,1:2:0:0:
473,309,93999,1,0,1:1:0:0:
472,267,94083,1,0,1:1:0:0:
435,247,94167,1,0,1:1:0:0:
399,270,94252,2,0,L|411:322,1,53.9999983520508,0|0,3:3|0:0,0:0:0:0:
298,383,94421,5,2,1:2:0:0:
286,330,94505,1,0,1:1:0:0:
275,277,94589,1,0,1:1:0:0:
264,224,94673,1,0,1:1:0:0:
253,171,94758,2,0,L|305:182,1,53.9999983520508,0|0,3:3|0:0,0:0:0:0:
91,129,94926,5,2,1:2:0:0:
44,107,95010,1,0,1:1:0:0:
40,55,95094,1,0,1:1:0:0:
82,26,95178,1,0,1:1:0:0:
128,49,95263,2,0,L|139:101,1,53.9999983520508,0|0,3:3|0:0,0:0:0:0:
158,322,95432,6,0,B|112:320|70:364|70:364|108:318|94:268,1,202.500007724762,10|0,2:2|0:0,0:0:0:0:
15,267,95769,2,0,P|8:261|-2:257,1,18,8|0,2:2|0:0,0:0:0:0:
38,188,95938,2,0,P|46:191|53:197,1,18,0|0,3:3|0:0,0:0:0:0:
170,245,96106,6,0,P|214:222|236:184,1,90.0000034332277,2|0,2:3|0:0,0:0:0:0:
230,182,96275,5,8,2:3:0:0:
224,176,96331,5,8,2:3:0:0:
219,171,96387,5,4,2:3:0:0:
214,166,96443,6,0,B|187:170|150:157|150:157|207:178|273:227,1,202.500007724762,4|0,2:3|0:0,0:0:0:0:
347,254,96780,6,0,B|364:288|326:304|333:339|333:339|253:271|283:183|346:171|346:171|356:169|356:169|384:191|421:191|446:158,1,396.000012084961,0|0,3:3|0:0,0:0:0:0:
432,171,97285,2,0,B|453:166|466:138|466:138|463:169|437:187,1,99.0000030212403,0|0,3:3|0:0,0:0:0:0:
428,251,97454,6,0,L|397:105,1,148.50000453186,8|0,2:2|0:0,0:0:0:0:
400,104,97622,6,0,L|430:249,1,148.50000453186,2|0,2:3|0:0,0:0:0:0:
450,324,97959,2,0,L|483:316,1,33.7500012874604,2|0,3:3|0:0,0:0:0:0:
347,254,98128,6,0,L|331:259,1,13.4999995880127,2|0,3:3|0:0,0:0:0:0:
191,376,98296,2,0,L|203:371,1,13.4999995880127,2|0,2:3|0:0,0:0:0:0:
362,367,98465,2,0,L|349:362,1,13.4999995880127,2|0,2:3|0:0,0:0:0:0:
176,264,98633,2,0,L|188:268,1,13.4999995880127,2|0,3:3|0:0,0:0:0:0:
273,334,98802,6,0,L|263:289,1,45,8|0,2:2|0:0,0:0:0:0:
234,125,98971,1,8,2:1:0:0:
234,125,99055,1,8,0:1:0:0:
234,125,99139,2,0,B|210:123|191:99|191:99|198:150|244:159|244:159|258:135|276:129,1,175.499991966248,8|0,2:1|0:0,0:0:0:0:
348,118,99476,6,0,B|380:98|393:26|304:1|245:47|235:180|351:200,1,297.000009063721,2|0,3:3|0:0,0:0:0:0:
403,217,99813,6,0,L|419:213,6,16.8750006437302,8|0|0|0|0|0|0,2:2|0:0|0:0|0:0|0:0|0:0|0:0,0:0:0:0:
376,302,100150,6,0,P|426:291|476:282,1,101.250003862381,2|0,2:3|0:0,0:0:0:0:
479,288,100319,2,0,L|434:297,1,45,2|0,3:3|0:0,0:0:0:0:
281,363,100487,2,0,P|286:341|297:321,1,45,8|0,2:2|0:0,0:0:0:0:
215,286,100656,2,0,P|209:307|198:327,1,45,0|0,3:3|0:0,0:0:0:0:
62,365,100824,6,0,B|39:411|-39:392|-59:323|-29:263|50:254|81:284|70:295|139:293|178:235|154:168|154:168|151:201|136:242|86:242,1,495.000015106202,2|0,3:3|0:0,0:0:0:0:
77,168,101330,2,0,B|47:157|47:133|47:133|74:138|78:168,1,99.0000030212403,0|0,3:3|0:0,0:0:0:0:
232,182,101499,6,0,B|234:110|180:94|182:103|120:84|136:16,1,188.999994232178,8|0,2:2|0:0,0:0:0:0:
212,15,101836,6,0,L|210:27,1,11.25,2|0,2:3|0:0,0:0:0:0:
286,47,102004,6,0,L|288:35,1,11.25,2|0,2:3|0:0,0:0:0:0:
450,77,102173,6,0,B|465:108|503:133|503:133|416:79|363:71|363:71|350:114|305:124,1,297.000009063721,0|0,3:3|0:0,0:0:0:0:
347,191,102510,1,2,2:3:0:0:
347,191,102594,2,0,P|378:181|395:160,1,53.9999983520508,2|0,2:3|3:3,0:0:0:0:
244,118,102763,1,2,2:3:0:0:
244,118,102847,2,0,L|272:250,1,135.000005149842,8|0,2:2|0:0,0:0:0:0:
163,383,103184,5,2,3:3:0:0:
136,380,103268,1,2,2:3:0:0:
99,345,103353,1,2,2:3:0:0:
91,283,103437,1,2,2:3:0:0:
137,225,103521,5,2,3:3:0:0:
143,227,103605,1,2,2:3:0:0:
149,229,103690,1,2,2:3:0:0:
155,231,103774,1,2,2:3:0:0:
214,281,103858,5,2,2:3:0:0:
220,279,103942,1,2,2:3:0:0:
226,277,104027,1,2,3:3:0:0:
232,275,104111,1,2,2:3:0:0:
301,222,104195,6,0,L|400:243,1,101.250003862381,8|0,2:2|0:0,0:0:0:0:
403,250,104364,6,0,L|304:229,1,101.250003862381,0|2,3:3|2:3,0:0:0:0:
229,197,104701,2,0,L|221:163,1,33.7500012874604,0|2,3:3|2:3,0:0:0:0:
120,80,104869,6,0,B|87:61|86:12|86:12|60:78|84:122|151:135|151:135|163:100|213:90,1,297.000009063721,2|0,3:3|0:0,0:0:0:0:
195,10,105206,2,0,L|161:17,1,33.7500012874604,8|0,2:2|0:0,0:0:0:0:
0,64,105375,1,0,3:3:0:0:
262,98,105544,6,0,P|313:77|330:24,1,114.750002188683,2|0,2:3|0:0,0:0:0:0:
325,21,105712,2,0,B|290:7|290:7|347:46,1,99.0000030212403,2|0,3:3|0:0,0:0:0:0:
439,159,105881,2,0,B|482:140|482:140|504:37,1,148.50000453186,8|0,2:2|0:0,0:0:0:0:
434,2,106049,2,0,L|424:49,1,45,2|0,3:3|0:0,0:0:0:0:
452,242,106218,6,0,L|493:224,1,45,2|0,3:3|0:0,0:0:0:0:
493,224,106555,6,0,L|452:242,1,45,2|0,3:3|0:0,0:0:0:0:
280,317,106723,1,0,3:3:0:0:
280,317,106808,1,0,3:3:0:0:
353,343,106892,2,0,P|373:323|377:291,1,58.4999973220826,8|0,2:2|0:0,0:0:0:0:
270,166,107060,1,0,3:3:0:0:
374,211,107229,2,0,L|318:232,1,58.4999973220826,8|0,2:2|0:0,0:0:0:0:
105,302,107397,1,0,3:3:0:0:
91,308,107482,1,0,3:3:0:0:
140,381,107566,6,0,L|190:143,1,242.999992584229,4|0,3:2|0:0,0:0:0:0:
111,49,107903,2,0,L|120:93,1,45,8|0,3:2|0:0,0:0:0:0:
270,166,108072,6,0,L|279:122,1,45,2|0,2:2|0:0,0:0:0:0:
358,133,108240,2,0,L|386:0,1,135.000005149842,2|0,3:2|0:0,0:0:0:0:
188,24,108577,2,0,L|197:68,1,45,8|0,3:2|0:0,0:0:0:0:
364,255,108746,6,0,L|373:211,1,45,2|0,2:2|0:0,0:0:0:0:
452,222,108914,2,0,L|480:89,1,135.000005149842,2|0,3:2|0:0,0:0:0:0:
265,0,109251,2,0,L|274:44,1,45,8|0,3:2|0:0,0:0:0:0:
358,133,109420,5,2,2:3:0:0:
358,133,109504,1,2,2:3:0:0:
358,133,109588,2,0,L|362:110,1,22.5,2|0,3:3|0:0,0:0:0:0:
270,166,109757,2,0,L|274:143,1,22.5,2|0,2:3|0:0,0:0:0:0:
199,236,109926,6,0,B|181:278|230:296|227:281|269:288|263:335,1,135,2|0,2:3|0:0,0:0:0:0:
336,360,110263,6,0,B|406:314|406:314|190:386,1,297.000009063721,4|0,3:2|0:0,0:0:0:0:
102,319,110600,2,0,L|146:328,1,45,8|0,3:2|0:0,0:0:0:0:
53,238,110768,6,0,L|19:245,1,33.7500012874604,2|0,2:3|0:0,0:0:0:0:
103,150,110937,2,0,L|69:157,2,33.7500012874604,2|0|2,3:3|0:0|2:3,0:0:0:0:
199,236,111190,1,2,2:3:0:0:
199,236,111274,2,0,L|165:228,1,33.7500012874604,8|0,3:2|0:0,0:0:0:0:
303,173,111442,2,0,L|269:165,1,33.7500012874604,2|0,2:3|0:0,0:0:0:0:
369,243,111611,5,0,3:3:0:0:
380,240,111695,1,2,2:3:0:0:
391,238,111779,1,2,2:3:0:0:
402,235,111863,1,2,2:3:0:0:
438,205,111948,5,8,3:2:0:0:
449,208,112032,1,2,2:3:0:0:
460,210,112116,1,2,2:3:0:0:
471,213,112200,1,2,2:3:0:0:
500,246,112285,6,0,L|487:188,1,58.4999973220826,0|0,3:3|0:0,0:0:0:0:
462,36,112454,2,0,L|457:13,2,22.5,0|0|0,3:3|0:0|0:0,0:0:0:0:
94,151,112959,6,0,B|82:223|27:117|38:65|191:-29|324:58|120:35|185:125,1,310.500005922318,4|0,3:2|0:0,0:0:0:0:
216,191,113296,2,0,B|146:244|198:243|217:342|87:240|180:194|195:207,1,161.999995056153,8|0,0:2|0:0,0:0:0:0:
270,129,113633,6,0,B|285:94|321:123|271:126,1,53.9999983520508,8|0,2:1|0:0,0:0:0:0:
328,201,113802,2,0,B|349:194|367:213|352:200|329:203,1,45,8|0,2:1|0:0,0:0:0:0:
298,258,113971,2,0,B|323:278|312:283|305:274|292:268,1,36,8|0,2:1|0:0,0:0:0:0:
273,274,114139,2,0,B|280:295|264:294|268:282,1,26.9999991760254,8|0,3:1|0:0,0:0:0:0:
216,191,114308,6,0,B|200:171|172:158|164:231|185:246|211:219|300:168|420:217|421:282|381:310|371:269,1,315,0|0,3:3|0:0,0:0:0:0:
371,269,114645,2,0,B|351:297|342:272|358:249|402:258,1,67.5000025749208,2|0,2:3|0:0,0:0:0:0:
507,237,114813,2,0,B|493:248|442:206|459:200,1,67.5000025749208,0|0,3:3|0:0,0:0:0:0:
463,48,114982,5,8,2:1:0:0:
463,39,115094,5,8,2:1:0:0:
470,43,115206,5,8,2:1:0:0:
424,58,115319,6,0,P|465:46|511:35,2,90.0000034332277,8|8|8,2:1|2:1|2:1,0:0:0:0:
254,115,115656,5,4,3:2:0:0:
243,113,115740,1,2,2:3:0:0:
235,107,115824,1,2,2:3:0:0:
231,98,115909,1,2,2:3:0:0:
296,53,115993,5,2,3:3:0:0:
315,46,116077,1,2,2:3:0:0:
328,31,116162,1,2,2:3:0:0:
332,14,116246,1,2,2:3:0:0:
225,18,116330,5,2,3:3:0:0:
232,37,116414,1,2,2:3:0:0:
187,104,116499,5,2,3:3:0:0:
194,123,116583,1,2,2:3:0:0:
273,163,116667,5,2,3:3:0:0:
260,192,116751,1,2,2:3:0:0:
311,259,116836,5,2,3:3:0:0:
298,288,116920,1,2,2:3:0:0:
245,357,117004,5,0,3:3:0:0:
256,192,117341,12,6,118353,2:2:0:0:
256,192,119701,5,2,2:2:0:0:
256,192,120375,5,2,2:2:0:0:
346,238,120544,6,0,L|350:215,1,22.5,8|0,2:1|0:0,0:0:0:0:
436,193,120712,2,0,L|414:292,1,101.250003862381,8|0,2:2|0:0,0:0:0:0:
414,292,121049,5,2,2:2:0:0:
256,192,122397,5,2,2:2:0:0:
113,103,123072,6,0,L|90:107,1,22.5,2|0,2:2|0:0,0:0:0:0:
91,202,123240,1,2,2:3:0:0:
91,202,123324,1,2,2:3:0:0:
91,202,123409,2,0,L|112:102,1,101.250003862381,2|0,2:3|0:0,0:0:0:0:
112,102,123746,5,2,2:2:0:0:
256,192,125094,5,0,0:0:0:0:
395,53,125768,6,0,B|409:27|444:19|444:19|398:12|371:40|389:79,1,157.5,2|0,2:2|0:0,0:0:0:0:
458,94,126442,6,0,B|508:86|541:135|510:221|435:226|378:204|366:141|377:110|381:113|374:28|321:2|266:4|229:43|227:86|263:110|293:99,1,472.500018024445,2|0,2:2|0:0,0:0:0:0:
279,100,127791,5,2,2:2:0:0:
179,37,127959,6,0,L|174:14,2,22.5,2|2|2,2:3|2:3|2:3,0:0:0:0:
100,54,128296,2,0,L|95:31,2,22.5,2|2|2,2:3|2:3|2:3,0:0:0:0:
157,117,128549,1,2,2:3:0:0:
157,117,128633,2,0,L|147:161,1,45,2|2,2:3|2:3,0:0:0:0:
64,178,128971,2,0,L|68:155,1,22.5,2|0,2:3|0:0,0:0:0:0:
117,243,129139,6,0,B|111:276|74:314|74:314|115:277|165:196|254:169|329:230|314:312|240:362|188:304,1,472.500018024445,2|0,3:2|0:0,0:0:0:0:
354,292,130487,6,0,P|359:257|346:224,1,67.5000025749208,0|0,3:3|0:0,0:0:0:0:
443,219,130824,2,0,P|437:253|451:287,1,67.5000025749208,0|0,3:3|0:0,0:0:0:0:
386,152,131162,1,2,3:2:0:0:
386,152,131499,6,0,B|392:133|416:119|416:119|389:134|352:146,1,101.250003862381,0|0,3:3|0:0,0:0:0:0:
287,168,131836,6,0,P|227:135|162:119,1,135,2|0,3:2|0:0,0:0:0:0:
162,119,132173,2,0,P|192:106|208:77,1,67.5000025749208,0|0,3:3|0:0,0:0:0:0:
104,54,132510,2,0,P|119:24|150:12,1,67.5000025749208,0|0,3:3|0:0,0:0:0:0:
78,134,132847,2,0,L|55:129,2,22.5,2|0|0,3:2|0:0|0:0,0:0:0:0:
189,258,133184,6,0,B|185:303|145:326|99:306|99:306|138:303|150:272,1,180,2|0,3:2|3:3,0:0:0:0:
287,168,133858,6,0,B|327:148|367:172|373:221|373:221|351:189|318:194,1,180,2|0,3:2|3:3,0:0:0:0:
161,129,134532,6,0,B|124:103|124:56|164:27|164:27|147:62|168:88,1,180,2|0,3:2|3:3,0:0:0:0:
67,176,135206,6,0,L|44:171,1,22.5,2|0,3:3|0:0,0:0:0:0:
75,261,135375,1,2,2:3:0:0:
75,261,135459,1,2,2:3:0:0:
75,261,135544,2,0,L|52:256,1,22.5,2|0,3:3|0:0,0:0:0:0:
148,217,135712,5,2,2:3:0:0:
148,217,135796,1,2,2:3:0:0:
148,217,135881,2,0,P|213:200|280:189,1,135.000005149842,2|0,3:2|3:3,0:0:0:0:
434,251,136386,1,2,0:3:0:0:
434,251,136471,1,2,0:3:0:0:
434,251,136555,2,0,P|473:223|475:174,1,101.250003862381,0|0,3:3|0:0,0:0:0:0:
487,235,136892,2,0,P|470:206|475:174,1,67.5000025749208,0|0,3:3|0:0,0:0:0:0:
508,62,137229,5,2,3:2:0:0:
508,62,137397,1,2,2:3:0:0:
418,22,137566,1,2,3:3:0:0:
418,22,137735,1,2,2:3:0:0:
389,142,137903,6,0,P|375:147|360:147,1,22.5,2|0,3:3|0:0,0:0:0:0:
328,216,138072,2,0,P|312:206|299:194,1,26.9999991760254,2|0,2:3|0:0,0:0:0:0:
226,209,138240,2,0,P|226:189|232:171,1,31.4999990386963,2|0,3:3|0:0,0:0:0:0:
168,129,138409,2,0,P|184:110|203:104,1,36,2|0,2:3|0:0,0:0:0:0:
295,76,138577,6,0,B|332:56|337:12|298:-15|298:-15|310:14|297:44,1,161.999995056153,2|0,3:2|3:3,0:0:0:0:
228,17,139251,2,0,P|315:34|404:54,1,180,2|2,3:2|3:2,0:0:0:0:
138,210,139926,6,0,B|102:237|52:223|52:160|52:160|75:159|98:132,1,161.999995056153,6|0,3:2|0:0,0:0:0:0:
31,68,140263,2,0,B|14:63|3:42|3:42|0:72|13:84|46:87,1,107.999996704102,0|0,3:3|0:0,0:0:0:0:
120,83,140515,1,2,2:2:0:0:
120,83,140600,2,0,P|159:61|202:49,1,90,2|0,3:2|0:0,0:0:0:0:
369,91,140937,1,2,3:2:0:0:
300,2,141105,5,2,2:2:0:0:
300,2,141190,1,2,2:2:0:0:
300,2,141274,2,0,P|285:69|271:134,1,135,2|0,3:2|0:0,0:0:0:0:
278,211,141611,2,0,P|310:205|334:181,1,67.5000025749208,2|0,3:2|0:0,0:0:0:0:
324,300,141948,2,0,P|347:276|380:270,1,67.5000025749208,2|0,3:2|0:0,0:0:0:0:
234,293,142285,1,2,3:2:0:0:
234,293,142622,6,0,B|201:242|144:254|144:254|131:284|102:292,1,161.999995056153,6|0,3:2|0:0,0:0:0:0:
74,223,142959,1,0,3:3:0:0:
44,333,143128,2,0,P|30:314|28:290,1,45,2|2,2:2|2:2,0:0:0:0:
10,131,143296,2,0,P|75:145|142:159,1,135,2|0,3:2|0:0,0:0:0:0:
202,212,143633,2,0,P|232:198|265:188,1,67.5000025749208,0|0,3:3|0:0,0:0:0:0:
398,141,143971,6,0,P|384:171|374:204,1,67.5000025749208,0|0,3:3|0:0,0:0:0:0:
308,107,144308,1,0,3:3:0:0:
380,52,144476,1,2,2:2:0:0:
477,167,144645,2,0,P|463:197|453:230,1,67.5000025749208,2|0,3:2|0:0,0:0:0:0:
458,370,144982,2,0,B|491:365|493:322|493:322|482:353|457:360,1,101.250003862381,2|0,3:2|0:0,0:0:0:0:
420,300,145319,6,0,P|337:315|261:333,1,161.999995056153,6|0,3:2|0:0,0:0:0:0:
189,356,145656,1,0,3:3:0:0:
61,280,145824,2,0,L|94:287,1,33.7500012874604,2|0,2:2|0:0,0:0:0:0:
145,216,145993,2,0,L|56:197,2,90,2|0|0,3:2|0:0|3:3,0:0:0:0:
208,280,146499,1,2,2:2:0:0:
22,134,146667,6,0,B|-9:119|-19:89|1:59|1:59|1:84|17:101,1,135,6|0,3:2|0:0,0:0:0:0:
78,53,147004,2,0,P|107:38|121:8,1,67.5000025749208,2|0,3:2|0:0,0:0:0:0:
192,83,147257,1,2,2:2:0:0:
192,83,147341,2,0,P|162:97|148:127,1,67.5000025749208,2|0,3:2|0:0,0:0:0:0:
63,259,147678,2,0,P|95:221|144:215,1,101.250003862381,2|0,3:2|0:0,0:0:0:0:
223,177,148015,6,0,P|301:193|381:210,1,161.999995056153,6|0,2:2|0:0,0:0:0:0:
457,225,148353,1,2,3:2:0:0:
413,309,148521,1,0,1:1:0:0:
320,115,148690,1,2,3:2:0:0:
381,210,148858,1,2,3:2:0:0:
239,325,149027,1,2,3:2:0:0:
288,202,149195,5,2,3:2:0:0:
288,202,149279,1,2,2:2:0:0:
288,202,149364,2,0,L|243:211,1,45,2|0,3:2|0:0,0:0:0:0:
63,259,149532,5,0,1:1:0:0:
15,225,149617,1,0,1:1:0:0:
13,175,149701,1,8,3:3:0:0:
47,140,149785,1,8,2:3:0:0:
87,137,149869,1,6,2:3:0:0:
107,147,149954,1,4,2:3:0:0:
115,158,150038,5,2,3:2:0:0:
166,164,150122,1,0,1:1:0:0:
204,127,150206,1,8,2:3:0:0:
193,72,150291,1,4,2:3:0:0:
105,62,150375,5,2,3:2:0:0:
105,62,150712,6,0,L|147:260,1,202.500007724762,4|0,3:2|0:0,0:0:0:0:
174,341,151049,2,0,B|215:329|222:279|222:279|211:315|183:322,1,135.000005149842,0|2,1:1|2:2,0:0:0:0:
103,384,151302,1,2,0:3:0:0:
103,384,151386,2,0,P|92:362|91:332,1,45,2|0,3:2|0:0,0:0:0:0:
10,306,151555,2,0,P|22:286|49:269,1,45,2|0,3:2|0:0,0:0:0:0:
211,205,151723,1,0,1:1:0:0:
74,146,151892,6,0,P|131:200|210:204,1,161.999995056153,2|0,3:2|0:0,0:0:0:0:
293,198,152229,2,0,P|289:175|277:156,1,45,0|0,3:3|0:0,0:0:0:0:
432,53,152397,2,0,P|400:84|383:125,1,90,2|0,1:2|0:0,0:0:0:0:
301,32,152735,1,2,3:2:0:0:
467,134,152903,1,0,3:3:0:0:
312,287,153072,5,2,1:2:0:0:
306,266,153156,1,0,1:1:0:0:
302,242,153240,1,8,2:3:0:0:
297,220,153324,1,4,2:3:0:0:
293,198,153409,6,0,B|253:225|253:225|338:193,1,135.000005149842,6|0,3:2|0:0,0:0:0:0:
414,203,153662,1,0,1:1:0:0:
414,203,153746,2,0,L|406:236,1,33.7500012874604,8|0,2:3|0:0,0:0:0:0:
485,270,153914,2,0,L|492:236,1,33.7500012874604,8|0,2:3|0:0,0:0:0:0:
476,43,154083,6,0,P|454:48|431:52,1,45,6|0,3:2|0:0,0:0:0:0:
345,72,154251,2,0,P|323:77|300:81,1,45,0|0,1:1|0:0,0:0:0:0:
141,91,154420,6,0,B|120:87|96:103|96:103|120:48|178:24|231:51|231:51|220:77|229:112,1,251.999992309571,6|0,3:2|0:0,0:0:0:0:
225,91,154926,1,0,3:3:0:0:
185,217,155094,2,0,P|167:188|140:167,1,67.5000025749208,2|0,1:2|0:0,0:0:0:0:
272,251,155431,2,0,P|257:267|249:288,1,45,2|0,3:2|0:0,0:0:0:0:
341,298,155599,2,0,P|326:314|318:335,1,45,0|0,3:3|0:0,0:0:0:0:
116,384,155768,5,2,1:2:0:0:
78,363,155852,1,0,1:1:0:0:
76,320,155936,1,0,1:1:0:0:
112,297,156020,1,0,1:1:0:0:
151,315,156105,6,0,B|93:335|47:312|42:246|42:246|72:229|81:198,1,202.500007724762,6|0,3:2|0:0,0:0:0:0:
14,163,156442,2,0,B|-5:153|-20:129|-20:129|-18:160|15:178,1,107.999996704102,0|2,1:1|2:2,0:0:0:0:
224,156,156779,1,2,3:2:0:0:
49,91,156948,1,0,3:3:0:0:
244,34,157117,1,2,1:2:0:0:
141,167,157285,2,0,L|131:122,1,45,6|0,3:2|0:0,0:0:0:0:
328,37,157454,6,0,L|303:151,1,116.999994644165,2|0,2:2|3:3,0:0:0:0:
452,255,157791,2,0,B|470:211|435:167|378:174|378:174|370:208|331:225,1,188.999994232178,2|0,1:2|0:0,0:0:0:0:
269,221,158128,1,0,3:3:0:0:
403,363,158296,2,0,L|447:353,1,45,2|0,3:2|0:0,0:0:0:0:
313,286,158465,1,0,1:1:0:0:
197,356,158633,5,2,3:2:0:0:
197,356,158718,1,2,2:2:0:0:
197,356,158802,2,0,B|160:297|204:253|204:253|254:255|279:203,1,188.999994232178,6|0,3:2|0:0,0:0:0:0:
208,173,159139,5,0,3:3:0:0:
346,216,159308,1,0,1:1:0:0:
120,229,159476,5,0,3:3:0:0:
303,151,159645,1,0,3:3:0:0:
45,81,159813,5,0,3:3:0:0:
246,0,159982,6,0,L|236:44,1,45,4|0,3:2|0:0,0:0:0:0:
51,267,160319,5,8,2:3:0:0:
37,215,160403,1,8,2:3:0:0:
61,165,160487,1,4,2:3:0:0:
108,145,160572,1,4,2:3:0:0:
164,158,160656,1,0,3:3:0:0:
190,202,160740,1,0,3:3:0:0:
189,256,160824,1,8,2:3:0:0:
221,293,160909,1,4,2:3:0:0:
266,299,160993,1,0,3:3:0:0:
296,288,161077,1,0,3:3:0:0:
306,273,161162,6,0,L|297:233,1,40.4999987640381,6|0,1:2|0:0,0:0:0:0:
354,184,161499,6,0,B|338:164|305:160|305:160|297:84|367:48|448:85|448:85|426:108|424:151,1,306.000005836487,6|0,3:2|0:0,0:0:0:0:
229,165,162004,2,0,L|206:160,1,22.5,2|0,3:2|0:0,0:0:0:0:
234,85,162173,6,0,L|499:142,1,270.000010299683,10|2,2:2|2:2,0:0:0:0:
499,142,162678,2,0,L|494:119,1,22.5,2|2,3:2|2:2,0:0:0:0:
430,29,162847,6,0,L|427:42,1,13.4999995880127,2|0,3:2|0:0,0:0:0:0:
353,11,163015,2,0,L|350:24,1,13.4999995880127,8|0,2:1|0:0,0:0:0:0:
234,85,163184,6,0,L|231:71,1,13.4999995880127,2|0,0:3|0:0,0:0:0:0:
154,89,163352,2,0,L|157:103,1,13.4999995880127,2|0,3:3|0:0,0:0:0:0:
86,172,163521,6,0,L|64:72,1,101.250003862381,10|0,2:2|0:0,0:0:0:0:
58,72,163690,6,0,L|72:138,2,67.5000025749208,8|10|0,2:1|2:1|0:0,0:0:0:0:
121,252,164195,6,0,B|104:259|95:280|95:280|65:299|25:295|-5:270|-5:270|33:252|49:221,1,202.500007724762,2|0,3:2|0:0,0:0:0:0:
170,183,164532,2,0,P|188:196|201:214,1,45,10|0,2:2|0:0,0:0:0:0:
206,367,164701,2,0,B|167:360|168:318|168:318|184:346|205:351,1,107.999996704102,2|0,2:2|0:0,0:0:0:0:
272,286,165038,2,0,L|238:278,1,33.7500012874604,2|0,3:2|0:0,0:0:0:0:
337,373,165206,2,0,B|352:308|426:308|426:308|437:341|474:350,1,175.499991966248,10|2,2:2|2:2,0:0:0:0:
494,279,165544,6,0,B|532:273|531:229|531:229|521:254|498:262,1,116.999994644165,2|2,3:2|2:3,0:0:0:0:
357,238,165881,2,0,P|309:207|308:151,1,116.999994644165,2|0,2:2|3:3,0:0:0:0:
400,4,166218,2,0,P|421:11|443:14,1,45,2|0,2:2|0:0,0:0:0:0:
485,113,166386,1,2,3:3:0:0:
485,113,166471,1,2,0:3:0:0:
485,113,166555,2,0,P|401:85|315:69,1,175.499991966248,10|2,2:2|2:2,0:0:0:0:
251,7,166892,6,0,B|224:81|149:86|149:86|125:56|84:57,1,202.500007724762,4|2,3:2|2:3,0:0:0:0:
12,67,167229,2,0,L|2:22,2,45,8|2|2,2:2|2:3|2:3,0:0:0:0:
78,157,167735,2,0,L|82:134,1,22.5,0|0,3:3|0:0,0:0:0:0:
36,229,167903,6,0,B|-10:267|-10:267|131:220,1,202.500007724762,10|0,2:2|0:0,0:0:0:0:
200,194,168240,2,0,P|208:151|174:125,1,90,2|0,3:2|0:0,0:0:0:0:
113,305,168577,2,0,P|140:338|184:342,1,90,10|0,2:2|3:3,0:0:0:0:
339,324,168914,2,0,P|335:301|322:284,1,45,2|0,2:2|0:0,0:0:0:0:
273,225,169083,1,0,3:3:0:0:
302,365,169251,2,0,P|298:321|323:284,1,90,10|0,2:2|3:3,0:0:0:0:
426,202,169588,6,0,B|434:183|470:166|470:166|393:157|366:217|366:217|394:236|404:269,1,229.500004377365,2|0,3:2|0:0,0:0:0:0:
447,313,169926,2,0,P|465:292|472:265,1,45,10|0,2:2|0:0,0:0:0:0:
313,151,170094,1,2,3:2:0:0:
313,151,170178,1,2,0:3:0:0:
313,151,170263,2,0,P|297:135|288:114,1,45,2|0,0:3|0:0,0:0:0:0:
387,49,170431,2,0,P|378:69|362:85,1,45,2|0,3:2|0:0,0:0:0:0:
256,28,170600,1,10,2:2:0:0:
256,28,170684,1,2,0:3:0:0:
256,28,170768,2,0,L|300:37,1,45,2|0,3:2|0:0,0:0:0:0:
179,103,170937,6,0,L|104:118,1,76.5000014591217,2|0,3:2|0:0,0:0:0:0:
128,35,171105,1,2,2:3:0:0:
128,35,171190,1,2,2:3:0:0:
128,35,171274,1,2,3:2:0:0:
61,190,171442,5,2,3:2:0:0:
44,186,171526,1,0,3:3:0:0:
27,182,171611,2,0,L|3:69,1,114.750002188683,8|0,2:2|0:0,0:0:0:0:
3,69,171780,2,0,L|36:76,1,33.7500012874604,0|0,3:3|0:0,0:0:0:0:
183,107,171948,6,0,L|207:220,1,114.750002188683,8|0,2:2|0:0,0:0:0:0:
207,220,172117,2,0,L|174:213,1,33.7500012874604,0|0,3:3|3:3,0:0:0:0:
42,274,172285,5,6,3:2:0:0:
72,360,172454,1,2,2:3:0:0:
160,290,172622,1,8,3:2:0:0:
190,376,172791,1,2,2:2:0:0:
358,278,172959,5,2,3:2:0:0:
242,309,173128,1,2,2:2:0:0:
321,366,173296,1,10,3:2:0:0:
281,228,173465,1,2,2:2:0:0:
281,228,173549,1,2,2:2:0:0:
281,228,173633,1,2,3:2:0:0:
440,323,173802,1,2,2:3:0:0:
408,192,173971,5,10,3:2:0:0:
484,226,174139,1,2,2:3:0:0:
335,142,174308,5,2,3:2:0:0:
411,108,174476,1,2,2:3:0:0:
281,228,174645,5,10,3:2:0:0:
240,107,174813,1,2,2:3:0:0:
291,0,174982,5,2,3:2:0:0:
201,184,175150,1,2,2:3:0:0:
106,40,175319,5,10,3:2:0:0:
156,113,175487,1,2,2:3:0:0:
156,113,175572,1,2,0:3:0:0:
156,113,175656,1,2,3:2:0:0:
8,174,175824,1,2,2:3:0:0:
70,117,175993,1,8,3:2:0:0:
202,259,176162,1,2,2:2:0:0:
97,207,176330,5,2,3:2:0:0:
97,207,176414,1,2,0:3:0:0:
97,207,176499,2,0,L|89:240,1,33.7500012874604,2|2,2:3|2:3,0:0:0:0:
19,307,176667,1,8,3:2:0:0:
19,307,176751,1,0,0:0:0:0:
19,307,176836,2,0,L|26:340,1,33.7500012874604,2|2,2:3|2:3,0:0:0:0:
155,384,177004,5,2,3:2:0:0:
131,307,177173,1,2,2:3:0:0:
284,317,177341,1,8,3:2:0:0:
252,154,177510,1,2,2:3:0:0:
421,264,177678,5,2,3:2:0:0:
308,233,177847,1,2,2:3:0:0:
339,120,178015,1,8,3:2:0:0:
452,151,178184,1,2,2:3:0:0:
483,38,178353,2,0,L|454:30,1,22.5,2|2,3:3|2:3,0:0:0:0:
370,7,178521,1,2,2:3:0:0:
370,7,178605,1,2,0:3:0:0:
370,7,178690,2,0,L|362:39,1,22.5,10|0,3:2|0:0,0:0:0:0:
346,127,178858,5,2,2:3:0:0:
346,127,178942,1,2,2:3:0:0:
346,127,179027,2,0,L|314:119,3,22.5,2|0|0|0,3:2|0:0|0:0|0:0,0:0:0:0:
268,45,179364,2,0,L|236:53,3,22.5,10|0|0|0,3:2|0:0|0:0|0:0,0:0:0:0:
202,131,179701,5,2,3:2:0:0:
179,126,179785,1,2,2:3:0:0:
157,121,179869,1,2,2:3:0:0:
135,116,179953,1,2,2:3:0:0:
102,88,180038,5,10,3:2:0:0:
79,93,180122,1,2,2:3:0:0:
57,98,180206,1,2,2:3:0:0:
35,103,180290,1,2,2:3:0:0:
13,108,180375,6,0,P|28:85|52:76,1,53.9999983520508,2|0,3:2|0:0,0:0:0:0:
103,0,180544,2,0,P|130:1|150:17,1,53.9999983520508,0|0,3:3|0:0,0:0:0:0:
241,23,180712,2,0,P|253:47|249:72,1,53.9999983520508,0|0,3:3|0:0,0:0:0:0:
290,154,180881,2,0,P|275:177|251:186,1,53.9999983520508,0|0,3:3|0:0,0:0:0:0:
233,295,181049,5,2,3:3:0:0:
266,344,181133,1,2,2:3:0:0:
318,376,181217,1,2,3:3:0:0:
378,384,181301,1,2,2:3:0:0:
435,367,181386,1,2,3:3:0:0:
481,328,181470,1,2,2:3:0:0:
507,273,181554,1,2,3:3:0:0:
509,213,181638,1,2,2:3:0:0:
485,157,181723,5,2,3:2:0:0:
485,157,183072,6,0,L|247:207,1,242.999992584229,6|0,3:2|0:0,0:0:0:0:
188,259,183409,1,2,3:2:0:0:
298,94,183577,1,2,2:2:0:0:
50,24,183746,1,2,3:2:0:0:
174,181,183914,2,0,L|202:48,1,135.000005149842,2|0,2:2|3:3,0:0:0:0:
4,286,184251,5,2,2:2:0:0:
4,286,184336,1,2,2:2:0:0:
4,286,184420,2,0,B|0:236|50:190|106:218|106:218|122:250|152:254,1,202.500007724762,2|0,3:2|0:0,0:0:0:0:
174,181,184757,1,0,3:3:0:0:
154,360,184926,2,0,P|170:339|195:327,1,53.9999983520508,2|0,2:2|0:0,0:0:0:0:
328,276,185094,2,0,P|362:316|413:332,1,107.999996704102,2|0,3:2|0:0,0:0:0:0:
268,162,185431,2,0,B|272:134|254:107|214:106|214:106|246:122|250:153,1,135,2|0,3:2|0:0,0:0:0:0:
174,181,185768,6,0,P|247:126|383:106,1,202.500007724762,6|0,3:2|0:0,0:0:0:0:
459,43,186105,5,2,3:2:0:0:
467,39,186162,5,0,3:3:0:0:
476,42,186218,5,0,3:3:0:0:
482,47,186274,6,0,B|502:103|448:142|446:121|379:161|410:215,1,202.500007724762,6|0,3:2|0:0,0:0:0:0:
373,290,186611,2,0,P|348:276|332:243,1,53.9999983520508,2|0,3:2|0:0,0:0:0:0:
354,103,186779,1,2,2:2:0:0:
174,181,186948,6,0,P|247:126|383:106,1,202.500007724762,6|0,3:2|0:0,0:0:0:0:
314,27,187285,2,0,P|286:30|260:37,1,45,0|0,3:3|0:0,0:0:0:0:
82,110,187454,2,0,P|110:75|113:31,1,90,0|2,3:3|2:2,0:0:0:0:
41,220,187791,2,0,B|-4:206|2:160|2:160|15:189|44:189,1,116.999994644165,2|0,3:2|0:0,0:0:0:0:
213,340,188128,5,2,3:2:0:0:
227,285,188212,1,0,3:3:0:0:
190,243,188296,1,0,3:3:0:0:
134,251,188380,1,0,3:3:0:0:
110,302,188465,6,0,L|334:254,1,229.500004377365,6|0,3:2|0:0,0:0:0:0:
350,173,188802,2,0,P|374:180|395:196,1,45,2|0,3:2|0:0,0:0:0:0:
464,308,188971,2,0,P|477:265|509:235,1,90,2|0,2:2|3:3,0:0:0:0:
418,62,189308,1,2,2:2:0:0:
418,62,189392,1,2,0:0:0:0:
418,62,189476,1,0,3:3:0:0:
502,130,189645,2,0,L|457:139,1,45,2|0,2:2|2:2,0:0:0:0:
270,202,189813,6,0,B|219:224|175:192|175:192|149:136|90:152,1,188.999994232178,2|0,3:2|0:0,0:0:0:0:
55,201,190150,2,0,B|69:229|53:261|53:261|71:229|114:220,1,125.999996154785,2|0,3:2|0:0,0:0:0:0:
112,0,190487,2,0,P|85:6|59:11,1,53.9999983520508,2|0,3:2|0:0,0:0:0:0:
17,97,190656,1,2,2:2:0:0:
17,97,190740,1,2,0:0:0:0:
17,97,190824,2,0,P|96:77|175:63,1,161.999995056153,2|0,3:2|0:0,0:0:0:0:
340,81,191162,6,0,B|325:2|236:15|236:15|258:36|259:84,1,188.999994232178,6|0,3:2|0:0,0:0:0:0:
367,160,191499,2,0,P|394:149|412:112,1,53.9999983520508,2|0,3:2|0:0,0:0:0:0:
219,132,191667,2,0,L|241:237,1,107.999996704102,2|0,2:2|3:3,0:0:0:0:
352,312,192004,2,0,L|307:302,1,45,2|0,2:2|0:0,0:0:0:0:
160,271,192173,1,0,3:3:0:0:
418,384,192341,2,0,P|474:351|477:287,1,135.000005149842,2|2,3:2|2:2,0:0:0:0:
367,160,192678,5,0,3:3:0:0:
370,168,192734,5,0,3:3:0:0:
373,175,192791,5,0,3:3:0:0:
376,181,192847,6,0,L|420:172,1,45,0|0,3:3|0:0,0:0:0:0:
483,58,193015,2,0,L|439:67,1,45,2|0,3:2|0:0,0:0:0:0:
219,132,193184,2,0,L|228:87,1,45,2|0,3:2|0:0,0:0:0:0:
131,0,193353,5,2,3:2:0:0:
121,44,193437,1,0,3:3:0:0:
112,88,193521,1,2,3:2:0:0:
102,132,193605,1,0,3:3:0:0:
93,176,193690,1,2,3:2:0:0:
84,220,193774,1,0,3:3:0:0:
75,264,193858,6,0,B|35:254|25:209|25:209|78:174|149:188|158:281,1,242.999992584229,6|0,3:2|0:0,0:0:0:0:
177,331,194195,2,0,P|197:321|213:306,1,45,2|0,3:2|2:2,0:0:0:0:
360,260,194364,2,0,P|327:234|273:229,1,90,2|0,2:2|3:2,0:0:0:0:
367,160,194701,2,0,P|334:207|280:227,1,116.999994644165,2|0,2:2|3:3,0:0:0:0:
510,365,195038,5,2,2:2:0:0:
510,365,195122,1,2,2:2:0:0:
510,365,195206,2,0,B|503:289|434:291|434:291|422:328|375:342,1,175.499991966248,2|0,3:2|0:0,0:0:0:0:
322,332,195544,1,0,3:3:0:0:
476,222,195712,2,0,P|488:203|493:181,1,45,2|0,2:2|0:0,0:0:0:0:
398,41,195881,2,0,P|425:90|481:100,1,116.999994644165,2|0,3:2|0:0,0:0:0:0:
251,23,196218,1,2,3:2:0:0:
251,23,196555,6,0,L|301:260,1,242.999992584229,6|0,3:2|0:0,0:0:0:0:
322,332,196892,1,2,2:2:0:0:
42,338,197060,6,0,B|37:268|94:232|159:242|159:242|166:279|208:291,1,242.999992584229,2|0,3:2|0:0,0:0:0:0:
169,359,197397,2,0,P|144:350|125:331,1,45,2|0,3:2|0:0,0:0:0:0:
20,203,197566,2,0,P|40:185|66:178,1,45,2|0,2:2|0:0,0:0:0:0:
301,260,197735,6,0,B|287:216|315:162|315:162|285:214|215:219,1,202.500007724762,6|0,3:2|0:0,0:0:0:0:
144,159,198072,1,0,3:3:0:0:
90,100,198156,1,0,3:3:0:0:
128,31,198240,1,2,3:2:0:0:
128,31,198577,6,0,L|172:40,1,45,2|0,3:2|0:0,0:0:0:0:
315,163,198746,1,2,3:2:0:0:
344,156,198830,1,0,3:3:0:0:
373,150,198914,1,2,3:2:0:0:
403,144,198998,1,0,3:3:0:0:
432,138,199083,1,2,3:2:0:0:
461,131,199167,1,2,3:2:0:0:
490,124,199251,6,0,B|429:168|370:139|363:58|363:58|394:80|439:63,1,242.999992584229,6|0,3:2|0:0,0:0:0:0:
505,0,199588,2,0,L|495:44,1,45,2|0,2:2|0:0,0:0:0:0:
372,221,199757,6,0,B|338:263|369:310|422:304|425:300|429:295|470:292|502:333|478:369,1,229.500004377365,2|0,3:2|0:0,0:0:0:0:
339,356,200094,2,0,P|318:344|301:313,1,45,2|0,3:2|0:0,0:0:0:0:
243,209,200263,2,0,L|230:266,1,58.4999973220826,2|0,2:2|0:0,0:0:0:0:
63,179,200431,1,0,3:3:0:0:
137,126,200600,6,0,L|149:183,1,58.4999973220826,2|0,2:2|0:0,0:0:0:0:
311,120,200768,1,0,3:3:0:0:
311,120,200853,1,0,3:3:0:0:
311,120,200937,2,0,B|307:64|261:20|174:48|174:48|216:67|221:111,1,242.999992584229,10|0,2:2|0:0,0:0:0:0:
393,121,201274,6,0,P|391:104|386:89,1,22.5,2|0,3:3|0:0,0:0:0:0:
429,31,201442,2,0,P|418:26|408:22,1,22.5,2|0,2:3|0:0,0:0:0:0:
270,191,201611,6,0,P|285:197|301:200,1,22.5,2|0,3:2|0:0,0:0:0:0:
329,267,201779,2,0,P|338:260|346:252,1,22.5,2|0,2:3|0:0,0:0:0:0:
507,140,201948,6,0,L|269:190,1,242.999992584229,6|0,3:2|0:0,0:0:0:0:
229,259,202285,2,0,P|209:246|196:223,1,45,2|0,2:2|0:0,0:0:0:0:
129,44,202454,6,0,B|71:44|28:-11|28:-11|71:43|50:112,1,242.999992584229,6|0,3:2|0:0,0:0:0:0:
205,72,202791,2,0,P|211:45|207:20,1,45,2|0,3:2|0:0,0:0:0:0:
0,165,202959,2,0,P|22:179|48:183,1,45,2|0,2:2|0:0,0:0:0:0:
158,169,203128,5,2,3:2:0:0:
166,177,203465,5,0,3:3:0:0:
166,177,203549,1,0,3:3:0:0:
166,177,203633,2,0,B|170:139|128:137|128:137|149:151|155:173,1,101.250003862381,2|0,3:2|0:0,0:0:0:0:
118,237,203971,1,2,3:2:0:0:
343,144,204139,1,2,2:2:0:0:
281,368,204308,5,2,3:2:0:0:
237,332,204392,1,2,2:2:0:0:
247,277,204476,1,2,2:2:0:0:
301,260,204560,1,2,2:2:0:0:
341,300,204645,6,0,B|266:255|295:183|295:183|328:171|347:135,1,202.500007724762,6|0,3:2|0:0,0:0:0:0:
377,74,204982,2,0,P|399:85|418:117,1,45,0|0,3:3|0:0,0:0:0:0:
494,220,205150,2,0,P|440:231|413:183,1,116.999994644165,0|0,0:0|3:3,0:0:0:0:
291,56,205487,5,2,0:3:0:0:
291,56,205572,1,2,0:3:0:0:
291,56,205656,2,0,L|295:78,1,22.5,2|0,3:2|0:0,0:0:0:0:
213,115,205824,2,0,L|208:92,1,22.5,2|0,2:2|0:0,0:0:0:0:
72,31,205993,6,0,B|-2:31|-2:31|123:68,1,202.500007724762,2|0,3:2|0:0,0:0:0:0:
205,9,206330,2,0,L|182:13,1,22.5,2|0,3:2|0:0,0:0:0:0:
16,127,206499,2,0,P|74:140|122:155,2,107.999996704102,2|0|0,2:2|3:3|0:0,0:0:0:0:
195,233,207004,6,0,L|199:210,4,22.5,2|2|2|2|2,3:2|2:2|2:2|2:2|2:2,0:0:0:0:
126,348,207341,6,0,P|213:276|325:260,1,229.500004377365,6|0,3:2|0:0,0:0:0:0:
432,293,207678,5,2,3:2:0:0:
440,297,207735,5,0,3:3:0:0:
447,301,207791,5,0,3:3:0:0:
454,305,207847,6,0,B|458:328|493:350|493:350|420:351|393:301|393:301|406:277|402:252,1,229.500004377365,6|0,3:2|0:0,0:0:0:0:
376,131,208184,2,0,B|409:129|459:95|459:95|409:129|351:194,1,229.500004377365,2|0,3:2|0:0,0:0:0:0:
325,260,208521,2,0,P|299:245|282:203,1,53.9999983520508,2|0,3:2|0:0,0:0:0:0:
91,50,208690,5,2,2:2:0:0:
48,101,208774,1,2,2:2:0:0:
65,159,208858,1,2,3:2:0:0:
106,186,208942,1,2,2:2:0:0:
150,180,209027,1,2,3:2:0:0:
185,176,209111,1,2,2:2:0:0:
203,191,209195,1,2,2:2:0:0:
209,208,209279,1,2,2:2:0:0:
203,223,209364,5,2,3:2:0:0:
190,213,209449,1,2,2:2:0:0:
187,195,209533,1,2,2:2:0:0:
195,174,209617,1,2,2:2:0:0:
226,160,209701,1,2,3:2:0:0:
268,142,209786,1,2,3:2:0:0:
291,98,209870,1,2,3:2:0:0:
277,41,209954,1,2,3:2:0:0:
214,15,210038,6,0,P|183:39|166:71,1,62.9999980773926,6|0,3:2|0:0,0:0:0:0:
48,101,210206,2,0,P|26:95|14:78,2,31.4999990386963,2|0|0,2:2|0:0|0:0,0:0:0:0:
213,198,210375,6,0,P|176:183|140:184,1,62.9999980773926,2|0,3:2|0:0,0:0:0:0:
55,97,210543,2,0,P|49:74|57:56,2,31.4999990386963,2|0|0,2:2|0:0|0:0,0:0:0:0:
54,288,210713,6,0,P|48:249|29:218,1,62.9999980773926,2|0,3:2|0:0,0:0:0:0:
62,101,210881,2,0,P|78:84|98:83,2,31.4999990386963,2|0|0,2:2|0:0|0:0,0:0:0:0:
37,211,211049,6,0,P|49:219|68:222,1,33.7500012874604,2|0,3:2|0:0,0:0:0:0:
150,301,211218,2,0,P|164:292|175:279,1,33.7500012874604,2|0,2:2|0:0,0:0:0:0:
291,98,211386,5,2,3:2:0:0:
366,110,211499,1,2,2:2:0:0:
393,180,211611,1,2,2:2:0:0:
298,278,211723,5,2,3:2:0:0:
276,221,211836,1,2,2:2:0:0:
314,174,211948,1,2,2:2:0:0:
423,213,212060,5,2,3:2:0:0:
392,251,212173,1,2,2:2:0:0:
344,243,212285,1,2,2:2:0:0:
313,133,212397,5,2,3:2:0:0:
351,139,212510,1,2,2:2:0:0:
365,175,212622,1,2,2:2:0:0:
355,202,212735,5,2,3:2:0:0:
364,197,212819,1,2,2:2:0:0:
372,187,212903,1,2,2:2:0:0:
373,171,212987,1,2,2:2:0:0:
361,149,213072,1,2,3:2:0:0:
334,134,213156,1,2,2:2:0:0:
295,145,213240,1,2,2:2:0:0:
277,180,213324,1,2,2:2:0:0:
289,222,213409,1,2,3:2:0:0:
271,264,213493,1,2,2:2:0:0:
226,288,213577,1,2,2:2:0:0:
172,281,213662,1,2,2:2:0:0:
135,232,213746,1,2,3:2:0:0:
146,165,213830,1,2,2:2:0:0:
208,122,213914,1,6,3:2:0:0:
283,139,213999,1,2,2:2:0:0:
320,208,214083,5,2,2:2:0:0:
243,207,214167,1,2,2:2:0:0:
185,168,214251,1,2,3:2:0:0:
151,133,214336,1,2,2:2:0:0:
109,118,214420,1,2,3:2:0:0:
69,116,214504,1,2,2:2:0:0:
34,132,214588,1,2,3:2:0:0:
16,154,214673,1,2,2:2:0:0:
6,179,214757,5,2,3:2:0:0:
39,105,214841,5,2,2:2:0:0:
114,75,214926,5,2,3:2:0:0:
197,86,215010,5,2,3:2:0:0:
258,140,215094,5,2,3:2:0:0:
307,211,215178,5,2,3:2:0:0:
384,234,215263,5,2,3:2:0:0:
466,222,215347,5,2,3:2:0:0:
511,156,215431,6,0,B|495:132|495:132|461:131,1,58.4999973220826,6|0,3:2|0:0,0:0:0:0:
420,36,215600,2,0,B|391:37|391:37|373:66,1,58.4999973220826,2|0,2:3|0:0,0:0:0:0:
270,54,215768,2,0,B|257:79|257:79|273:109,1,58.4999973220826,2|0,3:3|0:0,0:0:0:0:
269,258,215937,2,0,L|383:233,1,116.999994644165,2|0,2:3|3:3,0:0:0:0:
270,363,216274,2,0,L|225:353,1,45,2|0,2:3|0:0,0:0:0:0:
70,318,216442,1,0,3:3:0:0:
218,182,216611,5,2,2:3:0:0:
154,300,216779,1,0,3:3:0:0:
66,138,216948,5,2,2:3:0:0:
150,293,217117,1,0,3:3:0:0:
167,95,217285,2,0,B|155:55|107:57|107:57|139:72|145:100,1,116.999994644165,2|0,2:3|3:3,0:0:0:0:
218,182,217622,6,0,L|262:172,1,45,2|0,2:3|0:0,0:0:0:0:
319,86,217791,2,0,L|349:119,1,45,2|0,3:3|0:0,0:0:0:0:
452,125,217959,2,0,L|438:167,1,45,2|0,2:3|0:0,0:0:0:0:
391,337,218128,6,0,B|355:275|355:275|359:267|359:267|466:246|466:246|473:249|473:249|445:286,1,242.999992584229,6|0,3:2|0:0,0:0:0:0:
323,384,218465,2,0,L|303:344,1,45,2|0,2:3|0:0,0:0:0:0:
173,281,218633,6,0,B|161:318|126:340|126:340|278:267,1,242.999992584229,6|0,3:2|0:0,0:0:0:0:
89,265,218971,6,0,L|49:256,1,40.4999987640381,6|0,3:2|0:0,0:0:0:0:
194,384,219308,6,0,L|143:146,1,242.999992584229,6|0,3:2|0:0,0:0:0:0:
32,30,219645,1,0,3:3:0:0:
78,94,219729,1,0,3:3:0:0:
152,68,219813,1,0,3:3:0:0:
152,68,220150,6,0,L|107:58,1,45,0|0,3:3|0:0,0:0:0:0:
272,209,220319,5,0,3:3:0:0:
317,219,220403,1,0,3:3:0:0:
365,232,220487,1,0,3:3:0:0:
412,244,220572,1,0,3:3:0:0:
400,196,220655,1,0,3:3:0:0:
389,148,220739,1,0,3:3:0:0:
376,101,220824,6,0,L|332:90,1,45,6|0,3:2|0:0,0:0:0:0:
228,0,220993,2,0,L|256:132,1,135.000005149842,2|0,2:2|0:0,0:0:0:0:
124,310,221330,6,0,L|167:299,1,45,6|0,3:2|0:0,0:0:0:0:
272,209,221499,2,0,L|243:341,1,135.000005149842,2|0,2:2|3:3,0:0:0:0:
473,283,221836,6,0,L|429:294,1,45,2|0,2:2|0:0,0:0:0:0:
325,384,222005,6,0,L|353:252,1,135.000005149842,6|0,3:2|0:0,0:0:0:0:
343,167,222341,5,2,3:2:0:0:
343,167,222426,1,0,3:3:0:0:
343,167,222509,2,0,L|338:144,1,22.5,2|0,3:2|0:0,0:0:0:0:
433,124,222678,2,0,L|449:108,1,22.5,2|0,2:2|0:0,0:0:0:0:
512,198,222847,6,0,L|480:204,1,22.5,2|0,3:2|0:0,0:0:0:0:
368,268,223015,2,0,L|346:244,1,22.5,2|0,2:2|0:0,0:0:0:0:
256,132,223184,5,2,3:2:0:0:
258,120,223268,1,2,0:0:0:0:
260,109,223352,1,2,0:0:0:0:
263,98,223436,1,2,0:0:0:0:
277,23,223521,6,0,L|232:32,1,45,6|0,3:2|0:0,0:0:0:0:
100,100,223690,2,0,B|37:54|37:54|198:100,1,229.500004377365,2|0,2:2|0:0,0:0:0:0:
338,145,224027,6,0,L|347:100,1,45,6|0,3:2|0:0,0:0:0:0:
181,174,224195,2,0,L|209:306,1,135.000005149842,2|0,2:2|3:3,0:0:0:0:
40,269,224532,6,0,L|84:278,1,45,2|0,2:2|0:0,0:0:0:0:
277,371,224701,2,0,L|409:342,1,135.000005149842,6|0,3:2|0:0,0:0:0:0:
496,372,225038,5,2,3:2:0:0:
496,372,225122,1,2,3:2:0:0:
496,372,225206,2,0,L|485:328,1,45,2|0,3:2|0:0,0:0:0:0:
401,242,225375,2,0,L|411:198,1,45,2|0,2:2|0:0,0:0:0:0:
279,47,225544,5,2,3:2:0:0:
278,98,225628,1,2,2:2:0:0:
320,124,225712,1,2,2:2:0:0:
369,107,225796,1,2,0:0:0:0:
449,127,225881,5,2,3:2:0:0:
463,107,225965,1,2,0:0:0:0:
460,83,226049,1,2,0:0:0:0:
443,66,226133,1,2,0:0:0:0:
373,25,226218,6,0,P|243:59|127:128,1,270.000010299683,6|0,3:2|0:0,0:0:0:0:
127,128,226723,2,0,P|138:107|138:77,1,45,2|0,3:2|0:0,0:0:0:0:
45,26,226892,6,0,L|31:23,10,13.4999995880127,10|0|0|0|0|0|0|0|0|0|0,2:2|0:0|0:0|0:0|0:0|0:0|0:0|0:0|0:0|0:0|0:0,0:0:0:0:
123,8,227397,1,2,2:2:0:0:
23,124,227566,6,0,P|130:133|227:178,1,215.999993408203,2|0,2:2|3:3,0:0:0:0:
393,60,228072,1,2,2:2:0:0:
360,165,228240,2,0,B|311:151|291:121|315:71|315:71|322:113|357:128,1,180,10|0,2:2|0:0,0:0:0:0:
447,171,228746,1,2,2:2:0:0:
399,271,228914,6,0,P|442:258|486:249,1,90,2|0,3:2|0:0,0:0:0:0:
315,236,229251,1,2,2:2:0:0:
362,354,229420,2,0,P|318:341|274:332,1,90,2|8,3:2|2:2,0:0:0:0:
106,384,229757,2,0,P|145:365|154:323,1,90,2|0,2:2|0:0,0:0:0:0:
27,190,230094,5,2,2:2:0:0:
27,190,230178,1,2,2:2:0:0:
27,190,230263,2,0,P|35:252|97:266,1,135,2|0,2:2|0:0,0:0:0:0:
171,246,230600,2,0,P|201:213|243:198,1,90,0|0,3:3|0:0,0:0:0:0:
447,171,230937,2,0,P|477:151|483:117,1,67.5000025749208,10|0,2:2|0:0,0:0:0:0:
372,115,231274,2,0,P|380:83|408:65,1,67.5000025749208,2|0,2:2|0:0,0:0:0:0:
410,248,231611,6,0,P|329:213|243:197,1,175.499991966248,4|0,3:2|0:0,0:0:0:0:
222,126,231948,2,0,P|200:132|183:147,1,45,2|0,2:2|0:0,0:0:0:0:
103,199,232117,2,0,P|97:164|88:132,2,67.5000025749208,2|10|0,3:2|2:2|0:0,0:0:0:0:
20,190,232622,1,2,2:2:0:0:
73,51,232791,6,0,P|-1:32|9:107,1,180,2|2,2:2|2:2,0:0:0:0:
151,72,233296,2,0,P|179:53|213:42,1,67.5000025749208,2|0,3:2|0:0,0:0:0:0:
347,103,233633,2,0,P|337:71|313:46,1,67.5000025749208,10|0,2:2|0:0,0:0:0:0:
435,61,233971,2,0,P|411:36|401:4,1,67.5000025749208,2|2,2:2|2:2,0:0:0:0:
495,159,234308,6,0,P|475:246|457:335,1,180,2|0,3:2|0:0,0:0:0:0:
393,263,234813,1,2,3:2:0:0:
361,341,234982,2,0,B|360:374|397:384|397:384|384:365|383:340,1,90,10|0,2:2|0:0,0:0:0:0:
278,258,235319,2,0,P|212:266|159:306,1,135,2|0,2:2|0:0,0:0:0:0:
109,364,235656,6,0,P|93:350|88:333,2,33.7500012874604,2|2|2,2:3|2:3|2:3,0:0:0:0:
192,381,235993,1,2,3:3:0:0:
192,381,236162,1,2,2:3:0:0:
92,261,236330,2,0,P|64:241|32:232,1,67.5000025749208,10|0,2:2|0:0,0:0:0:0:
139,176,236667,2,0,P|106:166|79:147,1,67.5000025749208,2|2,2:2|2:3,0:0:0:0:
1,129,236920,5,2,2:3:0:0:
1,129,237004,2,0,B|21:60|102:66|102:66|122:94|157:99,1,180,6|0,3:2|0:0,0:0:0:0:
233,9,237510,2,0,L|166:23,2,67.5000025749208,2|8|0,3:2|2:2|0:0,0:0:0:0:
288,104,238015,2,0,B|320:97|339:56|317:30|317:30|311:61|282:75,1,135.000005149842,2|0,2:2|0:0,0:0:0:0:
219,182,238521,5,2,2:2:0:0:
219,182,238605,1,2,0:0:0:0:
219,182,238690,2,0,P|275:194|330:217,1,101.250003862381,0|0,3:3|0:0,0:0:0:0:
400,219,239027,2,0,P|432:208|450:171,1,67.5000025749208,10|0,2:2|0:0,0:0:0:0:
454,292,239364,2,0,P|486:281|504:244,1,67.5000025749208,2|0,2:2|0:0,0:0:0:0:
374,138,239701,6,0,P|299:152|212:185,1,161.999995056153,2|0,3:2|0:0,0:0:0:0:
163,125,240038,2,0,P|147:141|139:162,1,45,2|0,2:2|0:0,0:0:0:0:
137,267,240206,2,0,P|95:248|52:237,2,90,2|8|0,3:2|2:2|0:0,0:0:0:0:
300,347,240712,1,2,2:2:0:0:
209,384,240881,6,0,L|237:251,1,135,2|0,2:2|0:0,0:0:0:0:
219,182,241218,1,2,2:2:0:0:
366,291,241386,2,0,P|399:262|443:258,1,90,2|2,3:2|2:2,0:0:0:0:
336,190,241723,2,0,B|293:185|287:127|287:127|304:167|333:171,1,135,8|0,2:2|0:0,0:0:0:0:
363,105,242060,2,0,P|408:76|397:9,1,101.250003862381,2|0,2:2|0:0,0:0:0:0:
340,0,242397,6,0,L|168:36,1,175.499991966248,6|0,3:2|0:0,0:0:0:0:
94,20,242735,2,0,L|87:54,1,33.7500012874604
43,160,242903,6,0,B|11:152|-12:111|12:68|12:68|16:106|51:119,1,161.999995056153,6|0,3:2|0:0,0:0:0:0:
146,112,243240,2,0,L|138:145,1,33.7500012874604,2|2,2:2|2:2,0:0:0:0:
37,271,243409,6,0,B|31:291|4:316|4:316|67:269|116:270|116:270|127:295|161:306,1,233.999989288331,6|0,3:2|0:0,0:0:0:0:
227,206,243914,5,2,2:2:0:0:
227,206,243999,1,2,0:0:0:0:
227,206,244083,2,0,B|240:184|272:172|272:172|217:168|183:199|184:246,1,175.499991966248,0|0,3:3|0:0,0:0:0:0:
238,297,244420,2,0,P|278:318|302:367,1,90,10|0,2:2|0:0,0:0:0:0:
412,290,244757,2,0,B|410:250|364:233|333:257|333:257|353:272|361:294,1,135,2|0,2:2|0:0,0:0:0:0:
394,373,245094,6,0,L|438:161,1,215.999993408203,6|0,3:2|0:0,0:0:0:0:
438,161,245600,1,2,3:3:0:0:
382,93,245768,2,0,P|413:87|448:78,1,67.5000025749208,8|0,2:2|0:0,0:0:0:0:
332,17,246105,1,2,2:3:0:0:
290,119,246274,6,0,P|259:106|241:78,2,67.5000025749208,2|2|2,2:3|2:3|2:3,0:0:0:0:
366,211,246779,2,0,P|314:219|266:232,1,101.250003862381,0|0,3:3|0:0,0:0:0:0:
219,296,247117,2,0,P|141:274|62:259,1,161.999995056153,8|0,2:2|0:0,0:0:0:0:
62,259,247454,1,2,3:3:0:0:
185,167,247622,5,2,2:2:0:0:
185,167,247706,1,2,0:0:0:0:
185,167,247791,1,6,3:2:0:0:
256,192,247875,12,0,251836,0:0:0:0:
456,301,252510,6,0,L|459:283,3,18,2|2|2|2,2:2|2:2|2:2|2:2,0:0:0:0:
379,283,252847,2,0,L|382:265,3,18,2|2|2|2,2:2|2:2|2:2|2:2,0:0:0:0:
435,208,253184,5,4,3:2:0:0:
254,310,253690,5,2,2:2:0:0:
297,190,254532,5,2,2:2:0:0:
297,190,255038,6,0,L|300:207,2,18,2|2|2,2:2|2:2|2:2,0:0:0:0:
263,31,255712,6,0,L|259:13,2,18,2|2|2,2:2|2:2|2:2,0:0:0:0:
205,167,256386,6,0,P|200:174|189:179,1,18,2|0,2:2|0:0,0:0:0:0:
103,231,256892,5,2,2:2:0:0:
92,227,257229,2,0,P|70:207|66:177,2,54,2|2|2,2:2|2:2|2:2,0:0:0:0:
146,332,258577,6,0,P|103:344|51:357,1,90,6|2,2:2|2:2,0:0:0:0:
148,324,259083,1,2,2:2:0:0:
286,364,259588,5,0,1:2:0:0:
293,372,259757,1,0,1:1:0:0:
370,340,259926,6,0,P|394:303|390:259,1,90,2|2,1:2|2:2,0:0:0:0:
307,173,260600,2,0,P|309:195|322:213,2,45,2|2|2,2:2|2:2|2:2,0:0:0:0:
337,20,261105,1,2,2:2:0:0:
394,111,261274,6,0,P|328:95|261:88,1,135.000005149842,2|2,2:2|2:2,0:0:0:0:
400,104,261779,1,2,2:2:0:0:
230,8,262117,2,0,P|203:30|173:44,1,67.5000025749208,2|0,2:2|0:0,0:0:0:0:
71,63,262454,5,2,2:2:0:0:
71,63,262538,1,2,0:0:0:0:
71,63,262622,2,0,L|66:45,7,18,0|2|2|2|2|2|2|2,3:3|2:2|2:2|2:2|2:2|2:2|2:2|2:2,0:0:0:0:
98,142,263296,5,2,2:2:0:0:
159,154,263381,1,2,2:2:0:0:
189,123,263465,1,2,2:2:0:0:
194,96,263549,1,2,2:2:0:0:
188,81,263633,1,2,2:2:0:0:
181,72,263718,1,2,2:2:0:0:
172,69,263802,1,2,2:2:0:0:
164,70,263886,1,2,2:2:0:0:
158,73,263971,6,0,B|159:134|214:173|282:147|282:147|291:115|320:106,1,229.500004377365,6|0,3:2|0:0,0:0:0:0:
276,39,264308,2,0,P|255:48|240:65,1,45,2|2,3:2|2:2,0:0:0:0:
359,175,264476,2,0,P|388:182|428:160,1,58.4999973220826,2|0,2:2|0:0,0:0:0:0:
484,126,264645,1,0,3:3:0:0:
358,261,264813,2,0,P|366:204|414:174,1,116.999994644165,2|0,2:2|3:3,0:0:0:0:
460,379,265150,5,2,2:2:0:0:
460,379,265235,1,2,2:2:0:0:
460,379,265319,2,0,P|364:355|261:336,1,202.500007724762,2|0,3:2|0:0,0:0:0:0:
189,323,265656,1,0,3:3:0:0:
69,384,265824,2,0,P|86:370|98:351,1,45,2|0,2:2|0:0,0:0:0:0:
117,139,265993,2,0,B|117:97|71:92|71:92|100:108|104:133,1,116.999994644165,2|0,3:2|0:0,0:0:0:0:
242,264,266330,1,2,3:2:0:0:
242,264,266667,6,0,B|232:200|298:151|364:173|364:173|325:194|324:241,1,242.999992584229,6|0,3:2|0:0,0:0:0:0:
227,343,267004,2,0,P|205:337|188:322,1,45,2|0,2:2|0:0,0:0:0:0:
117,139,267173,6,0,B|87:136|68:106|68:106|62:168|114:217|170:205|170:205|179:177|191:166,1,270,2|0,3:2|0:0,0:0:0:0:
175,48,267510,2,0,P|153:52|134:65,1,45,2|0,3:2|0:0,0:0:0:0:
51,245,267678,2,0,P|65:261|85:271,1,45,2|0,2:2|0:0,0:0:0:0:
323,312,267847,6,0,L|272:74,1,242.999992584229,6|0,3:2|0:0,0:0:0:0:
377,144,268184,1,0,3:3:0:0:
455,155,268268,1,0,3:3:0:0:
491,84,268352,1,2,3:2:0:0:
491,84,268690,6,0,L|446:74,1,45,2|0,3:2|0:0,0:0:0:0:
261,26,268858,5,2,3:2:0:0:
272,74,268943,1,0,3:3:0:0:
282,121,269027,1,2,3:2:0:0:
292,169,269112,1,0,3:3:0:0:
302,216,269196,1,2,3:2:0:0:
312,264,269280,1,2,3:2:0:0:
323,312,269364,6,0,B|396:261|396:261|219:324,1,256.499993150711,6|0,3:2|0:0,0:0:0:0:
153,349,269701,2,0,L|162:304,1,45,2|0,2:2|0:0,0:0:0:0:
37,165,269869,6,0,B|9:215|38:264|98:265|98:265|113:232|151:228,1,202.500007724762,2|0,3:2|0:0,0:0:0:0:
147,90,270206,6,0,B|138:44|86:25|35:52|35:52|90:53|107:94,1,202.500007724762,2|0,3:2|0:0,0:0:0:0:
243,158,270544,6,0,B|278:127|268:72|219:43|219:43|246:91|219:125,1,202.500007724762,0|0,3:3|0:0,0:0:0:0:
148,237,270881,5,0,3:3:0:0:
148,237,270965,1,0,3:3:0:0:
148,237,271049,2,0,P|247:254|345:278,1,202.500007724762,10|0,2:2|0:0,0:0:0:0:
267,384,271386,6,0,P|256:372|250:358,1,22.5,2|0,3:3|0:0,0:0:0:0:
170,346,271555,2,0,P|174:330|184:318,1,22.5,2|0,2:3|0:0,0:0:0:0:
347,145,271723,6,0,B|327:92|363:30|363:30|327:92|265:94,1,242.999992584229,2|0,3:2|0:0,0:0:0:0:
257,291,272060,6,0,B|312:300|348:362|348:362|312:300|341:245,1,242.999992584229,6|0,3:2|0:0,0:0:0:0:
429,198,272397,6,0,B|451:205|471:192|471:192|447:184|428:198,1,90,2|0,2:2|0:0,0:0:0:0:
174,140,272566,6,0,B|137:183|66:183|66:183|137:183|171:235,1,242.999992584229,6|0,3:2|0:0,0:0:0:0:
165,328,272903,6,0,B|147:343|147:367|147:367|167:350|165:327,1,90,2|0,3:2|0:0,0:0:0:0:
180,44,273072,6,0,B|175:21|154:9|154:9|159:34|180:44,1,90,2|0,2:2|0:0,0:0:0:0:
347,145,273240,6,0,B|327:92|363:30|363:30|327:92|265:94,1,242.999992584229,2|0,3:2|0:0,0:0:0:0:
243,214,273577,5,0,3:3:0:0:
281,192,273662,1,0,3:3:0:0:
243,169,273746,2,0,L|253:218,1,45,2|2,3:2|2:2,0:0:0:0:
165,328,274083,5,2,3:2:0:0:
429,198,274251,1,2,2:2:0:0:
180,44,274420,1,2,3:2:0:0:
290,334,274588,5,2,2:2:0:0:
297,338,274673,1,2,2:2:0:0:
304,343,274757,2,0,L|346:144,1,202.500007724762,6|0,3:2|0:0,0:0:0:0:
309,75,275094,2,0,L|374:60,1,67.5000025749208,0|2,3:3|2:3,0:0:0:0:
474,135,275431,1,0,3:3:0:0:
474,135,275515,2,0,L|440:127,2,33.7500012874604,2|0|2,2:3|0:0|2:3,0:0:0:0:
459,47,275768,1,0,3:3:0:0:
459,47,275937,1,2,2:3:0:0:
388,193,276105,6,0,P|359:175|346:145,1,67.5000025749208,2|2,3:2|2:3,0:0:0:0:
346,145,276358,1,2,2:3:0:0:
346,145,276442,1,0,3:3:0:0:
475,223,276611,1,2,2:3:0:0:
336,322,276779,1,2,3:2:0:0:
430,359,276948,2,0,L|422:325,1,33.7500012874604,8|2,2:1|2:3,0:0:0:0:
274,231,277117,2,0,L|259:297,1,67.5000025749208,8|2,3:2|2:3,0:0:0:0:
89,383,277454,6,0,B|37:385|10:342|31:294|31:294|34:332|70:344,1,175.499991966248,2|0,3:2|0:0,0:0:0:0:
109,285,277791,2,0,P|135:265|145:233,1,67.5000025749208,0|2,3:3|2:3,0:0:0:0:
65,152,278128,1,0,3:3:0:0:
65,152,278212,2,0,P|72:171|94:193,2,33.7500012874604,2|0|2,2:3|0:0|2:3,0:0:0:0:
94,72,278465,1,0,3:3:0:0:
94,72,278633,1,2,2:3:0:0:
216,148,278802,6,0,L|149:133,1,67.5000025749208,0|2,3:3|2:3,0:0:0:0:
269,70,279139,2,0,L|202:55,1,67.5000025749208,0|2,3:3|2:3,0:0:0:0:
312,155,279476,2,0,L|345:147,1,33.7500012874604,2|0,3:2|0:0,0:0:0:0:
505,147,279645,1,2,2:3:0:0:
505,147,279729,1,2,2:3:0:0:
505,147,279813,2,0,B|489:78|405:100|405:100|422:119|422:145,1,175.499991966248,2|2,3:3|2:3,0:0:0:0:
387,214,280150,6,0,B|372:264|428:279|431:272|480:283|465:335,1,161.999995056153,2|0,3:2|0:0,0:0:0:0:
400,384,280487,2,0,P|372:364|340:354,1,67.5000025749208,0|0,3:3|0:0,0:0:0:0:
261,287,280824,1,0,3:3:0:0:
261,287,280909,2,0,P|250:300|237:310,2,33.7500012874604,2|0|2,0:3|2:3|2:3,0:0:0:0:
244,204,281162,1,0,3:3:0:0:
244,204,281330,1,2,2:3:0:0:
191,376,281499,6,0,P|166:353|159:319,1,67.5000025749208,0|2,3:3|2:3,0:0:0:0:
158,321,281751,1,2,0:3:0:0:
158,321,281836,1,0,3:3:0:0:
272,383,282004,1,0,0:0:0:0:
83,297,282173,2,0,P|90:264|116:240,1,67.5000025749208,2|2,3:2|2:3,0:0:0:0:
114,241,282425,1,2,2:3:0:0:
114,241,282510,1,0,3:3:0:0:
96,376,282678,1,2,2:3:0:0:
205,251,282847,6,0,P|237:181|186:124,1,161.999995056153,2|0,3:2|0:0,0:0:0:0:
141,64,283184,2,0,P|114:83|109:116,1,67.5000025749208,0|0,3:3|0:0,0:0:0:0:
37,201,283521,1,0,3:3:0:0:
37,201,283605,2,0,P|20:189|13:173,2,33.7500012874604,2|0|2,0:3|2:3|2:3,0:0:0:0:
114,241,283858,1,0,3:3:0:0:
114,241,284027,1,2,2:3:0:0:
2,326,284195,6,0,P|17:300|52:282,1,58.4999973220826,2|0,3:2|0:0,0:0:0:0:
153,168,284364,1,2,2:3:0:0:
153,168,284448,1,2,2:3:0:0:
153,168,284532,2,0,P|169:177|182:192,1,33.7500012874604,0|0,3:3|0:0,0:0:0:0:
267,179,284701,1,2,2:3:0:0:
267,179,284785,1,2,2:3:0:0:
267,179,284869,2,0,P|267:197|260:216,1,33.7500012874604,2|2,3:3|2:3,0:0:0:0:
247,334,285038,6,0,L|161:315,1,87.749995983124,2|0,2:3|0:0,0:0:0:0:
154,323,285206,2,0,L|187:330,1,33.7500012874604,0|0,3:3|0:0,0:0:0:0:
361,384,285375,6,0,P|389:352|436:346,1,87.749995983124,2|0,2:3|0:0,0:0:0:0:
440,346,285544,6,0,P|363:330|332:259,1,161.999995056153,6|0,3:2|0:0,0:0:0:0:
344,179,285881,1,0,3:3:0:0:
466,214,286049,2,0,P|438:233|405:238,1,67.5000025749208,2|0,2:3|3:3,0:0:0:0:
491,138,286386,1,2,0:3:0:0:
491,138,286471,1,2,2:3:0:0:
491,138,286555,1,0,3:3:0:0:
395,105,286723,1,2,2:3:0:0:
262,211,286892,6,0,P|232:195|199:186,1,67.5000025749208,0|2,3:3|2:3,0:0:0:0:
199,186,287145,1,2,2:3:0:0:
199,186,287229,1,0,3:3:0:0:
271,118,287397,1,2,2:3:0:0:
110,145,287566,2,0,P|78:114|84:66,1,90,2|0,3:2|0:0,0:0:0:0:
80,71,287819,1,2,2:3:0:0:
80,71,287903,1,0,3:3:0:0:
8,171,288072,1,2,2:3:0:0:
100,384,288240,6,0,P|162:341|137:270,1,161.999995056153,2|0,3:2|0:0,0:0:0:0:
82,219,288577,1,0,3:3:0:0:
44,315,288746,2,0,B|19:333|22:365|22:365|28:336|56:317,1,107.999996704102,2|0,2:3|3:3,0:0:0:0:
167,198,289083,1,2,0:3:0:0:
167,198,289167,1,2,2:3:0:0:
167,198,289251,6,0,L|182:194,6,16.8750006437302,0|2|2|2|2|2|2,3:3|0:3|2:3|0:3|2:3|0:3|0:3,0:0:0:0:
78,131,289588,6,0,L|236:97,1,161.999995056153,2|2,3:2|2:3,0:0:0:0:
310,59,289926,2,0,L|376:73,1,67.5000025749208,0|2,3:3|2:3,0:0:0:0:
452,57,290178,1,0,0:0:0:0:
452,57,290263,2,0,P|441:12|388:8,1,90,2|2,3:2|2:3,0:0:0:0:
402,1,290515,1,2,2:3:0:0:
402,1,290600,1,2,3:3:0:0:
306,143,290768,1,2,0:3:0:0:
459,234,290937,6,0,B|458:194|424:168|379:177|379:177|367:206|338:216,1,161.999995056153,2|0,3:2|0:0,0:0:0:0:
265,231,291274,2,0,B|264:269|300:275|300:275|275:257|276:227,1,107.999996704102,0|0,3:3|0:0,0:0:0:0:
162,185,291611,2,0,P|143:188|128:192,1,33.7500012874604,2|0,3:3|0:0,0:0:0:0:
80,118,291779,1,2,2:3:0:0:
80,118,291864,1,2,2:3:0:0:
80,118,291948,2,0,P|61:121|46:125,1,33.7500012874604,2|0,3:3|0:0,0:0:0:0:
225,57,292117,5,2,2:3:0:0:
225,57,292201,1,2,2:3:0:0:
225,57,292285,2,0,P|308:75|383:90,1,161.999995056153,2|0,3:2|0:0,0:0:0:0:
464,79,292622,2,0,B|468:43|431:34|431:34|454:52|455:72,1,107.999996704102,0|0,3:3|0:0,0:0:0:0:
434,245,292959,2,0,P|470:219|512:202,1,90,0|2,3:3|2:3,0:0:0:0:
512,202,293212,1,2,2:3:0:0:
512,202,293296,1,0,3:3:0:0:
432,150,293465,1,2,2:3:0:0:
253,302,293633,5,2,3:3:0:0:
231,288,293718,1,2,0:3:0:0:
199,283,293802,1,2,3:3:0:0:
165,291,293886,1,2,0:3:0:0:
118,274,293971,1,2,3:3:0:0:
97,223,294055,1,2,0:3:0:0:
122,176,294139,1,2,3:3:0:0:
176,158,294223,1,2,0:3:0:0:
212,178,294307,1,2,3:3:0:0:
229,139,294392,1,2,0:3:0:0:
282,122,294476,1,2,3:3:0:0:
331,145,294560,1,2,0:3:0:0:
344,198,294644,1,2,3:3:0:0:
315,239,294729,1,2,0:3:0:0:
284,254,294813,1,2,3:3:0:0:
260,276,294897,1,2,0:3:0:0:
253,302,294982,5,2,3:2:0:0:
253,302,295656,5,2,2:2:0:0:
253,302,296330,6,0,B|208:292|150:309|131:370|131:370|133:297|192:219|271:170|319:227|314:226|309:226|389:256|454:221|485:135|470:71|447:47|392:1|317:-4|264:42|258:98|258:98|251:43|211:2|151:-5|78:21|59:88|74:164|146:198|201:167,1,1260,6|0,2:2|0:0,0:0:0:0:
256,192,301133,12,0,304420,0:0:0:0:
