osu file format v14

[General]
AudioFilename: audio.mp3
AudioLeadIn: 0
PreviewTime: 64223
Countdown: 0
SampleSet: Soft
StackLeniency: 0.7
Mode: 0
LetterboxInBreaks: 0
WidescreenStoryboard: 0

[Editor]
Bookmarks: 11056,21723,32389,43056,53723,64389,85556,107056
DistanceSpacing: 0.4
BeatDivisor: 4
GridSize: 4
TimelineZoom: 1.7

[Metadata]
Title:Tenko
TitleUnicode:天狐
Artist:iru1919
ArtistUnicode:iru1919
Creator:Seto Kousuke
Version:Insane
Source:
Tags:oriental drum and bass dnb sakura recordz sakuramodki さくらもどき icekalt dada hypercyte hypercute trynna ayyri eiri-
BeatmapID:1759876
BeatmapSetID:840826

[Difficulty]
HPDrainRate:6
CircleSize:5
OverallDifficulty:8
ApproachRate:9
SliderMultiplier:1.6
SliderTickRate:1

[Events]
//Background and Video events
0,0,"cute girl idk the name.jpg",0,0
//Break Periods
//Storyboard Layer 0 (Background)
//Storyboard Layer 1 (Fail)
//Storyboard Layer 2 (Pass)
//Storyboard Layer 3 (Foreground)
//Storyboard Sound Samples

[TimingPoints]
390,333.333333333333,4,2,1,40,1,0
390,-133.333333333333,4,2,1,40,0,0
21723,-133.333333333333,4,2,1,55,0,0
37723,-133.333333333333,4,2,1,70,0,0
64389,-100,4,2,1,70,0,1
66889,-100,4,2,1,5,0,1
67056,-100,4,2,1,70,0,1
68223,-100,4,2,1,5,0,1
68389,-100,4,2,1,70,0,1
69556,-100,4,2,1,5,0,1
69723,-100,4,2,1,70,0,0
75056,-100,4,2,1,70,0,1
77556,-100,4,2,1,5,0,1
77723,-100,4,2,1,70,0,1
80389,-100,4,2,1,70,0,0
85723,-100,4,2,1,70,0,1
85889,-100,4,2,1,5,0,1
86056,-100,4,2,1,70,0,1
86556,-100,4,2,1,5,0,1
86723,-100,4,2,1,70,0,1
88556,-100,4,2,1,5,0,1
88723,-100,4,2,1,70,0,1
89056,-100,4,2,1,5,0,1
89223,-100,4,2,1,70,0,1
89889,-100,4,2,1,5,0,1
90056,-100,4,2,1,70,0,1
91056,-100,4,2,1,70,0,0
96389,-100,4,2,1,70,0,1
96556,-100,4,2,1,5,0,1
96723,-100,4,2,1,70,0,1
96889,-100,4,2,1,5,0,1
97056,-100,4,2,1,70,0,1
97223,-100,4,2,1,5,0,1
97389,-100,4,2,1,70,0,1
98723,-100,4,2,1,5,0,1
98889,-100,4,2,1,70,0,1
100556,-100,4,2,1,5,0,1
100723,-100,4,2,1,70,0,1
101056,-100,4,2,1,5,0,1
101223,-100,4,2,1,70,0,1
101723,-100,4,2,1,70,0,0
107056,-100,4,2,1,70,0,0

[Colours]
Combo1 : 153,70,136
Combo2 : 31,143,167
Combo3 : 91,129,104
Combo4 : 91,199,225

[HitObjects]
111,203,390,6,0,L|166:155,1,60.0000022888184,2|0,3:2|0:0,0:0:0:0:
220,147,723,1,0,0:0:0:0:
220,147,889,1,0,0:0:0:0:
202,210,1056,2,0,L|156:249,2,60.0000022888184,0|0|0,0:0|0:0|0:0,0:0:0:0:
288,154,1556,6,0,B|340:141|352:178|414:149,1,120.000004577637,2|0,0:0|0:0,0:0:0:0:
460,116,2056,1,0,0:0:0:0:
460,116,2223,1,0,0:0:0:0:
497,170,2389,2,0,L|497:231,2,60.0000022888184,0|0|0,0:0|0:0|0:0,0:0:0:0:
497,58,2889,1,0,0:0:0:0:
405,152,3056,6,0,B|352:178|340:141|288:154,1,120.000004577637,2|0,0:0|0:0,0:0:0:0:
231,187,3556,1,0,0:0:0:0:
176,149,3723,2,0,L|167:83,1,60.0000022888184,0|0,0:0|0:0,0:0:0:0:
227,61,4056,2,0,L|235:120,1,60.0000022888184,0|0,0:0|0:0,0:0:0:0:
171,217,4389,6,0,B|140:231|140:231|31:229,1,120.000004577637,2|0,0:0|0:0,0:0:0:0:
1,190,4889,1,0,0:0:0:0:
55,151,5056,2,0,L|116:152,1,60.0000022888184,0|0,0:0|0:0,0:0:0:0:
127,303,5389,2,0,L|65:301,1,60.0000022888184,0|0,0:0|0:0,0:0:0:0:
189,221,5723,6,0,B|245:210|251:241|332:222,1,120.000004577637,2|0,0:0|0:0,0:0:0:0:
363,191,6223,1,0,0:0:0:0:
420,233,6389,1,0,0:0:0:0:
420,233,6556,1,0,0:0:0:0:
477,204,6723,2,0,L|479:130,1,60.0000022888184,0|0,0:0|0:0,0:0:0:0:
459,27,7056,6,0,P|420:5|402:77,1,120.000004577637,2|0,0:0|0:0,0:0:0:0:
443,92,7556,1,0,0:0:0:0:
385,124,7723,2,0,L|313:124,1,60.0000022888184,0|0,0:0|0:0,0:0:0:0:
262,57,8056,2,0,L|322:57,1,60.0000022888184,0|0,0:0|0:0,0:0:0:0:
388,194,8389,6,0,L|264:194,1,120.000004577637,2|0,0:0|0:0,0:0:0:0:
228,246,8889,2,0,P|201:207|242:132,1,120.000004577637,2|2,0:0|0:0,0:0:0:0:
286,124,9389,2,0,L|365:124,1,60.0000022888184
463,139,9723,5,2,0:0:0:0:
463,139,9889,1,0,0:0:0:0:
484,72,10056,1,0,0:0:0:0:
484,72,10222,1,0,0:0:0:0:
440,21,10389,2,0,P|412:12|369:19,1,60.0000022888184,0|0,0:0|0:0,0:0:0:0:
346,124,10723,2,0,P|348:94|339:65,1,60.0000022888184,0|0,0:0|0:0,0:0:0:0:
166,61,11056,6,0,B|195:39|195:39|279:41,1,120.000004577637,8|0,1:0|1:0,0:0:0:0:
280,107,11556,1,0,0:0:0:0:
284,111,11723,2,0,L|210:111,1,60.0000022888184,0|0,1:0|0:0,0:0:0:0:
160,130,12056,1,0,1:0:0:0:
210,181,12223,1,0,0:0:0:0:
210,181,12389,6,0,L|340:181,1,120.000004577637,8|0,1:0|1:0,0:0:0:0:
430,124,12889,1,0,0:0:0:0:
430,124,13056,2,0,P|400:120|373:131,1,60.0000022888184,0|0,1:0|0:0,0:0:0:0:
373,231,13389,2,0,P|400:242|429:237,1,60.0000022888184,0|0,1:0|0:0,0:0:0:0:
330,181,13723,6,0,L|210:181,1,120.000004577637,8|0,1:0|1:0,0:0:0:0:
154,217,14223,1,0,0:0:0:0:
154,217,14389,2,0,L|170:285,1,60.0000022888184,0|0,1:0|0:0,0:0:0:0:
115,347,14723,2,0,L|102:289,1,60.0000022888184,0|0,1:0|0:0,0:0:0:0:
181,340,15056,6,0,B|223:340|223:340|247:329|247:329|304:329,1,120.000004577637,8|0,1:0|1:0,0:0:0:0:
356,296,15556,1,0,0:0:0:0:
415,335,15723,1,0,1:0:0:0:
415,335,15889,1,0,0:0:0:0:
474,305,16056,2,0,P|488:277|477:237,1,60.0000022888184,0|0,1:0|0:0,0:0:0:0:
458,97,16389,6,0,P|453:154|502:185,1,120.000004577637,8|0,1:0|1:0,0:0:0:0:
422,225,16889,1,0,0:0:0:0:
422,225,17056,2,0,L|335:224,1,60.0000022888184,0|0,1:0|0:0,0:0:0:0:
252,179,17389,2,0,L|312:180,1,60.0000022888184,0|0,1:0|0:0,0:0:0:0:
414,301,17723,6,0,L|294:299,1,120.000004577637,8|0,1:0|1:0,0:0:0:0:
238,335,18223,1,0,0:0:0:0:
177,310,18389,2,0,P|179:274|202:244,1,60.0000022888184,0|0,1:0|0:0,0:0:0:0:
146,204,18723,2,0,P|178:188|215:192,1,60.0000022888184,0|0,1:0|0:0,0:0:0:0:
350,156,19056,6,0,P|296:172|244:137,1,120.000004577637,8|0,1:0|1:0,0:0:0:0:
200,90,19556,2,0,P|254:74|306:109,1,120.000004577637,0|0,0:0|0:0,0:0:0:0:
394,117,20056,2,0,P|368:132|350:155,1,60.0000022888184,0|0,1:0|0:0,0:0:0:0:
312,276,20389,5,8,1:0:0:0:
312,276,20556,1,0,0:0:0:0:
372,314,20723,1,0,1:0:0:0:
372,314,20890,1,0,0:0:0:0:
436,299,21056,2,0,L|503:299,1,60.0000022888184,0|0,1:0|0:0,0:0:0:0:
481,363,21389,2,0,L|421:363,1,60.0000022888184,0|0,1:0|0:0,0:0:0:0:
255,259,21723,5,2,3:3:0:0:
255,259,22056,1,2,3:3:0:0:
52,360,22389,2,0,P|85:336|83:249,1,120.000004577637,10|2,0:3|3:3,0:3:0:0:
23,186,22889,1,2,0:3:0:0:
23,186,23223,5,2,0:3:0:0:
23,186,23389,2,0,B|72:168|89:207|141:185,1,120.000004577637,0|10,3:3|0:3,0:3:0:0:
202,69,24056,1,2,3:0:0:0:
316,222,24389,5,0,3:0:0:0:
316,222,24723,1,0,3:0:0:0:
460,24,25056,2,0,P|427:48|429:135,1,120.000004577637,8|0,0:3|3:0,0:0:0:0:
420,122,26056,2,0,B|371:140|354:101|301:122,1,120.000004577637,0|8,3:0|0:3,0:0:0:0:
193,196,26723,1,0,3:0:0:0:
76,39,27056,5,0,3:0:0:0:
76,39,27389,1,0,3:0:0:0:
27,222,27723,2,0,P|63:258|134:237,1,120.000004577637,8|0,0:3|3:0,0:0:0:0:
125,245,28723,2,0,L|124:108,2,120.000004577637,0|8|0,3:0|0:3|3:0,0:0:0:0:
265,345,29723,5,0,3:0:0:0:
265,345,30223,1,0,3:0:0:0:
387,285,30389,1,8,0:3:0:0:
265,345,30723,1,0,3:0:0:0:
391,289,31389,5,0,3:0:0:0:
391,289,31556,1,0,3:0:0:0:
265,345,31723,1,8,0:3:0:0:
116,232,32056,1,0,3:0:0:0:
255,125,32389,5,2,3:3:0:0:
255,125,32722,1,2,3:3:0:0:
52,24,33055,2,0,P|85:48|83:135,1,120.000004577637,10|2,0:3|3:3,0:3:0:0:
23,198,33555,1,2,0:3:0:0:
23,198,33889,5,2,0:3:0:0:
23,198,34056,2,0,B|72:216|89:177|141:198,1,120.000004577637,0|10,3:3|0:3,0:3:0:0:
202,315,34722,1,2,3:3:0:0:
363,203,35056,5,0,3:0:0:0:
363,203,35389,1,0,3:0:0:0:
463,361,35723,2,0,L|464:228,1,120.000004577637,8|0,0:3|3:0,0:0:0:0:
463,241,36723,6,0,L|463:361,1,120.000004577637,0|8,3:0|0:3,0:0:0:0:
463,118,37389,1,0,3:0:0:0:
357,197,37723,5,0,3:0:0:0:
357,197,38056,1,0,3:0:0:0:
283,46,38389,1,8,0:3:0:0:
234,169,38723,1,0,3:0:0:0:
234,169,39389,5,0,3:0:0:0:
283,46,39723,1,8,0:3:0:0:
221,174,40056,1,0,3:0:0:0:
443,168,40389,5,0,3:0:0:0:
443,168,40889,1,0,3:0:0:0:
221,174,41056,1,8,0:3:0:0:
313,80,41389,1,0,3:0:0:0:
372,247,41723,6,0,P|354:281|302:242,1,120.000004577637,8|0,0:3|3:0,0:0:0:0:
150,176,42223,2,0,P|183:134|220:173,1,120.000004577637,8|0,0:3|3:0,0:0:0:0:
92,316,42723,1,8,0:3:0:0:
92,316,43056,5,2,3:3:0:0:
34,226,43389,1,2,3:3:0:0:
83,131,43723,1,10,0:3:0:0:
190,126,44056,1,2,3:3:0:0:
274,237,44223,1,2,1:3:0:0:
274,237,44389,6,0,L|275:298,1,60.0000022888184,2|2,1:3|1:3,0:0:0:0:
200,284,44723,2,0,L|200:224,1,60.0000022888184,2|2,3:3|1:3,0:0:0:0:
326,123,45056,2,0,L|325:182,1,60.0000022888184,10|2,0:3|1:3,0:0:0:0:
324,182,45556,1,2,1:3:0:0:
388,75,45723,6,0,P|331:43|269:69,1,120.000004577637,2|2,3:3|3:3,0:0:0:0:
144,121,46223,2,0,P|194:152|251:139,1,120.000004577637,2|2,1:3|0:3,0:0:0:0:
203,42,46723,2,0,L|138:39,1,60.0000022888184,2|2,3:3|0:3,0:0:0:0:
65,117,47056,6,0,B|64:144|73:162|73:162|62:191|62:191|75:215|68:260,1,120.000004577637,2|2,0:3|3:3,0:0:0:0:
180,313,47556,2,0,P|128:291|84:327,1,120.000004577637,2|2,0:3|0:3,0:0:0:0:
165,205,48056,2,0,L|246:207,1,60.0000022888184,2|0,3:3|0:0,0:0:0:0:
340,261,48389,5,0,3:0:0:0:
340,261,48723,1,0,3:0:0:0:
413,164,49056,2,0,L|414:102,1,60.0000022888184,8|0,0:3|0:0,0:0:0:0:
396,40,49389,1,0,3:0:0:0:
396,40,49556,1,0,1:0:0:0:
331,56,49723,5,0,1:0:0:0:
267,38,49889,1,0,1:0:0:0:
224,88,50056,2,0,L|217:156,1,60.0000022888184,0|0,3:0|1:0,0:0:0:0:
281,166,50389,2,0,L|288:98,1,60.0000022888184,8|0,0:3|1:0,0:0:0:0:
267,38,50723,1,0,3:0:0:0:
203,20,50889,1,0,1:0:0:0:
157,68,51056,6,0,L|143:202,1,120.000004577637,0|0,3:0|1:0,0:0:0:0:
64,277,51556,1,0,3:0:0:0:
64,277,51723,2,0,P|113:261|167:299,1,120.000004577637,8|0,0:3|3:0,0:0:0:0:
206,349,52223,1,0,1:0:0:0:
268,328,52389,5,0,1:0:0:0:
268,328,52556,1,0,1:0:0:0:
268,261,52723,1,0,3:0:0:0:
268,261,52889,1,0,3:0:0:0:
205,239,53056,2,0,L|118:231,1,60.0000022888184,8|0,0:3|3:0,0:0:0:0:
133,233,53306,1,0,3:0:0:0:
121,236,53389,2,0,L|91:236,2,30.0000011444092,0|0|0,3:0|3:0|3:0,0:0:0:0:
153,135,53723,6,0,L|212:140,1,60.0000022888184,0|0,3:0|1:0,0:0:0:0:
314,195,54056,2,0,L|255:190,1,60.0000022888184,0|0,3:0|1:0,0:0:0:0:
94,86,54389,2,0,P|81:113|79:143,1,60.0000022888184,8|0,0:3|3:0,0:0:0:0:
163,64,54723,2,0,P|131:28|100:18,1,60.0000022888184,8|0,0:3|3:0,0:0:0:0:
124,208,55056,6,0,L|183:202,1,60.0000022888184,0|0,3:0|1:0,0:0:0:0:
285,147,55389,2,0,L|225:152,1,60.0000022888184,0|0,3:0|1:0,0:0:0:0:
50,199,55722,2,0,P|52:229|65:256,1,60.0000022888184,8|0,0:3|3:0,0:0:0:0:
208,269,56056,2,0,P|233:252|250:228,1,60.0000022888184,8|0,0:3|3:0,0:0:0:0:
400,93,56389,6,0,L|374:147,1,60.0000022888184,0|0,3:0|1:0,0:0:0:0:
259,92,56723,2,0,L|284:146,1,60.0000022888184,0|0,3:0|1:0,0:0:0:0:
474,70,57056,2,0,P|457:44|433:27,1,60.0000022888184,8|0,0:3|3:0,0:0:0:0:
230,24,57389,2,0,P|206:41|190:67,1,60.0000022888184,8|0,0:3|3:0,0:0:0:0:
172,241,57723,6,0,L|174:325,1,60.0000022888184,0|0,3:0|1:0,0:0:0:0:
312,298,58056,2,0,L|313:238,1,60.0000022888184,0|0,3:0|1:0,0:0:0:0:
136,174,58389,2,0,P|111:190|95:216,1,60.0000022888184,8|0,0:3|3:0,0:0:0:0:
381,215,58723,2,0,P|364:189|340:172,1,60.0000022888184,8|0,0:3|3:0,0:0:0:0:
178,62,59056,6,0,L|108:63,1,60.0000022888184,0|0,3:0|1:0,0:0:0:0:
18,16,59389,1,8,0:3:0:0:
18,16,59556,1,0,1:0:0:0:
52,97,59723,2,0,L|53:167,1,60.0000022888184,0|0,3:0|1:0,0:0:0:0:
7,257,60056,1,8,0:3:0:0:
7,257,60223,1,0,1:0:0:0:
97,234,60389,6,0,L|167:233,1,60.0000022888184,0|0,3:0|1:0,0:0:0:0:
257,279,60722,1,8,0:3:0:0:
257,279,60889,1,0,1:0:0:0:
229,192,61056,2,0,L|228:122,1,60.0000022888184,0|0,3:0|1:0,0:0:0:0:
274,32,61389,1,8,0:3:0:0:
274,32,61556,1,0,1:0:0:0:
343,105,61723,6,0,L|343:164,1,60.0000022888184,0|0,3:0|1:0,0:0:0:0:
276,285,62056,2,0,L|329:315,1,60.0000022888184,8|0,0:3|1:0,0:0:0:0:
397,214,62389,2,0,L|345:244,1,60.0000022888184,0|0,3:0|1:0,0:0:0:0:
207,306,62723,2,0,L|206:246,1,60.0000022888184,8|0,0:3|1:0,0:0:0:0:
291,125,63056,5,8,0:3:0:0:
289,205,63223,1,0,3:0:0:0:
289,205,63390,1,0,3:0:0:0:
222,82,63556,1,8,0:3:0:0:
220,166,63723,1,0,3:0:0:0:
220,166,63889,1,0,3:0:0:0:
148,113,64056,1,8,0:3:0:0:
148,113,64139,1,0,3:0:0:0:
148,113,64223,1,0,3:0:0:0:
145,193,64389,5,6,3:3:0:0:
220,166,64556,1,2,1:3:0:0:
289,205,64723,1,10,0:3:0:0:
291,125,64889,1,2,1:3:0:0:
222,82,65056,1,6,1:3:0:0:
148,113,65223,1,2,3:3:0:0:
145,193,65389,1,10,0:3:0:0:
220,166,65556,1,2,1:3:0:0:
289,205,65723,6,0,L|290:284,1,80,6|2,3:3|1:3,0:3:0:0:
354,158,66056,1,10,0:3:0:0:
411,214,66223,1,2,1:3:0:0:
466,156,66389,1,6,1:3:0:0:
410,98,66556,1,2,3:3:0:0:
354,158,66723,2,0,B|304:174|289:137|220:155,1,120,10|0,0:3|0:3,0:3:0:0:
198,167,67056,5,6,3:3:0:0:
134,118,67223,1,2,1:3:0:0:
144,38,67389,1,10,0:3:0:0:
218,8,67556,1,2,1:3:0:0:
282,55,67723,1,6,1:3:0:0:
346,8,67889,1,2,3:3:0:0:
411,54,68056,2,0,B|422:82|422:82|401:147|401:147|407:197,1,120,10|0,0:3|0:0,0:0:0:0:
430,203,68389,5,6,3:3:0:0:
492,253,68556,1,2,1:3:0:0:
431,305,68723,1,10,0:3:0:0:
492,253,68889,1,2,1:3:0:0:
489,359,69056,1,6,1:3:0:0:
492,253,69223,1,2,3:3:0:0:
370,357,69389,2,0,B|338:366|338:366|247:351,1,120,10|0,0:3|0:3,0:3:0:0:
212,359,69723,6,0,P|226:317|211:266,1,80,0|0,3:0|1:0,0:0:0:0:
125,193,70056,1,8,0:3:0:0:
200,164,70223,1,0,1:0:0:0:
210,164,70306,1,0,1:0:0:0:
220,163,70389,1,0,1:0:0:0:
230,163,70472,1,0,1:0:0:0:
240,162,70556,1,0,3:0:0:0:
283,229,70723,1,8,0:3:0:0:
283,95,70889,1,0,1:0:0:0:
240,162,71056,6,0,P|204:164|153:143,1,80,0|0,3:0|1:0,0:0:0:0:
51,101,71389,1,8,0:3:0:0:
48,181,71556,1,0,1:0:0:0:
48,191,71639,1,0,1:0:0:0:
49,201,71722,1,0,1:0:0:0:
49,211,71805,1,0,1:0:0:0:
50,221,71889,1,0,3:0:0:0:
94,302,72056,2,0,B|122:313|122:313|183:300,1,80,8|0,0:3|1:0,0:0:0:0:
294,208,72389,6,0,L|291:288,1,80,0|0,3:0|1:0,0:0:0:0:
186,195,72723,1,8,0:3:0:0:
243,140,72889,1,0,1:0:0:0:
253,140,72972,1,0,1:0:0:0:
263,139,73055,1,0,1:0:0:0:
273,139,73138,1,0,1:0:0:0:
283,138,73222,1,0,3:0:0:0:
355,171,73389,1,8,0:3:0:0:
298,61,73556,1,0,1:0:0:0:
430,155,73723,6,0,P|430:194|409:227,1,80,0|0,3:0|1:0,0:0:0:0:
251,239,74056,2,0,L|331:245,1,80,8|0,0:3|1:0,0:0:0:0:
482,217,74389,1,0,3:0:0:0:
430,155,74556,1,0,3:0:0:0:
355,171,74723,2,0,L|275:165,1,80,8|0,0:3|1:0,0:0:0:0:
196,29,75056,5,6,3:3:0:0:
217,107,75223,1,2,1:3:0:0:
160,165,75389,1,10,0:3:0:0:
139,87,75556,1,2,1:3:0:0:
217,107,75723,1,6,1:3:0:0:
238,185,75890,1,2,3:3:0:0:
181,243,76056,2,0,L|84:223,1,80,10|2,0:3|1:3,0:3:0:0:
17,156,76389,5,6,3:3:0:0:
97,152,76556,1,2,1:3:0:0:
97,152,76639,1,2,1:3:0:0:
97,152,76723,1,10,0:3:0:0:
60,81,76889,1,2,1:3:0:0:
139,87,77056,1,6,1:3:0:0:
176,158,77223,1,2,3:3:0:0:
156,236,77389,2,0,B|120:236|120:236|96:248|96:248|72:236|72:236|36:236,1,120,10|0,0:3|0:3,0:3:0:0:
0,237,77723,5,6,3:3:0:0:
0,316,77889,1,2,1:3:0:0:
80,316,78056,1,10,0:3:0:0:
159,316,78222,1,2,1:3:0:0:
156,236,78389,5,6,1:3:0:0:
224,367,78556,1,2,3:3:0:0:
324,313,78723,2,0,B|323:275|323:275|300:240,1,80,10|0,0:3|1:3,0:3:0:0:
156,236,79056,5,6,3:3:0:0:
228,278,79223,1,2,1:3:0:0:
158,315,79389,1,10,0:3:0:0:
156,236,79556,1,2,1:3:0:0:
300,240,79723,1,6,3:3:0:0:
288,371,79889,1,2,3:3:0:0:
429,322,80056,1,10,0:3:0:0:
370,376,80223,1,0,1:0:0:0:
433,319,80389,6,0,P|443:282|431:229,1,80,0|0,3:0|1:0,0:0:0:0:
296,236,80723,1,8,0:3:0:0:
345,173,80889,1,0,1:0:0:0:
344,163,80973,1,0,1:0:0:0:
344,153,81056,1,0,1:0:0:0:
343,143,81139,1,0,1:0:0:0:
343,133,81222,1,0,3:0:0:0:
287,75,81389,1,8,0:3:0:0:
399,75,81556,1,0,1:0:0:0:
343,133,81723,6,0,P|337:178|355:220,1,80,0|0,3:0|1:0,0:0:0:0:
447,290,82056,1,8,0:3:0:0:
381,335,82223,1,0,1:0:0:0:
371,336,82307,1,0,1:0:0:0:
361,336,82390,1,0,1:0:0:0:
351,337,82473,1,0,1:0:0:0:
341,337,82556,1,0,3:0:0:0:
273,270,82723,2,0,P|236:256|183:264,1,80,8|0,0:3|1:0,0:0:0:0:
94,358,83056,6,0,B|120:314|120:314|120:285,1,80,0|0,3:0|1:0,0:0:0:0:
45,171,83389,1,8,0:3:0:0:
122,190,83556,1,0,1:0:0:0:
132,191,83640,1,0,1:0:0:0:
142,191,83723,1,0,1:0:0:0:
152,192,83806,1,0,1:0:0:0:
162,192,83889,1,0,3:3:0:0:
236,129,84056,2,0,P|247:88|231:39,1,80,8|0,0:3|1:0,0:0:0:0:
95,49,84389,5,8,0:3:0:0:
169,93,84556,1,0,3:0:0:0:
169,93,84723,1,0,3:0:0:0:
39,117,84889,1,8,0:3:0:0:
113,161,85056,1,0,3:0:0:0:
113,161,85223,1,0,3:0:0:0:
15,236,85389,1,8,0:3:0:0:
93,284,85556,1,0,3:0:0:0:
93,284,85639,1,0,3:0:0:0:
93,284,85723,6,0,B|131:291|131:291|171:281|171:281|213:293,1,120,6|0,3:3|0:3,0:3:0:0:
275,359,86056,2,0,P|245:335|249:297,1,80,10|0,0:3|1:3,0:3:0:0:
363,210,86389,2,0,B|334:212|310:232|310:232|286:212|254:208,1,120,6|0,1:3|0:3,0:3:0:0:
215,218,86723,2,0,P|231:182|225:143,1,80,10|2,0:3|1:3,0:3:0:0:
88,117,87056,5,6,3:3:0:0:
225,143,87223,1,2,1:3:0:0:
164,90,87389,1,10,0:3:0:0:
134,250,87556,1,2,1:3:0:0:
73,197,87723,1,6,1:3:0:0:
211,224,87889,1,2,3:0:0:0:
304,132,88056,1,8,0:3:0:0:
399,208,88223,1,2,1:3:0:0:
313,306,88389,6,0,P|328:363|376:342,1,120,6|0,3:3|0:3,0:3:0:0:
403,321,88723,1,10,0:3:0:0:
325,212,88889,2,0,B|299:211|299:211|244:233|244:233|211:224,1,120,6|0,1:3|0:3,0:3:0:0:
171,217,89223,1,2,3:3:0:0:
289,139,89389,2,0,L|368:148,1,80,10|2,0:3|1:3,0:3:0:0:
220,319,89723,6,0,B|126:295|126:295|100:261,1,120,6|0,3:3|0:3,0:3:0:0:
95,239,90056,1,10,0:3:0:0:
187,95,90223,1,6,1:3:0:0:
180,192,90389,1,0,3:3:0:0:
180,192,90473,1,0,3:3:0:0:
180,192,90556,1,2,3:3:0:0:
326,257,90723,2,0,B|269:247|269:247|249:256,1,80,14|0,0:3|1:3,0:3:0:0:
125,357,91056,6,0,L|186:305,1,80,0|0,3:0|1:0,0:0:0:0:
259,181,91389,1,8,0:3:0:0:
180,192,91556,1,0,1:0:0:0:
170,192,91639,1,0,1:0:0:0:
160,191,91722,1,0,1:0:0:0:
150,191,91805,1,0,1:0:0:0:
140,190,91889,1,0,3:0:0:0:
87,130,92056,1,8,0:3:0:0:
87,250,92223,1,0,1:0:0:0:
140,189,92389,6,0,P|179:188|215:205,1,80,0|0,3:0|1:0,0:0:0:0:
280,311,92723,1,8,0:3:0:0:
333,251,92889,1,0,1:0:0:0:
333,241,92972,1,0,1:0:0:0:
334,231,93055,1,0,1:0:0:0:
334,221,93138,1,0,1:0:0:0:
335,211,93222,1,0,3:0:0:0:
279,152,93389,2,0,P|271:107|302:71,1,80,8|0,0:3|1:0,0:0:0:0:
443,48,93723,6,0,L|363:48,1,80,0|0,3:0|1:0,0:0:0:0:
240,14,94056,1,8,0:3:0:0:
206,86,94223,1,0,1:0:0:0:
206,96,94306,1,0,1:0:0:0:
205,106,94389,1,0,1:0:0:0:
205,116,94472,1,0,1:0:0:0:
204,126,94556,1,0,3:0:0:0:
246,219,94723,2,0,P|287:223|331:197,1,80,8|0,0:3|1:0,0:0:0:0:
434,136,95056,6,0,L|429:244,1,80,0|0,3:0|1:0,0:0:0:0:
367,327,95389,1,8,0:3:0:0:
320,207,95556,2,0,P|278:202|235:229,1,80,0|0,3:0|1:0,0:0:0:0:
192,278,95889,1,0,3:0:0:0:
161,119,96056,2,0,P|181:152|173:191,1,80,8|0,0:3|1:0,0:0:0:0:
33,234,96389,6,0,B|69:252|120:235|120:235|100:290,1,120,6|0,3:3|0:3,0:3:0:0:
167,369,96723,2,0,B|97:346|97:346|85:325|98:302,1,120,10|0,0:3|0:3,0:3:0:0:
182,294,97056,2,0,L|302:328,1,120,6|0,1:3|0:3,0:3:0:0:
334,342,97389,2,0,P|329:298|355:263,1,80,10|2,0:3|1:3,0:3:0:0:
467,281,97723,5,6,3:3:0:0:
413,223,97889,1,2,1:3:0:0:
470,166,98056,1,10,0:3:0:0:
413,223,98223,1,2,1:3:0:0:
350,173,98389,1,6,1:3:0:0:
299,235,98556,2,0,B|257:239|257:239|236:231|236:231|207:199|149:226,1,120,6|0,3:3|0:3,0:3:0:0:
146,223,98889,1,2,1:3:0:0:
136,363,99056,6,0,P|165:336|171:298,1,80,6|0,3:3|1:3,0:3:0:0:
90,295,99389,1,10,0:3:0:0:
103,151,99556,2,0,P|74:178|69:217,1,80,6|0,1:3|1:3,0:3:0:0:
146,223,99889,1,2,3:3:0:0:
236,120,100056,1,14,0:3:0:0:
158,87,100223,1,2,1:3:0:0:
229,205,100389,6,0,B|276:192|319:203|319:203|335:177|282:175,1,120,6|0,3:3|0:3,0:3:0:0:
312,179,100723,1,10,0:3:0:0:
229,299,100889,2,0,B|276:312|319:301|319:301|335:327|282:329,1,120,6|0,1:3|3:3,0:3:0:0:
312,324,101223,1,2,3:3:0:0:
424,229,101389,2,0,L|423:129,1,80,14|0,0:3|1:3,0:3:0:0:
382,26,101723,5,0,3:0:0:0:
447,73,101889,1,0,1:0:0:0:
344,150,102056,1,8,0:3:0:0:
286,94,102223,1,0,1:0:0:0:
276,94,102306,1,0,1:0:0:0:
266,93,102389,1,0,1:0:0:0:
256,93,102472,1,0,1:0:0:0:
246,92,102556,1,0,3:0:0:0:
190,150,102723,1,8,0:3:0:0:
190,34,102889,1,0,1:0:0:0:
66,112,103056,5,0,3:0:0:0:
113,47,103222,1,0,1:0:0:0:
190,150,103389,1,8,0:3:0:0:
134,208,103556,1,0,1:0:0:0:
134,218,103639,1,0,1:0:0:0:
133,228,103722,1,0,1:0:0:0:
133,238,103805,1,0,1:0:0:0:
132,248,103889,1,0,3:0:0:0:
74,304,104056,1,8,0:3:0:0:
190,304,104222,1,0,1:0:0:0:
132,248,104389,6,0,P|133:205|175:163,1,80,0|0,3:0|1:0,0:0:0:0:
288,145,104723,1,8,0:3:0:0:
336,208,104889,1,0,1:0:0:0:
336,218,104972,1,0,1:0:0:0:
335,228,105055,1,0,1:0:0:0:
335,238,105138,1,0,1:0:0:0:
334,248,105222,1,0,3:0:0:0:
280,329,105389,2,0,P|237:339|197:329,1,80,8|0,0:3|1:0,0:0:0:0:
113,248,105723,5,0,3:0:0:0:
115,208,105806,1,0,3:0:0:0:
117,168,105889,1,0,3:0:0:0:
196,213,106056,1,8,0:3:0:0:
40,205,106223,1,0,3:0:0:0:
89,80,106389,5,0,3:0:0:0:
128,85,106472,1,0,3:0:0:0:
168,90,106555,1,0,3:0:0:0:
117,168,106723,1,8,0:3:0:0:
137,5,106889,1,0,3:0:0:0:
262,102,107056,5,4,3:1:0:0:
