osu file format v14

[General]
AudioFilename: audio.mp3
AudioLeadIn: 0
PreviewTime: 64223
Countdown: 0
SampleSet: Soft
StackLeniency: 0.7
Mode: 0
LetterboxInBreaks: 0
WidescreenStoryboard: 0

[Editor]
Bookmarks: 11056,21723,32389,43056,53723,64389,85556,107056
DistanceSpacing: 0.4
BeatDivisor: 4
GridSize: 8
TimelineZoom: 1.7

[Metadata]
Title:Tenko
TitleUnicode:天狐
Artist:iru1919
ArtistUnicode:iru1919
Creator:Seto Kousuke
Version:Expert
Source:
Tags:oriental drum and bass dnb sakura recordz sakuramodki さくらもどき icekalt dada hypercyte hypercute trynna ayyri eiri-
BeatmapID:1760798
BeatmapSetID:840826

[Difficulty]
HPDrainRate:6
CircleSize:5
OverallDifficulty:9
ApproachRate:9.5
SliderMultiplier:1.9
SliderTickRate:1

[Events]
//Background and Video events
0,0,"cute girl idk the name.jpg",0,0
//Break Periods
//Storyboard Layer 0 (Background)
//Storyboard Layer 1 (Fail)
//Storyboard Layer 2 (Pass)
//Storyboard Layer 3 (Foreground)
//Storyboard Sound Samples

[TimingPoints]
390,333.333333333333,4,2,1,40,1,0
390,-133.333333333333,4,2,1,40,0,0
21723,-133.333333333333,4,2,1,55,0,0
37723,-133.333333333333,4,2,1,70,0,0
64389,-100,4,2,1,70,0,1
66723,-83.3333333333333,4,2,1,70,0,1
66889,-100,4,2,1,5,0,1
67056,-100,4,2,1,70,0,1
68056,-83.3333333333333,4,2,1,70,0,1
68223,-100,4,2,1,5,0,1
68389,-100,4,2,1,70,0,1
69556,-100,4,2,1,5,0,1
69723,-83.3333333333333,4,2,1,70,0,0
74389,-83.3333333333333,4,2,1,70,0,0
75056,-100,4,2,1,70,0,1
77390,-83.3333333333333,4,2,1,70,0,1
77556,-100,4,2,1,5,0,1
77723,-100,4,2,1,70,0,1
78889,-100,4,2,1,70,0,1
79056,-100,4,2,1,70,0,1
80223,-100,4,2,1,5,0,1
80389,-83.3333333333333,4,2,1,70,0,0
83556,-83.3333333333333,4,2,1,70,0,0
83723,-83.3333333333333,4,2,1,70,0,0
83889,-83.3333333333333,4,2,1,70,0,0
84056,-83.3333333333333,4,2,1,70,0,0
84223,-83.3333333333333,4,2,1,70,0,0
84389,-83.3333333333333,4,2,1,70,0,0
85723,-100,4,2,1,70,0,1
85889,-100,4,2,1,5,0,1
86056,-100,4,2,1,70,0,1
86223,-66.6666666666667,4,2,1,5,0,1
86389,-100,4,2,1,70,0,1
86556,-100,4,2,1,5,0,1
86723,-100,4,2,1,70,0,1
88723,-100,4,2,1,70,0,1
89223,-100,4,2,1,70,0,1
89889,-100,4,2,1,5,0,1
90056,-100,4,2,1,70,0,1
91056,-83.3333333333333,4,2,1,70,0,0
96389,-100,4,2,1,70,0,1
96556,-100,4,2,1,5,0,1
96723,-100,4,2,1,70,0,1
96889,-100,4,2,1,5,0,1
97056,-100,4,2,1,70,0,1
97223,-100,4,2,1,5,0,1
97389,-100,4,2,1,70,0,1
98556,-83.3333333333333,4,2,1,70,0,1
98889,-100,4,2,1,70,0,1
100556,-100,4,2,1,5,0,1
100723,-100,4,2,1,70,0,1
101723,-83.3333333333333,4,2,1,70,0,0
107056,-100,4,2,1,70,0,0

[Colours]
Combo1 : 153,70,136
Combo2 : 31,143,167
Combo3 : 91,129,104
Combo4 : 91,199,225

[HitObjects]
341,212,390,6,0,P|273:224|225:175,1,142.500005435944,2|0,3:2|0:0,0:0:0:0:
227,60,889,1,0,0:0:0:0:
294,82,1056,1,0,0:0:0:0:
294,153,1223,1,0,0:0:0:0:
226,175,1389,1,0,0:0:0:0:
185,117,1556,1,0,0:0:0:0:
294,82,1723,6,0,B|360:69|367:105|450:80,1,142.500005435944,2|0,0:0|0:0,0:0:0:0:
502,177,2222,1,0,0:0:0:0:
501,247,2389,1,0,0:0:0:0:
434,269,2556,1,0,0:0:0:0:
393,209,2722,1,0,0:0:0:0:
437,155,2889,1,0,0:0:0:0:
501,247,3056,6,0,P|506:292|408:331,1,142.500005435944,2|0,0:0|0:0,0:0:0:0:
317,334,3556,1,0,0:0:0:0:
267,282,3723,1,0,0:0:0:0:
217,230,3889,1,0,0:0:0:0:
287,217,4056,1,0,0:0:0:0:
337,269,4223,1,0,0:0:0:0:
247,347,4389,6,0,B|206:347|206:347|164:335|164:335|80:334,1,142.500005435944,2|0,0:0|0:0,0:0:0:0:
1,276,4889,1,0,0:0:0:0:
73,274,5056,1,0,0:0:0:0:
145,273,5222,1,0,0:0:0:0:
104,214,5389,1,0,0:0:0:0:
32,215,5556,1,0,0:0:0:0:
34,335,5723,6,0,B|59:363|59:363|191:363,1,142.500005435944,2|0,0:0|0:0,0:0:0:0:
229,245,6223,1,0,0:0:0:0:
296,267,6390,1,0,0:0:0:0:
296,338,6557,1,0,0:0:0:0:
228,360,6723,1,0,0:0:0:0:
187,302,6890,1,0,0:0:0:0:
296,267,7056,6,0,L|459:264,1,142.500005435944,2|0,0:0|0:0,0:0:0:0:
382,149,7556,1,0,0:0:0:0:
331,203,7723,1,0,0:0:0:0:
367,266,7889,1,0,0:0:0:0:
440,257,8056,1,0,0:0:0:0:
446,182,8223,1,0,0:0:0:0:
331,203,8389,6,0,L|259:203,1,71.2500027179719,2|0,0:0|0:0,0:0:0:0:
143,201,8723,1,0,0:0:0:0:
203,163,8889,2,0,P|216:129|197:74,1,71.2500027179719,2|0,0:0|0:0,0:0:0:0:
87,46,9223,2,0,L|159:46,1,71.2500027179719,2|0,0:0|0:0,0:0:0:0:
276,65,9556,1,0,0:0:0:0:
307,0,9723,5,2,0:0:0:0:
344,62,9889,1,0,0:0:0:0:
382,124,10056,1,0,0:0:0:0:
313,127,10223,1,0,0:0:0:0:
413,59,10389,1,0,0:0:0:0:
451,121,10556,1,0,0:0:0:0:
420,186,10723,1,0,0:0:0:0:
382,124,10889,1,0,0:0:0:0:
276,191,11056,6,0,P|313:252|382:253,1,142.500005435944,8|0,1:0|1:0,0:0:0:0:
420,186,11556,1,0,0:0:0:0:
420,186,11723,2,0,L|340:189,1,71.2500027179719,0|0,1:0|0:0,0:0:0:0:
276,191,12056,1,0,1:0:0:0:
234,249,12223,1,0,0:0:0:0:
321,318,12389,6,0,B|352:283|352:283|348:187,1,142.500005435944,8|0,1:0|1:0,0:0:0:0:
312,126,12889,1,0,0:0:0:0:
312,126,13056,2,0,L|207:127,1,71.2500027179719,0|0,1:0|0:0,0:0:0:0:
136,30,13389,1,0,1:0:0:0:
188,78,13556,1,0,0:0:0:0:
140,182,13723,6,0,P|93:175|144:124,1,142.500005435944,8|0,1:0|1:0,0:0:0:0:
211,191,14223,1,0,0:0:0:0:
239,257,14389,1,0,1:0:0:0:
267,323,14556,1,0,0:0:0:0:
196,314,14722,1,0,1:0:0:0:
168,248,14889,1,0,0:0:0:0:
310,266,15056,6,0,B|405:276|405:276|427:264|427:227,1,142.500005435944,8|0,1:0|1:0,0:0:0:0:
431,165,15556,1,0,0:0:0:0:
368,195,15723,2,0,L|297:187,1,71.2500027179719,0|0,1:0|0:0,0:0:0:0:
311,23,16056,2,0,L|381:30,1,71.2500027179719,0|0,1:0|0:0,0:0:0:0:
232,98,16389,6,0,B|198:94|198:94|123:101|123:101|81:92,1,142.500005435944,8|0,1:0|1:0,0:0:0:0:
34,137,16889,1,0,0:0:0:0:
70,199,17056,2,0,P|81:231|60:281,1,71.2500027179719,0|0,1:0|0:0,0:0:0:0:
82,351,17389,2,0,P|105:324|139:315,1,71.2500027179719,0|0,1:0|0:0,0:0:0:0:
286,247,17723,6,0,P|218:267|150:244,1,142.500005435944,8|0,1:0|1:0,0:0:0:0:
139,175,18223,1,0,0:0:0:0:
70,199,18389,2,0,L|-15:200,1,71.2500027179719,0|0,1:0|0:0,0:0:0:0:
214,154,18723,2,0,L|299:155,1,71.2500027179719,0|0,1:0|0:0,0:0:0:0:
396,235,19056,5,8,1:0:0:0:
416,166,19223,1,0,0:0:0:0:
436,97,19389,1,0,1:0:0:0:
456,28,19556,1,0,0:2:0:0:
456,28,19889,1,0,0:2:0:0:
456,28,20223,1,0,0:2:0:0:
436,97,20389,5,8,1:0:0:0:
416,166,20555,1,0,0:0:0:0:
396,235,20723,1,0,1:0:0:0:
326,252,20889,1,0,0:0:0:0:
207,215,21056,5,0,1:0:0:0:
277,200,21222,1,0,0:0:0:0:
298,132,21389,1,0,1:0:0:0:
249,79,21556,1,0,0:0:0:0:
159,161,21723,5,2,3:3:0:0:
159,161,22056,1,2,3:3:0:0:
369,69,22389,1,10,0:3:0:0:
340,228,22723,1,2,3:3:0:0:
428,251,22889,2,0,P|428:184|362:141,1,142.500005435944,2|2,0:3|0:3,0:0:0:0:
159,161,23389,2,0,L|301:158,1,142.500005435944,0|10,3:3|0:3,0:0:0:0:
441,99,24056,1,2,3:0:0:0:
247,23,24389,5,0,3:0:0:0:
247,23,24723,1,0,3:0:0:0:
27,19,25056,1,8,0:3:0:0:
51,183,25389,1,0,3:0:0:0:
71,19,26056,5,0,3:0:0:0:
51,183,26389,1,8,0:3:0:0:
115,19,26723,1,0,3:0:0:0:
194,183,27056,5,0,3:0:0:0:
51,183,27389,1,0,3:0:0:0:
169,346,27723,5,8,0:3:0:0:
23,182,28056,1,0,3:0:0:0:
23,182,28723,5,0,3:0:0:0:
23,349,29056,1,8,0:3:0:0:
23,182,29389,1,0,3:0:0:0:
23,15,29722,5,0,3:0:0:0:
23,15,30223,1,0,3:0:0:0:
141,123,30389,2,0,L|307:123,1,142.500005435944,8|0,0:3|3:0,0:0:0:0:
283,123,31389,5,0,3:0:0:0:
206,22,31556,1,0,3:0:0:0:
142,206,31723,1,8,0:3:0:0:
364,212,32056,1,0,3:0:0:0:
429,27,32389,5,2,3:3:0:0:
358,90,32723,1,2,3:3:0:0:
460,174,33056,1,10,0:3:0:0:
370,285,33389,1,2,3:3:0:0:
321,213,33556,2,0,P|283:272|303:341,1,142.500005435944,2|2,0:3|0:3,0:0:0:0:
133,384,34056,2,0,P|171:325|151:256,1,142.500005435944,0|10,3:3|0:3,0:0:0:0:
41,170,34723,1,2,3:3:0:0:
189,20,35056,5,0,3:0:0:0:
46,20,35389,1,0,3:0:0:0:
180,209,35723,1,8,0:3:0:0:
35,134,36056,1,0,3:0:0:0:
180,209,36723,5,0,3:0:0:0:
35,134,37056,1,8,0:3:0:0:
47,307,37389,1,0,3:0:0:0:
269,274,37723,5,0,3:0:0:0:
264,131,38056,1,0,3:0:0:0:
433,238,38389,1,8,0:3:0:0:
409,73,38723,1,0,3:0:0:0:
409,73,39389,5,0,3:0:0:0:
433,238,39723,1,8,0:3:0:0:
447,56,40056,1,0,3:0:0:0:
226,27,40389,1,0,3:0:0:0:
226,27,40889,1,0,3:0:0:0:
149,165,41056,2,0,L|-3:155,1,142.500005435944,8|0,0:3|3:0,0:0:0:0:
302,123,41723,6,0,B|337:126|360:112|360:112|328:149|328:204,1,142.500005435944,8|0,0:3|3:0,0:0:0:0:
176,289,42223,2,0,B|141:286|118:300|118:300|150:263|150:208,1,142.500005435944,8|0,0:3|3:0,0:0:0:0:
330,271,42723,2,0,B|327:306|331:319|331:319|304:297|281:296,1,71.2500027179719,8|0,0:3|0:0,0:0:0:0:
191,114,43056,5,2,3:3:0:0:
328,186,43389,1,2,3:3:0:0:
178,126,43723,5,10,0:3:0:0:
325,173,44056,1,2,3:3:0:0:
277,88,44223,5,2,1:3:0:0:
225,230,44389,1,2,1:3:0:0:
251,159,44556,1,2,1:3:0:0:
325,173,44723,1,2,3:3:0:0:
299,244,44889,1,2,1:3:0:0:
151,216,45056,1,10,0:3:0:0:
277,88,45223,1,2,1:3:0:0:
75,129,45556,5,2,1:3:0:0:
75,129,45723,2,0,P|108:94|39:46,1,142.500005435944,2|2,3:3|3:3,0:0:0:0:
187,47,46223,2,0,B|251:27|264:72|329:43,1,142.500005435944,2|2,1:3|0:3,0:0:0:0:
462,26,46723,5,2,3:3:0:0:
436,97,46889,1,2,0:3:0:0:
410,168,47056,1,2,0:3:0:0:
413,171,47389,5,2,3:3:0:0:
465,29,47556,1,2,0:3:0:0:
469,33,47889,5,2,0:3:0:0:
417,175,48056,2,0,P|380:190|333:181,1,71.2500027179719,2|0,3:3|0:0,0:0:0:0:
164,102,48389,6,0,L|259:102,1,71.2500027179719,0|0,3:0|0:0,0:0:0:0:
119,178,48723,2,0,L|214:178,1,71.2500027179719,0|0,3:0|0:0,0:0:0:0:
216,19,49056,2,0,B|119:18|119:18|98:32|101:69,1,142.500005435944,8|0,0:3|3:0,0:0:0:0:
119,178,49556,1,0,1:0:0:0:
279,157,49723,5,0,1:0:0:0:
164,102,49889,1,0,1:0:0:0:
176,263,50056,2,0,L|247:259,1,71.2500027179719,0|0,3:0|1:0,0:0:0:0:
235,98,50389,2,0,L|163:101,1,71.2500027179719,8|0,0:3|1:0,0:0:0:0:
119,178,50723,1,0,3:0:0:0:
247,259,50889,1,0,1:0:0:0:
308,92,51056,6,0,P|373:72|423:118,1,142.500005435944,0|0,3:0|1:0,0:0:0:0:
392,248,51556,1,0,3:0:0:0:
265,227,51723,2,0,L|187:226,1,71.2500027179719,8|0,0:3|0:0,0:0:0:0:
123,125,52056,1,0,3:0:0:0:
123,125,52223,1,0,1:0:0:0:
259,88,52389,5,0,1:0:0:0:
259,88,52556,1,0,1:0:0:0:
168,23,52723,1,0,3:0:0:0:
205,162,52890,1,0,3:0:0:0:
358,73,53056,1,8,0:3:0:0:
349,275,53223,1,0,3:0:0:0:
349,275,53306,1,0,3:0:0:0:
349,275,53389,1,0,3:0:0:0:
320,166,53556,1,0,3:0:0:0:
434,211,53723,6,0,L|525:226,1,71.2500027179719,0|0,3:0|1:0,0:0:0:0:
349,275,54056,2,0,L|334:366,1,71.2500027179719,0|0,3:0|1:0,0:0:0:0:
249,225,54389,1,8,0:3:0:0:
356,157,54556,1,0,3:0:0:0:
233,234,54723,1,8,0:3:0:0:
128,161,54890,1,0,3:0:0:0:
109,302,55056,6,0,L|124:393,1,71.2500027179719,0|0,3:0|1:0,0:0:0:0:
233,234,55389,2,0,L|314:191,1,71.2500027179719,0|0,3:0|1:0,0:0:0:0:
116,153,55722,1,8,0:3:0:0:
232,63,55889,1,0,3:0:0:0:
84,26,56056,1,8,0:3:0:0:
123,172,56223,1,0,3:0:0:0:
250,49,56389,6,0,B|284:38|284:38|341:57,1,71.2500027179719,0|0,3:0|1:0,0:0:0:0:
456,196,56723,2,0,B|422:207|422:207|365:188,1,71.2500027179719,0|0,3:0|1:0,0:0:0:0:
464,43,57056,1,8,0:3:0:0:
345,127,57223,1,0,3:0:0:0:
473,31,57390,1,8,0:3:0:0:
481,204,57557,1,0,3:0:0:0:
332,118,57723,6,0,B|298:107|298:107|241:126,1,71.2500027179719,0|0,3:0|1:0,0:0:0:0:
311,306,58057,2,0,B|346:299|346:299|370:273,1,71.2500027179719,0|0,3:0|1:0,0:0:0:0:
158,240,58390,1,8,0:3:0:0:
306,208,58557,1,0,3:0:0:0:
216,349,58724,1,8,0:3:0:0:
223,177,58889,1,0,3:0:0:0:
327,334,59056,6,0,P|368:341|409:318,1,71.2500027179719,0|0,3:0|1:0,0:0:0:0:
486,227,59389,1,8,0:3:0:0:
486,227,59556,1,0,1:0:0:0:
344,225,59723,2,0,P|378:249|425:245,1,71.2500027179719,0|0,3:0|1:0,0:0:0:0:
386,44,60056,1,8,0:3:0:0:
304,70,60223,5,0,1:0:0:0:
304,70,60306,1,0,1:0:0:0:
304,70,60389,2,0,L|249:129,1,71.2500027179719,0|0,3:0|1:0,0:0:0:0:
127,168,60723,1,8,0:3:0:0:
127,168,60889,1,0,1:0:0:0:
65,25,61056,2,0,L|120:84,1,71.2500027179719,0|0,3:0|1:0,0:0:0:0:
185,264,61389,1,8,0:3:0:0:
127,319,61556,5,0,1:0:0:0:
127,319,61639,1,0,1:0:0:0:
127,319,61723,2,0,L|43:316,1,71.2500027179719,0|0,3:0|1:0,0:0:0:0:
268,273,62056,2,0,L|184:270,1,71.2500027179719,8|0,0:3|1:0,0:0:0:0:
409,227,62389,2,0,L|325:224,1,71.2500027179719,0|0,3:0|1:0,0:0:0:0:
303,352,62723,1,8,0:3:0:0:
268,198,62889,1,0,1:0:0:0:
409,227,63056,5,8,0:3:0:0:
393,91,63223,1,0,3:0:0:0:
393,91,63389,1,0,3:0:0:0:
337,224,63556,5,8,0:3:0:0:
302,105,63723,1,0,3:0:0:0:
302,105,63889,1,0,3:0:0:0:
230,277,64056,1,8,0:3:0:0:
230,277,64139,1,0,3:0:0:0:
230,277,64223,1,0,3:0:0:0:
180,155,64389,5,6,3:3:0:0:
302,105,64556,1,2,1:3:0:0:
352,227,64723,1,10,0:3:0:0:
230,277,64889,1,2,1:3:0:0:
152,141,65056,1,6,1:3:0:0:
220,307,65223,1,2,3:3:0:0:
386,239,65390,1,10,0:3:0:0:
318,73,65556,1,2,1:3:0:0:
269,190,65723,5,6,3:3:0:0:
436,123,65889,1,2,1:3:0:0:
386,239,66056,1,10,0:3:0:0:
402,40,66222,1,2,1:3:0:0:
469,205,66389,1,6,1:3:0:0:
303,273,66556,1,2,3:3:0:0:
235,108,66723,2,0,B|267:94|277:74|277:74|267:213,1,170.999994781494,10|0,0:3|0:3,0:0:0:0:
255,335,67056,5,6,3:3:0:0:
152,167,67223,1,2,1:3:0:0:
51,269,67389,1,10,0:3:0:0:
209,256,67556,1,2,1:3:0:0:
135,368,67723,1,6,1:3:0:0:
129,151,67889,1,2,3:3:0:0:
242,345,68056,2,0,B|273:350|294:370|294:370|319:343|357:336|357:336|299:314,1,170.999994781494,10|0,0:3|0:0,0:0:0:0:
209,256,68389,5,6,3:3:0:0:
316,136,68556,1,2,1:3:0:0:
320,321,68723,1,10,0:3:0:0:
321,110,68890,5,2,1:3:0:0:
192,270,69056,1,6,1:3:0:0:
327,338,69223,1,2,3:3:0:0:
462,270,69389,2,0,P|482:217|404:218,1,142.5,10|0,0:3|0:3,0:0:0:0:
318,250,69723,6,0,P|342:201|314:153,1,113.999996520996,0|0,3:0|1:0,0:0:0:0:
208,36,70056,1,8,0:3:0:0:
160,184,70223,1,0,1:0:0:0:
160,184,70306,1,0,1:0:0:0:
160,184,70389,2,0,B|170:160|170:160|161:131,1,56.9999982604981,0|0,1:0|1:0,0:0:0:0:
27,163,70556,2,0,L|84:163,1,56.9999982604981,0|0,3:0|0:0,0:0:0:0:
223,220,70723,2,0,B|247:164|247:164|224:90,1,113.999996520996,8|0,0:3|1:0,0:0:0:0:
107,58,70973,5,0,1:0:0:0:
107,58,71056,2,0,B|80:91|80:91|84:167,1,113.999996520996,0|0,3:0|1:0,0:0:0:0:
74,355,71389,2,0,P|64:328|87:289,1,56.9999982604981,8|0,0:3|0:0,0:0:0:0:
163,194,71556,2,0,P|171:221|162:247,1,56.9999982604981,0|0,1:0|1:0,0:0:0:0:
228,371,71723,2,0,P|219:344|229:318,1,56.9999982604981,0|0,1:0|1:0,0:0:0:0:
310,218,71889,1,0,3:0:0:0:
343,278,71973,1,0,1:0:0:0:
377,336,72056,2,0,B|460:349,1,56.9999982604981,8|0,0:3|1:0,0:0:0:0:
438,216,72223,2,0,B|381:218,1,56.9999982604981,0|0,3:0|1:0,0:0:0:0:
214,141,72389,6,0,B|244:139|266:152|266:152|289:140|325:143,1,113.999996520996,0|0,3:0|1:0,0:0:0:0:
490,72,72639,1,0,1:0:0:0:
490,72,72723,2,0,B|491:42|491:42|466:28,1,56.9999982604981,8|0,0:3|0:0,0:0:0:0:
379,29,72889,2,0,B|354:42|354:42|356:71,1,56.9999982604981,0|0,1:0|1:0,0:0:0:0:
397,129,73056,2,0,B|422:145|422:145|445:130,1,56.9999982604981,0|0,1:0|1:0,0:0:0:0:
270,19,73223,2,0,P|263:51|280:104,1,56.9999982604981,0|0,3:0|1:0,0:0:0:0:
174,195,73389,2,0,P|183:164|173:135,1,56.9999982604981,8|0,0:3|1:0,0:0:0:0:
88,20,73556,2,0,P|81:52|98:105,1,56.9999982604981,0|0,1:0|1:0,0:0:0:0:
257,224,73723,6,0,B|270:204|292:192|292:192|260:191|242:181|242:181|211:195|211:195|137:195,1,170.999994781494,0|0,3:0|0:0,0:0:0:0:
97,196,74056,1,8,0:3:0:0:
177,55,74222,1,0,1:0:0:0:
24,163,74389,6,0,B|10:189|10:189|19:214,1,56.9999982604981,0|0,3:0|0:0,0:0:0:0:
129,121,74556,1,0,3:0:0:0:
242,180,74723,1,8,0:3:0:0:
242,210,74806,1,0,1:0:0:0:
242,240,74889,1,0,1:0:0:0:
242,270,74973,1,0,1:0:0:0:
242,300,75056,5,6,3:3:0:0:
410,334,75223,1,2,1:3:0:0:
356,172,75389,1,10,0:3:0:0:
242,300,75556,1,2,1:3:0:0:
430,237,75723,5,6,1:3:0:0:
316,366,75889,1,2,3:3:0:0:
263,204,76055,1,10,0:3:0:0:
430,237,76223,1,2,1:3:0:0:
242,300,76389,5,6,3:3:0:0:
284,108,76556,1,2,1:3:0:0:
284,108,76639,1,2,1:3:0:0:
284,108,76723,1,10,0:3:0:0:
336,269,76889,1,2,1:3:0:0:
172,169,77056,1,6,1:3:0:0:
356,172,77223,1,2,3:3:0:0:
229,316,77389,6,0,B|194:308|172:318|172:318|157:304|120:297|120:297|168:294|173:278,1,142.5,10|0,0:3|0:3,0:0:0:0:
253,222,77723,5,6,3:3:0:0:
310,365,77889,1,2,1:3:0:0:
438,276,78056,1,10,0:3:0:0:
230,215,78223,1,2,1:3:0:0:
323,374,78389,5,6,1:3:0:0:
362,178,78556,1,2,3:3:0:0:
229,316,78723,2,0,B|196:315|178:303|178:303|152:311|127:310|127:310|138:325|159:325,1,142.5,10|0,0:3|0:0,0:0:0:0:
305,278,79056,5,6,3:3:0:0:
170,130,79223,1,2,1:3:0:0:
362,178,79389,1,10,0:3:0:0:
143,234,79556,1,2,1:3:0:0:
297,111,79723,1,6,3:3:0:0:
90,123,79890,1,2,3:3:0:0:
217,316,80056,2,0,P|258:260|241:193,1,142.5,10|0,0:3|0:0,0:0:0:0:
297,111,80389,6,0,P|250:139|244:202,1,113.999996520996,0|0,3:0|1:0,0:0:0:0:
424,323,80723,1,8,0:3:0:0:
352,211,80889,1,0,1:0:0:0:
352,211,80973,1,0,1:0:0:0:
352,211,81056,2,0,B|352:268,1,56.9999982604981,0|0,1:0|1:0,0:0:0:0:
497,263,81223,2,0,B|497:206,1,56.9999982604981,0|0,3:0|1:0,0:0:0:0:
423,124,81389,2,0,B|423:181,1,56.9999982604981,8|0,0:3|1:0,0:0:0:0:
424,323,81556,2,0,B|424:266,1,56.9999982604981,0|0,1:0|1:0,0:0:0:0:
297,141,81723,6,0,B|273:171|273:171|273:262,1,113.999996520996,0|0,3:0|1:0,0:0:0:0:
166,326,81973,1,0,1:0:0:0:
166,326,82056,2,0,L|110:327,1,56.9999982604981,8|0,0:3|1:0,0:0:0:0:
62,250,82223,2,0,L|6:251,1,56.9999982604981,0|0,1:0|1:0,0:0:0:0:
102,169,82389,2,0,L|159:169,1,56.9999982604981,0|0,1:0|1:0,0:0:0:0:
273,246,82556,2,0,L|216:246,1,56.9999982604981,0|0,3:0|1:0,0:0:0:0:
205,92,82723,2,0,B|208:52|228:33|228:33|260:29|277:32|277:32,1,113.999996520996,8|0,0:3|1:0,0:0:0:0:
272,30,82973,5,0,1:0:0:0:
266,28,83056,2,0,P|254:72|325:102,1,113.999996520996,0|0,3:0|1:0,0:0:0:0:
491,231,83389,2,0,P|441:207|395:236,1,113.999996520996,8|0,0:3|1:0,0:0:0:0:
238,358,83722,2,0,P|283:326|281:272,1,113.999996520996,0|0,3:0|1:0,0:0:0:0:
126,142,84056,2,0,P|161:184|215:178,1,113.999996520996,8|0,0:3|1:0,0:0:0:0:
96,42,84389,5,8,0:3:0:0:
35,242,84556,1,0,3:3:0:0:
191,114,84723,1,0,3:0:0:0:
140,306,84889,5,8,0:3:0:0:
61,111,85056,1,0,3:0:0:0:
252,213,85223,1,0,3:0:0:0:
35,242,85389,5,8,0:3:0:0:
193,141,85556,1,0,3:0:0:0:
193,141,85639,1,0,3:0:0:0:
193,141,85723,6,0,P|168:235|202:303,1,142.5,6|0,3:3|0:3,0:0:0:0:
263,347,86056,2,0,P|271:249|226:188,1,142.5,10|0,0:3|0:3,0:0:0:0:
193,141,86389,2,0,P|264:161|345:117,1,142.5,6|0,1:3|0:3,0:0:0:0:
447,64,86723,5,10,0:3:0:0:
333,32,86889,1,2,1:3:0:0:
341,258,87056,1,6,3:3:0:0:
426,198,87223,1,2,1:3:0:0:
257,91,87389,1,10,0:3:0:0:
417,95,87556,1,2,1:3:0:0:
251,213,87723,1,6,1:3:0:0:
428,220,87889,2,0,B|387:213|387:213|333:243|333:243|269:233,1,142.5,2|0,3:0|0:0,0:0:0:0:
251,213,88223,1,2,1:3:0:0:
324,52,88389,6,0,P|340:103|314:146,1,95,6|0,3:3|1:0,0:0:0:0:
176,194,88723,1,10,0:3:0:0:
336,301,88889,2,0,P|285:317|242:291,1,95,6|0,1:3|1:0,0:0:0:0:
244,95,89223,1,2,3:3:0:0:
108,239,89389,2,0,P|91:188|117:145,1,95,10|2,0:3|1:3,0:0:0:0:
402,193,89723,6,0,B|417:221|393:241|393:241|302:241,1,142.5,6|0,3:3|0:3,0:0:0:0:
290,153,90056,2,0,L|338:153,1,47.5,10|0,0:3|0:0,0:0:0:0:
478,206,90223,1,6,1:3:0:0:
408,319,90389,1,0,3:3:0:0:
364,322,90473,1,0,3:3:0:0:
321,322,90556,1,2,3:3:0:0:
205,237,90723,2,0,B|189:252|241:206,1,47.5,14|0,0:3|0:0,0:0:0:0:
290,153,90889,1,0,1:3:0:0:
235,303,91056,6,0,P|184:311|141:266,1,113.999996520996,0|0,3:0|1:0,0:0:0:0:
131,75,91389,1,8,0:3:0:0:
262,236,91556,6,0,L|205:236,1,56.9999982604981,0|0,1:0|1:0,0:0:0:0:
80,188,91723,2,0,L|136:188,1,56.9999982604981,0|0,1:0|1:0,0:0:0:0:
204,101,91889,2,0,L|203:163,1,56.9999982604981,0|0,3:0|0:0,0:0:0:0:
246,311,92056,2,0,B|167:311|167:311|151:307|141:288,1,113.999996520996,8|0,0:3|1:0,0:0:0:0:
276,163,92306,5,0,1:0:0:0:
276,163,92389,2,0,B|344:165|344:165|365:187|363:211,1,113.999996520996,0|0,3:0|1:0,0:0:0:0:
409,343,92639,1,0,1:0:0:0:
409,343,92723,2,0,L|410:264,1,56.9999982604981,8|0,0:3|0:0,0:0:0:0:
470,142,92889,2,0,P|444:145|415:133,1,56.9999982604981,0|0,1:0|1:0,0:0:0:0:
318,94,93056,2,0,P|327:70|352:51,1,56.9999982604981,0|0,1:0|1:0,0:0:0:0:
433,7,93223,2,0,P|448:26|452:57,1,56.9999982604981,0|0,3:0|0:0,0:0:0:0:
363,205,93389,5,8,0:3:0:0:
334,205,93472,1,0,1:0:0:0:
306,205,93555,1,0,1:0:0:0:
277,205,93638,1,0,1:0:0:0:
249,205,93723,6,0,B|214:179|214:179|213:87,1,113.999996520996,0|0,3:0|1:0,0:0:0:0:
39,12,94056,2,0,B|73:37|73:37|68:118,1,113.999996520996,8|0,0:3|1:0,0:0:0:0:
99,237,94306,1,0,1:0:0:0:
99,237,94389,2,0,P|101:204|69:169,1,56.9999982604981,0|0,1:0|1:0,0:0:0:0:
0,94,94556,2,0,P|-3:126|29:161,1,56.9999982604981,0|0,3:0|0:0,0:0:0:0:
179,81,94723,2,0,L|28:118,1,113.999996520996,8|0,0:3|1:0,0:0:0:0:
228,144,94973,1,0,1:0:0:0:
228,144,95056,6,0,P|261:109|206:8,1,170.999994781494,0|0,3:0|0:0,0:0:0:0:
171,221,95389,2,0,L|161:301,1,56.9999982604981,8|0,0:3|0:0,0:0:0:0:
289,262,95556,2,0,B|292:244|314:228|314:228|186:215,1,170.999994781494,0|0,3:0|0:0,0:0:0:0:
33,61,95889,2,0,P|21:86|23:115,1,56.9999982604981,0|0,3:0|0:0,0:0:0:0:
104,111,96056,2,0,L|274:128,1,170.999994781494,8|0,0:3|0:0,0:0:0:0:
377,60,96389,6,0,P|351:126|409:100,1,142.5,6|0,3:3|0:3,0:0:0:0:
304,260,96723,2,0,P|345:202|282:211,1,142.5,10|0,0:3|0:3,0:0:0:0:
195,103,97056,2,0,P|238:157|246:93,1,142.5,6|0,1:3|0:3,0:0:0:0:
244,12,97389,1,10,0:3:0:0:
377,60,97556,1,2,1:3:0:0:
366,209,97723,5,6,3:3:0:0:
291,83,97889,1,2,1:3:0:0:
183,165,98056,1,10,0:3:0:0:
244,12,98222,1,2,1:3:0:0:
394,131,98389,1,6,1:3:0:0:
176,78,98556,1,6,3:3:0:0:
408,140,98723,1,8,0:3:0:0:
324,12,98889,1,2,1:3:0:0:
183,165,99056,6,0,B|147:173|123:149|123:149|107:149|107:149|83:173|47:165,1,142.5,6|0,3:3|0:0,0:0:0:0:
0,220,99389,1,10,0:3:0:0:
180,272,99556,2,0,B|147:264|123:288|123:288|107:288|107:288|83:264|47:272,1,142.5,6|0,1:3|0:0,0:0:0:0:
0,220,99889,1,2,3:3:0:0:
232,220,100056,1,14,0:3:0:0:
121,105,100223,1,2,1:3:0:0:
248,232,100389,6,0,B|291:230|316:253|316:253|338:222|401:223,1,142.5,6|0,3:3|0:3,0:0:0:0:
444,170,100723,1,10,0:3:0:0:
347,35,100889,2,0,L|347:100,1,47.5,6|0,1:3|0:0,0:0:0:0:
507,60,101056,1,0,3:0:0:0:
464,66,101139,1,0,3:3:0:0:
421,68,101223,1,2,3:3:0:0:
494,254,101389,2,0,P|505:189|442:170,1,142.5,14|0,0:3|0:0,0:0:0:0:
305,244,101723,6,0,L|418:238,1,113.999996520996,0|0,3:0|1:0,0:0:0:0:
241,369,102056,1,8,0:3:0:0:
91,241,102223,2,0,B|83:216|83:216|103:167,1,56.9999982604981,0|0,1:0|1:0,0:0:0:0:
284,175,102389,2,0,B|292:200|292:200|280:228,1,56.9999982604981,0|0,1:0|1:0,0:0:0:0:
163,218,102556,2,0,L|224:197,1,56.9999982604981,0|0,3:0|0:0,0:0:0:0:
349,332,102723,2,0,L|216:376,1,113.999996520996,8|0,0:3|1:0,0:0:0:0:
110,327,102973,5,0,1:0:0:0:
110,327,103056,2,0,L|235:285,1,113.999996520996,0|0,3:0|1:0,0:0:0:0:
368,202,103306,1,0,1:0:0:0:
368,202,103389,2,0,P|353:226|356:271,1,56.9999982604981,8|0,0:3|0:0,0:0:0:0:
466,350,103556,2,0,P|476:320|456:274,1,56.9999982604981,0|0,1:0|1:0,0:0:0:0:
292,332,103723,2,0,L|349:332,1,56.9999982604981,0|0,1:0|1:0,0:0:0:0:
452,228,103889,1,0,3:0:0:0:
440,161,103973,1,0,1:0:0:0:
420,96,104056,2,0,B|390:60|390:60|278:65,1,113.999996520996,8|0,0:3|1:0,0:0:0:0:
172,28,104306,1,0,1:0:0:0:
172,28,104389,6,0,L|173:102,1,56.9999982604981,0|0,3:0|1:0,0:0:0:0:
272,176,104556,2,0,L|208:213,1,56.9999982604981,0|0,1:0|1:0,0:0:0:0:
60,184,104723,2,0,B|90:198|90:198|168:157,1,113.999996520996,8|0,0:3|1:0,0:0:0:0:
280,260,104973,1,0,1:0:0:0:
280,260,105056,2,0,L|216:297,1,56.9999982604981,0|0,1:0|1:0,0:0:0:0:
108,280,105223,2,0,L|172:243,1,56.9999982604981,0|0,3:0|1:0,0:0:0:0:
228,120,105389,1,8,0:3:0:0:
84,112,105556,1,0,1:0:0:0:
1,263,105723,5,0,3:0:0:0:
3,304,105806,1,0,3:0:0:0:
6,348,105889,1,0,3:0:0:0:
161,160,106056,1,8,0:3:0:0:
20,168,106223,1,0,3:0:0:0:
120,300,106389,5,0,3:0:0:0:
161,298,106472,1,0,3:0:0:0:
205,295,106555,1,0,3:0:0:0:
304,156,106723,1,8,0:3:0:0:
161,160,106890,1,0,3:0:0:0:
296,356,107056,5,4,3:1:0:0:
