osu file format v14

[General]
AudioFilename: audio.mp3
AudioLeadIn: 0
PreviewTime: 64223
Countdown: 0
SampleSet: Normal
StackLeniency: 0.7
Mode: 1
LetterboxInBreaks: 0
WidescreenStoryboard: 0

[Editor]
Bookmarks: 390,11056,21723,32389,43056,53723,64389,107056
DistanceSpacing: 1
BeatDivisor: 4
GridSize: 32
TimelineZoom: 2.2

[Metadata]
Title:Tenko
TitleUnicode:天狐
Artist:iru1919
ArtistUnicode:iru1919
Creator:Seto Kousuke
Version:Ayyri's Muzukashii
Source:
Tags:oriental drum and bass dnb sakura recordz sakuramodki さくらもどき icekalt dada hypercyte hypercute trynna ayyri eiri-
BeatmapID:1760926
BeatmapSetID:840826

[Difficulty]
HPDrainRate:5
CircleSize:2
OverallDifficulty:5
ApproachRate:10
SliderMultiplier:1.4
SliderTickRate:1

[Events]
//Background and Video events
0,0,"cute girl idk the name.jpg",0,40
//Break Periods
//Storyboard Layer 0 (Background)
//Storyboard Layer 1 (Fail)
//Storyboard Layer 2 (Pass)
//Storyboard Layer 3 (Foreground)
//Storyboard Sound Samples

[TimingPoints]
390,333.333333333333,4,1,0,75,1,0
64389,-100,4,1,0,75,0,1
107056,-100,4,1,0,75,0,0

[Colours]
Combo1 : 153,70,136
Combo2 : 31,143,167
Combo3 : 91,129,104
Combo4 : 91,199,225

[HitObjects]
256,192,390,5,12,0:0:0:0:
256,192,1389,1,0,0:0:0:0:
256,192,1556,1,8,0:0:0:0:
256,192,1723,1,0,0:0:0:0:
256,192,2389,1,0,0:0:0:0:
256,192,2556,1,8,0:0:0:0:
256,192,2889,1,8,0:0:0:0:
256,192,3056,1,0,0:0:0:0:
256,192,3723,1,0,0:0:0:0:
256,192,4389,1,8,0:0:0:0:
256,192,5056,1,0,0:0:0:0:
256,192,5389,1,8,0:0:0:0:
256,192,5556,1,8,0:0:0:0:
256,192,5723,1,0,0:0:0:0:
256,192,6723,1,0,0:0:0:0:
256,192,6889,1,8,0:0:0:0:
256,192,7056,1,0,0:0:0:0:
256,192,7723,1,8,0:0:0:0:
256,192,7889,1,0,0:0:0:0:
256,192,8223,1,8,0:0:0:0:
256,192,8389,1,8,0:0:0:0:
256,192,8723,1,8,0:0:0:0:
256,192,8889,1,0,0:0:0:0:
256,192,9223,1,0,0:0:0:0:
256,192,9556,1,0,0:0:0:0:
256,192,9723,1,8,0:0:0:0:
256,192,10056,1,0,0:0:0:0:
256,192,11056,1,8,0:0:0:0:
256,192,11389,1,0,0:0:0:0:
256,192,11723,1,8,0:0:0:0:
256,192,12056,1,8,0:0:0:0:
256,192,12223,1,0,0:0:0:0:
256,192,12556,1,0,0:0:0:0:
256,192,13056,1,8,0:0:0:0:
256,192,13389,1,0,0:0:0:0:
256,192,13723,1,8,0:0:0:0:
256,192,14389,1,0,0:0:0:0:
256,192,14723,1,8,0:0:0:0:
256,192,14889,1,8,0:0:0:0:
256,192,15056,1,0,0:0:0:0:
256,192,15389,1,0,0:0:0:0:
256,192,15723,1,0,0:0:0:0:
256,192,15889,1,0,0:0:0:0:
256,192,16056,1,8,0:0:0:0:
256,192,16389,1,0,0:0:0:0:
256,192,17056,1,0,0:0:0:0:
256,192,17389,1,0,0:0:0:0:
256,192,17723,1,8,0:0:0:0:
256,192,18389,1,0,0:0:0:0:
256,192,18723,1,8,0:0:0:0:
256,192,19056,1,0,0:0:0:0:
256,192,19556,1,8,0:0:0:0:
256,192,19723,1,0,0:0:0:0:
256,192,19889,1,8,0:0:0:0:
256,192,20223,1,0,0:0:0:0:
256,192,20389,1,8,0:0:0:0:
256,192,20556,1,8,0:0:0:0:
256,192,20723,1,0,0:0:0:0:
256,192,21723,1,12,0:0:0:0:
256,192,22056,1,0,0:0:0:0:
256,192,22389,1,8,0:0:0:0:
256,192,22723,1,0,0:0:0:0:
256,192,22889,1,8,0:0:0:0:
256,192,23223,1,8,0:0:0:0:
256,192,23389,1,0,0:0:0:0:
256,192,23723,1,8,0:0:0:0:
256,192,24056,1,0,0:0:0:0:
256,192,24389,1,0,0:0:0:0:
256,192,25056,1,8,0:0:0:0:
256,192,25389,1,0,0:0:0:0:
256,192,26056,1,0,0:0:0:0:
256,192,26389,1,8,0:0:0:0:
256,192,26723,1,0,0:0:0:0:
256,192,27056,1,0,0:0:0:0:
256,192,27723,1,8,0:0:0:0:
256,192,28056,1,0,0:0:0:0:
256,192,28723,1,0,0:0:0:0:
256,192,29056,1,8,0:0:0:0:
256,192,29389,1,0,0:0:0:0:
256,192,29723,1,0,0:0:0:0:
256,192,30389,1,8,0:0:0:0:
256,192,30723,1,0,0:0:0:0:
256,192,31389,1,0,0:0:0:0:
256,192,31556,1,0,0:0:0:0:
256,192,31723,1,8,0:0:0:0:
256,192,32056,1,0,0:0:0:0:
256,192,32389,1,0,0:0:0:0:
256,192,32723,1,0,0:0:0:0:
256,192,33056,1,8,0:0:0:0:
256,192,33389,1,0,0:0:0:0:
256,192,33556,1,8,0:0:0:0:
256,192,33889,1,8,0:0:0:0:
256,192,34056,1,0,0:0:0:0:
256,192,34389,1,8,0:0:0:0:
256,192,34723,1,0,0:0:0:0:
256,192,35056,1,0,0:0:0:0:
256,192,35723,1,8,0:0:0:0:
256,192,36056,1,0,0:0:0:0:
256,192,36723,1,0,0:0:0:0:
256,192,37056,1,8,0:0:0:0:
256,192,37389,1,0,0:0:0:0:
256,192,37723,1,0,0:0:0:0:
256,192,38389,1,8,0:0:0:0:
256,192,38723,1,0,0:0:0:0:
256,192,39389,1,0,0:0:0:0:
256,192,39723,1,8,0:0:0:0:
256,192,40056,1,0,0:0:0:0:
256,192,40389,1,0,0:0:0:0:
256,192,41056,1,8,0:0:0:0:
256,192,41389,1,0,0:0:0:0:
256,192,41723,1,8,0:0:0:0:
256,192,42223,1,8,0:0:0:0:
256,192,42723,1,8,0:0:0:0:
256,192,43056,1,8,0:0:0:0:
256,192,43389,1,0,0:0:0:0:
256,192,43723,1,8,0:0:0:0:
256,192,44056,1,0,0:0:0:0:
256,192,44223,1,8,0:0:0:0:
256,192,44389,1,0,0:0:0:0:
256,192,44723,1,0,0:0:0:0:
256,192,45056,1,8,0:0:0:0:
256,192,45556,1,0,0:0:0:0:
256,192,45723,1,8,0:0:0:0:
256,192,46223,1,0,0:0:0:0:
256,192,46389,1,8,0:0:0:0:
256,192,46723,1,8,0:0:0:0:
256,192,46889,1,0,0:0:0:0:
256,192,47056,1,8,0:0:0:0:
256,192,47389,1,0,0:0:0:0:
256,192,47556,1,8,0:0:0:0:
256,192,47889,1,8,0:0:0:0:
256,192,48056,1,0,0:0:0:0:
256,192,48389,1,0,0:0:0:0:
256,192,49056,1,8,0:0:0:0:
256,192,49389,1,0,0:0:0:0:
256,192,49889,1,8,0:0:0:0:
256,192,50056,1,0,0:0:0:0:
256,192,50389,1,8,0:0:0:0:
256,192,50723,1,0,0:0:0:0:
256,192,50889,1,0,0:0:0:0:
256,192,51056,1,8,0:0:0:0:
256,192,51389,1,8,0:0:0:0:
256,192,51556,1,0,0:0:0:0:
256,192,51723,1,8,0:0:0:0:
256,192,52056,1,0,0:0:0:0:
256,192,52223,1,8,0:0:0:0:
256,192,52556,1,8,0:0:0:0:
256,192,52723,1,0,0:0:0:0:
256,192,52889,1,0,0:0:0:0:
256,192,53056,1,8,0:0:0:0:
256,192,53389,1,0,0:0:0:0:
256,192,53723,1,8,0:0:0:0:
256,192,54056,1,0,0:0:0:0:
256,192,54389,1,8,0:0:0:0:
256,192,54556,1,0,0:0:0:0:
256,192,54723,1,8,0:0:0:0:
256,192,54889,1,0,0:0:0:0:
256,192,55056,1,0,0:0:0:0:
256,192,55389,1,0,0:0:0:0:
256,192,55723,1,8,0:0:0:0:
256,192,56223,1,0,0:0:0:0:
256,192,56389,1,8,0:0:0:0:
256,192,56723,1,0,0:0:0:0:
256,192,56889,1,8,0:0:0:0:
256,192,57223,1,0,0:0:0:0:
256,192,57389,1,8,0:0:0:0:
256,192,57556,1,0,0:0:0:0:
256,192,57723,1,8,0:0:0:0:
256,192,58056,1,0,0:0:0:0:
256,192,58223,1,8,0:0:0:0:
256,192,58556,1,8,0:0:0:0:
256,192,58723,1,0,0:0:0:0:
256,192,58889,1,0,0:0:0:0:
256,192,59056,1,8,0:0:0:0:
256,192,59389,1,8,0:0:0:0:
256,192,59723,1,0,0:0:0:0:
256,192,60056,1,8,0:0:0:0:
256,192,60223,1,0,0:0:0:0:
256,192,60306,1,0,0:0:0:0:
256,192,60389,1,0,0:0:0:0:
256,192,60556,1,8,0:0:0:0:
256,192,61056,1,8,0:0:0:0:
256,192,61389,1,8,0:0:0:0:
256,192,61556,1,0,0:0:0:0:
256,192,61639,1,0,0:0:0:0:
256,192,61723,1,0,0:0:0:0:
256,192,62056,1,8,0:0:0:0:
256,192,62223,1,0,0:0:0:0:
256,192,62389,1,0,0:0:0:0:
256,192,62723,1,8,0:0:0:0:
256,192,63056,1,8,0:0:0:0:
256,192,63556,1,8,0:0:0:0:
256,192,63889,1,0,0:0:0:0:
256,192,64056,1,8,0:0:0:0:
256,192,64389,1,12,0:0:0:0:
256,192,64723,1,8,0:0:0:0:
256,192,64889,1,0,0:0:0:0:
256,192,64973,1,0,0:0:0:0:
256,192,65056,1,0,0:0:0:0:
256,192,65223,1,0,0:0:0:0:
256,192,65389,1,8,0:0:0:0:
256,192,65723,1,0,0:0:0:0:
256,192,65889,1,8,0:0:0:0:
256,192,66056,1,8,0:0:0:0:
256,192,66223,1,0,0:0:0:0:
256,192,66389,1,8,0:0:0:0:
256,192,66556,1,8,0:0:0:0:
256,192,66723,1,0,0:0:0:0:
256,192,67056,1,0,0:0:0:0:
256,192,67223,1,0,0:0:0:0:
256,192,67389,1,8,0:0:0:0:
256,192,67723,1,0,0:0:0:0:
256,192,67806,1,0,0:0:0:0:
256,192,67889,1,0,0:0:0:0:
256,192,68056,1,8,0:0:0:0:
256,192,68389,1,8,0:0:0:0:
256,192,68723,1,8,0:0:0:0:
256,192,68889,1,0,0:0:0:0:
256,192,69056,1,8,0:0:0:0:
256,192,69223,1,8,0:0:0:0:
256,192,69389,1,0,0:0:0:0:
256,192,69723,1,0,0:0:0:0:
256,192,70056,1,8,0:0:0:0:
256,192,70556,1,0,0:0:0:0:
256,192,70723,1,8,0:0:0:0:
256,192,70889,1,0,0:0:0:0:
256,192,70973,1,0,0:0:0:0:
256,192,71056,1,0,0:0:0:0:
256,192,71389,1,8,0:0:0:0:
256,192,71889,1,0,0:0:0:0:
256,192,72056,1,8,0:0:0:0:
256,192,72223,1,0,0:0:0:0:
256,192,72389,1,0,0:0:0:0:
256,192,72723,1,8,0:0:0:0:
256,192,73056,1,8,0:0:0:0:
256,192,73223,1,0,0:0:0:0:
256,192,73389,1,8,0:0:0:0:
256,192,73723,1,0,0:0:0:0:
256,192,74056,1,8,0:0:0:0:
256,192,74223,1,0,0:0:0:0:
256,192,74389,1,8,0:0:0:0:
256,192,74556,1,0,0:0:0:0:
256,192,74723,1,8,0:0:0:0:
256,192,75056,1,8,0:0:0:0:
256,192,75389,1,8,0:0:0:0:
256,192,75889,1,0,0:0:0:0:
256,192,76056,1,8,0:0:0:0:
256,192,76389,1,0,0:0:0:0:
256,192,76556,1,8,0:0:0:0:
256,192,76639,1,8,0:0:0:0:
256,192,76723,1,8,0:0:0:0:
256,192,76889,1,0,0:0:0:0:
256,192,77056,1,8,0:0:0:0:
256,192,77223,1,0,0:0:0:0:
256,192,77389,1,8,0:0:0:0:
256,192,77723,1,0,0:0:0:0:
256,192,78056,1,8,0:0:0:0:
256,192,78389,1,0,0:0:0:0:
256,192,78556,1,0,0:0:0:0:
256,192,78723,1,8,0:0:0:0:
256,192,79056,1,0,0:0:0:0:
256,192,79223,1,0,0:0:0:0:
256,192,79389,1,8,0:0:0:0:
256,192,79556,1,8,0:0:0:0:
256,192,79723,1,0,0:0:0:0:
256,192,79806,1,0,0:0:0:0:
256,192,79889,1,0,0:0:0:0:
256,192,80056,1,8,0:0:0:0:
256,192,80389,1,0,0:0:0:0:
256,192,80723,1,8,0:0:0:0:
256,192,81223,1,0,0:0:0:0:
256,192,81389,1,8,0:0:0:0:
256,192,81723,1,0,0:0:0:0:
256,192,82056,1,8,0:0:0:0:
256,192,82389,1,0,0:0:0:0:
256,192,82556,1,0,0:0:0:0:
256,192,82723,1,8,0:0:0:0:
256,192,83056,1,0,0:0:0:0:
256,192,83389,1,8,0:0:0:0:
256,192,83556,1,0,0:0:0:0:
256,192,83723,1,8,0:0:0:0:
256,192,84056,1,8,0:0:0:0:
256,192,84389,1,8,0:0:0:0:
256,192,84889,1,8,0:0:0:0:
256,192,85056,1,0,0:0:0:0:
256,192,85223,1,0,0:0:0:0:
256,192,85389,1,8,0:0:0:0:
256,192,85556,1,0,0:0:0:0:
256,192,85723,1,12,0:0:0:0:
256,192,86056,1,8,0:0:0:0:
256,192,86389,1,0,0:0:0:0:
256,192,86723,1,0,0:0:0:0:
256,192,86889,1,8,0:0:0:0:
256,192,87056,1,8,0:0:0:0:
256,192,87223,1,0,0:0:0:0:
256,192,87389,1,8,0:0:0:0:
256,192,87723,1,8,0:0:0:0:
256,192,87889,1,8,0:0:0:0:
256,192,88389,1,8,0:0:0:0:
256,192,88723,1,8,0:0:0:0:
256,192,88889,1,0,0:0:0:0:
256,192,89223,1,0,0:0:0:0:
256,192,89389,1,8,0:0:0:0:
256,192,89723,1,0,0:0:0:0:
256,192,90056,1,8,0:0:0:0:
256,192,90223,1,0,0:0:0:0:
256,192,90389,1,0,0:0:0:0:
256,192,90473,1,0,0:0:0:0:
256,192,90556,1,0,0:0:0:0:
256,192,90723,1,8,0:0:0:0:
256,192,91056,1,0,0:0:0:0:
256,192,91389,1,8,0:0:0:0:
256,192,91556,1,0,0:0:0:0:
256,192,91723,1,0,0:0:0:0:
256,192,91806,1,0,0:0:0:0:
256,192,91889,1,0,0:0:0:0:
256,192,92056,1,8,0:0:0:0:
256,192,92389,1,0,0:0:0:0:
256,192,92723,1,8,0:0:0:0:
256,192,93223,1,0,0:0:0:0:
256,192,93389,1,8,0:0:0:0:
256,192,93723,1,0,0:0:0:0:
256,192,94056,1,8,0:0:0:0:
256,192,94223,1,0,0:0:0:0:
256,192,94723,1,8,0:0:0:0:
256,192,95056,1,0,0:0:0:0:
256,192,95389,1,8,0:0:0:0:
256,192,95556,1,8,0:0:0:0:
256,192,95723,1,0,0:0:0:0:
256,192,95806,1,0,0:0:0:0:
256,192,95889,1,0,0:0:0:0:
256,192,96056,1,8,0:0:0:0:
256,192,96389,1,12,0:0:0:0:
256,192,96723,1,8,0:0:0:0:
256,192,97056,1,0,0:0:0:0:
256,192,97389,1,0,0:0:0:0:
256,192,97556,1,8,0:0:0:0:
256,192,97723,1,8,0:0:0:0:
256,192,97889,1,0,0:0:0:0:
256,192,98056,1,8,0:0:0:0:
256,192,98389,1,8,0:0:0:0:
256,192,98556,1,0,0:0:0:0:
256,192,99056,1,0,0:0:0:0:
256,192,99389,1,8,0:0:0:0:
256,192,99556,1,0,0:0:0:0:
256,192,99889,1,8,0:0:0:0:
256,192,100056,1,0,0:0:0:0:
256,192,100223,1,8,0:0:0:0:
256,192,100389,1,0,0:0:0:0:
256,192,100723,1,8,0:0:0:0:
256,192,100889,1,0,0:0:0:0:
256,192,101056,1,0,0:0:0:0:
256,192,101139,1,0,0:0:0:0:
256,192,101223,1,0,0:0:0:0:
256,192,101389,1,8,0:0:0:0:
256,192,101723,1,0,0:0:0:0:
256,192,102056,1,8,0:0:0:0:
256,192,102223,1,0,0:0:0:0:
256,192,102389,1,0,0:0:0:0:
256,192,102473,1,0,0:0:0:0:
256,192,102556,1,0,0:0:0:0:
256,192,102723,1,8,0:0:0:0:
256,192,103056,1,0,0:0:0:0:
256,192,103389,1,8,0:0:0:0:
256,192,103889,1,0,0:0:0:0:
256,192,104056,1,8,0:0:0:0:
256,192,104389,1,0,0:0:0:0:
256,192,104723,1,8,0:0:0:0:
256,192,104889,1,0,0:0:0:0:
256,192,105056,1,0,0:0:0:0:
256,192,105139,1,0,0:0:0:0:
256,192,105223,1,0,0:0:0:0:
256,192,105389,1,8,0:0:0:0:
256,192,105723,1,0,0:0:0:0:
256,192,105806,1,0,0:0:0:0:
256,192,105889,1,0,0:0:0:0:
256,192,106056,1,8,0:0:0:0:
256,192,106223,1,0,0:0:0:0:
256,192,106389,1,0,0:0:0:0:
256,192,106473,1,0,0:0:0:0:
256,192,106556,1,0,0:0:0:0:
256,192,106723,1,8,0:0:0:0:
256,192,106889,1,0,0:0:0:0:
256,192,107056,1,12,0:0:0:0:
