osu file format v14

[General]
AudioFilename: audio.mp3
AudioLeadIn: 0
PreviewTime: 75807
Countdown: 0
SampleSet: Normal
StackLeniency: 0.7
Mode: 1
LetterboxInBreaks: 0
WidescreenStoryboard: 1

[Editor]
Bookmarks: 11898,23534,35171,46807,58443,70080,75898,110807,122443,134080,145716,198080,215537
DistanceSpacing: 0.8
BeatDivisor: 4
GridSize: 32
TimelineZoom: 1.1

[Metadata]
Title:Shirley!!
TitleUnicode:Shirley!!
Artist:iroha(sasaki)
ArtistUnicode:iroha(sasaki)
Creator:_gt
Version:Oni!!
Source:
Tags:featured artist mappers' guild mpg mg vmc2 vocaloid mapping contest 2 ler1211 鏡音リン kagamine rin japanese pop jpop j-pop vocaloid debutante iv
BeatmapID:4563188
BeatmapSetID:2163652

[Difficulty]
HPDrainRate:5
CircleSize:5
OverallDifficulty:5.5
ApproachRate:5
SliderMultiplier:1.4
SliderTickRate:1

[Events]
//Background and Video events
0,0,"16323857_p0.jpg",0,80
//Break Periods
//Storyboard Layer 0 (Background)
//Storyboard Layer 1 (Fail)
//Storyboard Layer 2 (Pass)
//Storyboard Layer 3 (Foreground)
//Storyboard Layer 4 (Overlay)
//Storyboard Sound Samples

[TimingPoints]
262,363.636363636364,4,1,0,70,1,0
262,-117.647058823529,4,1,0,70,0,0
11171,-117.647058823529,4,1,0,80,0,0
11898,-111.111111111111,4,1,0,80,0,0
23514,-111.111111111111,4,1,0,90,0,0
35151,-111.111111111111,4,1,0,80,0,0
35171,-105.263157894737,4,1,0,80,0,0
58443,-111.111111111111,4,1,0,80,0,0
68625,-111.111111111111,4,1,0,80,0,0
68715,-110.736277971741,4,1,0,80,0,0
68806,-110.362709331311,4,1,0,80,0,0
68897,-109.990400924039,4,1,0,80,0,0
68988,-109.619348498528,4,1,0,80,0,0
69079,-109.249547817727,4,1,0,80,0,0
69170,-108.880994658877,4,1,0,80,0,0
69261,-108.513684813465,4,1,0,80,0,0
69352,-108.147614087175,4,1,0,80,0,0
69443,-107.782778299841,4,1,0,80,0,0
69534,-107.4191732854,4,1,0,80,0,0
69625,-107.056794891839,4,1,0,80,0,0
69716,-106.695638981157,4,1,0,80,0,0
69807,-106.335701429309,4,1,0,80,0,0
69898,-105.976978126164,4,1,0,80,0,0
69989,-105.619464975455,4,1,0,80,0,0
70080,-105.263157894737,4,1,0,80,0,0
75878,-105.263157894737,4,1,0,100,0,0
75898,-100,4,1,0,100,0,1
86080,-100,4,1,0,100,0,0
87534,-100,4,1,0,100,0,1
97534,-100,4,1,0,100,0,0
97696,-100,4,1,0,80,0,0
97716,-105.263157894737,4,1,0,80,0,0
99171,-111.111111111111,4,1,0,80,0,0
110807,-105.263157894737,4,1,0,80,0,0
134078,-111.111111111111,4,1,0,80,0,0
144260,-111.111111111111,4,1,0,80,0,0
144350,-110.736277971741,4,1,0,80,0,0
144441,-110.362709331311,4,1,0,80,0,0
144532,-109.990400924039,4,1,0,80,0,0
144623,-109.619348498528,4,1,0,80,0,0
144714,-109.249547817727,4,1,0,80,0,0
144805,-108.880994658877,4,1,0,80,0,0
144896,-108.513684813465,4,1,0,80,0,0
144987,-108.147614087175,4,1,0,80,0,0
145078,-107.782778299841,4,1,0,80,0,0
145169,-107.4191732854,4,1,0,80,0,0
145260,-107.056794891839,4,1,0,80,0,0
145351,-106.695638981157,4,1,0,80,0,0
145442,-106.335701429309,4,1,0,80,0,0
145533,-105.976978126164,4,1,0,80,0,0
145624,-105.619464975455,4,1,0,80,0,0
145715,-105.263157894737,4,1,0,80,0,0
151514,-105.263157894737,4,1,0,100,0,0
151534,-100,4,1,0,100,0,1
161716,-100,4,1,0,100,0,0
163171,-100,4,1,0,100,0,1
173171,-100,4,1,0,100,0,0
173332,-100,4,1,0,80,0,0
173352,-105.263157894737,4,1,0,80,0,0
174806,-111.111111111111,4,1,0,80,0,0
198242,-111.111111111111,4,1,0,60,0,0
199534,-117.647058823529,4,1,0,60,0,0
203332,-117.647058823529,4,1,0,70,0,0
203898,-111.111111111111,4,1,0,70,0,0
206787,-111.111111111111,4,1,0,80,0,0
208260,-111.111111111111,4,1,0,80,0,0
208350,-110.736277971741,4,1,0,80,0,0
208441,-110.362709331311,4,1,0,80,0,0
208532,-109.990400924039,4,1,0,80,0,0
208623,-109.619348498528,4,1,0,80,0,0
208714,-109.249547817727,4,1,0,80,0,0
208805,-108.880994658877,4,1,0,80,0,0
208896,-108.513684813465,4,1,0,80,0,0
208987,-108.147614087175,4,1,0,80,0,0
209078,-107.782778299841,4,1,0,80,0,0
209169,-107.4191732854,4,1,0,80,0,0
209260,-107.056794891839,4,1,0,80,0,0
209351,-106.695638981157,4,1,0,80,0,0
209442,-106.335701429309,4,1,0,80,0,0
209533,-105.976978126164,4,1,0,80,0,0
209624,-105.619464975455,4,1,0,80,0,0
209715,-105.263157894737,4,1,0,80,0,0
215512,-105.263157894737,4,1,0,100,0,0
215534,-100,4,1,0,100,0,1
225716,-100,4,1,0,100,0,0
227171,-100,4,1,0,100,0,1
237352,-100,4,1,0,100,0,0
238807,-100,4,1,0,100,0,1
248989,-100,4,1,0,100,0,0
250443,-100,4,1,0,100,0,1
260443,-100,4,1,0,100,0,0
260605,-100,4,1,0,80,0,0
285514,-100,4,1,0,50,0,0

[HitObjects]
282,301,262,5,0,0:0:0:0:
282,301,625,1,8,0:0:0:0:
282,301,807,1,0,0:0:0:0:
278,304,989,1,0,0:0:0:0:
278,304,1352,1,8,0:0:0:0:
278,304,1534,1,8,0:0:0:0:
276,304,1716,1,0,0:0:0:0:
278,304,2080,1,8,0:0:0:0:
278,304,2262,1,0,0:0:0:0:
276,304,2625,1,0,0:0:0:0:
278,304,2807,1,8,0:0:0:0:
278,304,2989,1,8,0:0:0:0:
264,139,3171,1,0,0:0:0:0:
246,140,3534,1,8,0:0:0:0:
244,138,3716,1,0,0:0:0:0:
244,138,3898,1,0,0:0:0:0:
246,140,4262,1,8,0:0:0:0:
242,136,4443,1,8,0:0:0:0:
244,138,4625,1,0,0:0:0:0:
246,140,4989,1,8,0:0:0:0:
246,140,5171,1,0,0:0:0:0:
236,134,5534,1,0,0:0:0:0:
236,134,5716,1,8,0:0:0:0:
236,134,5898,1,8,0:0:0:0:
282,301,6080,1,0,0:0:0:0:
282,301,6443,1,8,0:0:0:0:
282,301,6625,1,0,0:0:0:0:
278,304,6807,1,0,0:0:0:0:
278,304,7171,1,8,0:0:0:0:
278,304,7352,1,8,0:0:0:0:
276,304,7534,1,0,0:0:0:0:
278,304,7898,1,8,0:0:0:0:
278,304,8080,1,0,0:0:0:0:
276,304,8443,1,0,0:0:0:0:
278,304,8625,1,8,0:0:0:0:
278,304,8807,1,8,0:0:0:0:
264,139,8989,1,0,0:0:0:0:
246,140,9352,1,8,0:0:0:0:
244,138,9534,1,0,0:0:0:0:
244,138,9716,1,0,0:0:0:0:
246,140,10080,1,8,0:0:0:0:
242,136,10262,1,8,0:0:0:0:
244,138,10443,1,0,0:0:0:0:
198,205,11171,1,0,0:0:0:0:
209,155,11352,1,8,0:0:0:0:
198,205,11534,1,8,0:0:0:0:
198,205,11716,1,8,0:0:0:0:
196,194,11898,1,4,0:0:0:0:
209,181,12262,1,0,0:0:0:0:
213,181,12625,1,8,0:0:0:0:
213,184,12807,1,0,0:0:0:0:
216,181,13171,1,0,0:0:0:0:
218,181,13534,1,0,0:0:0:0:
225,185,13716,1,8,0:0:0:0:
225,185,13898,1,0,0:0:0:0:
199,166,14262,1,8,0:0:0:0:
199,166,14443,1,0,0:0:0:0:
185,231,14625,1,0,0:0:0:0:
200,170,14807,1,8,0:0:0:0:
204,172,15171,1,8,0:0:0:0:
249,171,15352,1,0,0:0:0:0:
249,171,15443,1,0,0:0:0:0:
249,171,15534,1,0,0:0:0:0:
260,169,15716,1,8,0:0:0:0:
260,169,16080,1,8,0:0:0:0:
249,171,16443,1,8,0:0:0:0:
249,174,16625,1,0,0:0:0:0:
249,174,16807,1,8,0:0:0:0:
249,171,17171,1,0,0:0:0:0:
249,171,17352,1,8,0:0:0:0:
122,153,17534,1,8,0:0:0:0:
231,169,17716,1,4,0:0:0:0:
228,170,18080,1,0,0:0:0:0:
227,174,18443,1,8,0:0:0:0:
231,174,18625,1,0,0:0:0:0:
231,174,18989,1,0,0:0:0:0:
227,174,19352,1,0,0:0:0:0:
231,174,19534,1,8,0:0:0:0:
231,174,19716,1,0,0:0:0:0:
231,180,20080,1,8,0:0:0:0:
231,180,20262,1,0,0:0:0:0:
222,234,20443,1,0,0:0:0:0:
231,174,20625,1,8,0:0:0:0:
231,180,20989,1,8,0:0:0:0:
231,180,21171,1,0,0:0:0:0:
231,180,21262,1,0,0:0:0:0:
238,189,21352,1,0,0:0:0:0:
238,191,21534,1,8,0:0:0:0:
236,186,21898,1,8,0:0:0:0:
231,180,22262,1,8,0:0:0:0:
222,176,22443,1,0,0:0:0:0:
224,174,22625,1,8,0:0:0:0:
223,174,22989,1,0,0:0:0:0:
228,174,23171,1,8,0:0:0:0:
184,216,23352,1,8,0:0:0:0:
222,160,23534,1,4,0:0:0:0:
218,160,23898,1,8,0:0:0:0:
233,145,24262,1,0,0:0:0:0:
233,145,24443,1,8,0:0:0:0:
233,145,24534,1,8,0:0:0:0:
233,146,24625,1,8,0:0:0:0:
233,146,24807,1,0,0:0:0:0:
233,145,25171,1,8,0:0:0:0:
233,145,25534,1,0,0:0:0:0:
233,146,25625,1,0,0:0:0:0:
233,146,25716,1,8,0:0:0:0:
233,145,25898,1,0,0:0:0:0:
233,145,26080,1,8,0:0:0:0:
233,145,26171,1,8,0:0:0:0:
233,145,26262,1,0,0:0:0:0:
233,145,26443,1,8,0:0:0:0:
233,146,26625,1,0,0:0:0:0:
233,145,26807,1,8,0:0:0:0:
240,146,26989,1,0,0:0:0:0:
240,152,27080,1,0,0:0:0:0:
233,145,27171,1,0,0:0:0:0:
233,145,27352,1,0,0:0:0:0:
244,161,27716,1,8,0:0:0:0:
241,161,28080,1,0,0:0:0:0:
242,163,28262,1,8,0:0:0:0:
244,161,28443,1,0,0:0:0:0:
244,161,28625,1,8,0:0:0:0:
224,156,28716,1,8,0:0:0:0:
234,152,28807,1,8,0:0:0:0:
233,150,28989,1,0,0:0:0:0:
233,148,29171,1,8,0:0:0:0:
236,148,29352,1,4,0:0:0:0:
238,148,29716,1,8,0:0:0:0:
233,148,30080,1,0,0:0:0:0:
236,148,30262,1,8,0:0:0:0:
238,148,30352,1,8,0:0:0:0:
238,148,30443,1,8,0:0:0:0:
184,176,30625,1,0,0:0:0:0:
194,174,30989,1,8,0:0:0:0:
194,174,31352,1,0,0:0:0:0:
191,174,31443,1,0,0:0:0:0:
195,174,31534,1,8,0:0:0:0:
194,174,31716,1,8,0:0:0:0:
194,174,31898,1,0,0:0:0:0:
198,172,31989,1,0,0:0:0:0:
194,174,32080,1,0,0:0:0:0:
200,173,32262,1,12,0:0:0:0:
204,172,32625,1,0,0:0:0:0:
200,173,32807,1,12,0:0:0:0:
200,173,33171,1,0,0:0:0:0:
200,173,33352,1,12,0:0:0:0:
307,120,34625,1,8,0:0:0:0:
307,120,34716,1,8,0:0:0:0:
307,120,34807,1,8,0:0:0:0:
307,120,34989,1,0,0:0:0:0:
167,209,35171,5,12,0:0:0:0:
173,238,35534,1,0,0:0:0:0:
173,238,35716,1,0,0:0:0:0:
173,238,35898,1,8,0:0:0:0:
173,238,36080,1,0,0:0:0:0:
136,222,36262,1,8,0:0:0:0:
136,222,36443,1,8,0:0:0:0:
136,222,36625,1,0,0:0:0:0:
136,222,36807,1,0,0:0:0:0:
201,154,36989,1,8,0:0:0:0:
201,154,37171,1,0,0:0:0:0:
169,170,37534,1,0,0:0:0:0:
164,159,37716,1,8,0:0:0:0:
157,172,37898,1,0,0:0:0:0:
157,173,37989,1,0,0:0:0:0:
157,173,38080,1,0,0:0:0:0:
168,204,38443,1,8,0:0:0:0:
168,204,38625,1,8,0:0:0:0:
168,204,38807,1,0,0:0:0:0:
168,204,38989,1,0,0:0:0:0:
168,204,39171,1,8,0:0:0:0:
168,204,39352,1,0,0:0:0:0:
151,203,39534,1,8,0:0:0:0:
150,203,39716,1,8,0:0:0:0:
148,204,39898,1,0,0:0:0:0:
147,205,40080,1,8,0:0:0:0:
137,212,40443,1,0,0:0:0:0:
137,212,40625,1,8,0:0:0:0:
141,212,40807,1,0,0:0:0:0:
164,217,40898,1,0,0:0:0:0:
165,217,40989,1,0,0:0:0:0:
117,159,41352,1,8,0:0:0:0:
117,159,41716,1,0,0:0:0:0:
117,159,41898,1,0,0:0:0:0:
117,159,42080,1,8,0:0:0:0:
117,159,42262,1,0,0:0:0:0:
100,152,42625,1,8,0:0:0:0:
100,152,42807,1,0,0:0:0:0:
100,152,42989,1,8,0:0:0:0:
98,142,43352,1,0,0:0:0:0:
138,201,43534,1,8,0:0:0:0:
138,201,43716,1,8,0:0:0:0:
144,208,43807,1,8,0:0:0:0:
138,201,43898,1,0,0:0:0:0:
120,215,44443,1,0,0:0:0:0:
120,215,44625,1,8,0:0:0:0:
120,215,44807,1,8,0:0:0:0:
120,215,44989,1,0,0:0:0:0:
114,215,45171,1,0,0:0:0:0:
104,209,45352,1,12,0:0:0:0:
104,208,45534,1,0,0:0:0:0:
80,212,45716,1,8,0:0:0:0:
80,212,45898,1,0,0:0:0:0:
83,211,45989,1,8,0:0:0:0:
80,212,46080,1,0,0:0:0:0:
74,214,46262,1,8,0:0:0:0:
74,214,46352,1,8,0:0:0:0:
74,214,46443,1,8,0:0:0:0:
73,223,46625,1,0,0:0:0:0:
72,223,46807,1,12,0:0:0:0:
104,209,47171,1,0,0:0:0:0:
104,209,47352,1,0,0:0:0:0:
85,196,47534,1,8,0:0:0:0:
85,196,47716,1,8,0:0:0:0:
85,196,47898,1,0,0:0:0:0:
85,196,48080,1,0,0:0:0:0:
85,196,48262,1,8,0:0:0:0:
85,196,48443,1,0,0:0:0:0:
85,196,48625,1,8,0:0:0:0:
85,196,48807,1,8,0:0:0:0:
113,206,49171,1,0,0:0:0:0:
113,206,49352,1,8,0:0:0:0:
113,206,49534,1,0,0:0:0:0:
113,206,49625,1,0,0:0:0:0:
113,206,49716,1,0,0:0:0:0:
113,206,50080,1,8,0:0:0:0:
113,206,50262,1,0,0:0:0:0:
113,206,50443,1,8,0:0:0:0:
113,206,50625,1,8,0:0:0:0:
117,207,50807,1,0,0:0:0:0:
117,208,50989,1,0,0:0:0:0:
117,209,51171,1,8,0:0:0:0:
118,211,51352,1,0,0:0:0:0:
163,184,51534,1,8,0:0:0:0:
163,184,51716,1,0,0:0:0:0:
163,184,52080,1,8,0:0:0:0:
163,184,52262,1,8,0:0:0:0:
163,184,52443,1,0,0:0:0:0:
163,184,52534,1,0,0:0:0:0:
163,184,52625,1,0,0:0:0:0:
163,190,52989,1,8,0:0:0:0:
163,190,53352,1,0,0:0:0:0:
163,190,53534,1,0,0:0:0:0:
163,190,53716,1,8,0:0:0:0:
157,190,53898,1,8,0:0:0:0:
157,190,54262,1,0,0:0:0:0:
164,140,54443,1,8,0:0:0:0:
164,140,54625,1,8,0:0:0:0:
158,141,54807,1,0,0:0:0:0:
158,141,54989,1,0,0:0:0:0:
158,141,55171,1,8,0:0:0:0:
151,132,55352,1,0,0:0:0:0:
151,132,55443,1,0,0:0:0:0:
149,135,55534,1,0,0:0:0:0:
149,136,55716,1,8,0:0:0:0:
152,148,56080,1,0,0:0:0:0:
153,140,56262,1,8,0:0:0:0:
152,139,56443,1,8,0:0:0:0:
149,136,56625,1,0,0:0:0:0:
150,140,56807,1,0,0:0:0:0:
144,147,56989,1,12,0:0:0:0:
102,198,57171,1,0,0:0:0:0:
102,198,57352,1,8,0:0:0:0:
196,197,57534,1,0,0:0:0:0:
301,186,57625,1,0,0:0:0:0:
455,249,57716,1,0,0:0:0:0:
196,205,57898,1,8,0:0:0:0:
267,110,57989,1,8,0:0:0:0:
196,205,58080,1,8,0:0:0:0:
284,212,58443,1,12,0:0:0:0:
267,225,58625,1,0,0:0:0:0:
267,225,58807,1,0,0:0:0:0:
267,224,58989,1,8,0:0:0:0:
267,224,59352,1,0,0:0:0:0:
267,225,59534,1,8,0:0:0:0:
268,216,59716,1,8,0:0:0:0:
149,213,59898,1,0,0:0:0:0:
149,213,60080,1,0,0:0:0:0:
149,213,60262,1,8,0:0:0:0:
154,217,60443,1,8,0:0:0:0:
207,196,60807,1,0,0:0:0:0:
390,95,60989,1,8,0:0:0:0:
207,196,61171,1,0,0:0:0:0:
284,126,61262,1,0,0:0:0:0:
284,126,61352,1,0,0:0:0:0:
207,196,61534,1,8,0:0:0:0:
207,196,61898,1,0,0:0:0:0:
207,196,62080,1,8,0:0:0:0:
207,196,62262,1,8,0:0:0:0:
207,196,62443,1,0,0:0:0:0:
207,196,62625,1,0,0:0:0:0:
207,196,62989,1,8,0:0:0:0:
207,196,63352,1,0,0:0:0:0:
207,190,63716,1,8,0:0:0:0:
208,190,63898,1,0,0:0:0:0:
209,189,64080,1,0,0:0:0:0:
208,177,64171,1,0,0:0:0:0:
209,189,64262,1,8,0:0:0:0:
389,148,64625,1,0,0:0:0:0:
389,148,64807,1,0,0:0:0:0:
389,148,64989,1,8,0:0:0:0:
389,148,65171,1,8,0:0:0:0:
389,148,65352,1,0,0:0:0:0:
389,148,65534,1,0,0:0:0:0:
385,156,65716,1,12,0:0:0:0:
253,250,65898,1,0,0:0:0:0:
253,250,66080,1,8,0:0:0:0:
253,250,66262,1,0,0:0:0:0:
253,250,66443,1,0,0:0:0:0:
242,246,66625,1,8,0:0:0:0:
242,246,66716,1,8,0:0:0:0:
244,250,66807,1,8,0:0:0:0:
236,245,66989,1,0,0:0:0:0:
237,250,67171,1,12,0:0:0:0:
204,234,67534,1,0,0:0:0:0:
214,246,67716,1,8,0:0:0:0:
216,234,67898,1,0,0:0:0:0:
216,234,68262,1,8,0:0:0:0:
220,241,68443,1,0,0:0:0:0:
214,246,68625,1,12,0:0:0:0:
177,192,68807,1,0,0:0:0:0:
180,188,68989,1,8,0:0:0:0:
183,187,69171,1,0,0:0:0:0:
193,187,69262,1,0,0:0:0:0:
184,187,69352,1,0,0:0:0:0:
195,185,69534,1,8,0:0:0:0:
195,179,69625,1,8,0:0:0:0:
191,176,69716,1,8,0:0:0:0:
192,176,69898,1,0,0:0:0:0:
183,150,70080,1,12,0:0:0:0:
155,198,70443,1,0,0:0:0:0:
155,198,70625,1,8,0:0:0:0:
155,198,70807,1,0,0:0:0:0:
162,198,70989,1,8,0:0:0:0:
164,198,71171,1,0,0:0:0:0:
164,198,71352,1,0,0:0:0:0:
162,198,71898,1,8,0:0:0:0:
216,176,72080,1,0,0:0:0:0:
216,176,72262,1,8,0:0:0:0:
216,176,72443,1,0,0:0:0:0:
216,176,72625,1,8,0:0:0:0:
216,176,72807,1,8,0:0:0:0:
183,187,73352,1,0,0:0:0:0:
183,187,73534,1,8,0:0:0:0:
183,187,73716,1,0,0:0:0:0:
176,186,73898,1,8,0:0:0:0:
187,192,74080,1,0,0:0:0:0:
143,181,74171,1,0,0:0:0:0:
187,194,74262,1,0,0:0:0:0:
189,197,74443,1,12,0:0:0:0:
255,211,74807,1,0,0:0:0:0:
247,210,74989,1,8,0:0:0:0:
248,210,75080,1,8,0:0:0:0:
255,211,75171,1,8,0:0:0:0:
283,202,75352,1,0,0:0:0:0:
283,202,75443,1,0,0:0:0:0:
283,202,75534,1,8,0:0:0:0:
283,202,75716,1,0,0:0:0:0:
185,190,75898,1,12,0:0:0:0:
185,190,76080,1,0,0:0:0:0:
185,190,76262,1,0,0:0:0:0:
151,199,76443,1,8,0:0:0:0:
171,199,76625,1,0,0:0:0:0:
171,199,76716,1,0,0:0:0:0:
168,199,76807,1,0,0:0:0:0:
162,197,76989,1,8,0:0:0:0:
162,197,77171,1,0,0:0:0:0:
162,197,77262,1,8,0:0:0:0:
162,197,77352,1,0,0:0:0:0:
162,197,77443,1,0,0:0:0:0:
160,199,77534,1,8,0:0:0:0:
198,176,77716,1,0,0:0:0:0:
198,176,77898,1,8,0:0:0:0:
198,176,77989,1,8,0:0:0:0:
198,176,78080,1,0,0:0:0:0:
149,83,78171,1,0,0:0:0:0:
149,83,78262,1,8,0:0:0:0:
198,176,78625,1,8,0:0:0:0:
193,170,78716,1,8,0:0:0:0:
193,170,78807,1,8,0:0:0:0:
149,83,78989,1,0,0:0:0:0:
122,101,79171,1,8,0:0:0:0:
122,101,79352,1,0,0:0:0:0:
113,111,79534,1,8,0:0:0:0:
177,185,79625,1,8,0:0:0:0:
113,111,79716,1,8,0:0:0:0:
114,112,79898,1,0,0:0:0:0:
115,112,80080,1,8,0:0:0:0:
192,165,80443,1,0,0:0:0:0:
184,160,80625,1,8,0:0:0:0:
184,160,80807,1,0,0:0:0:0:
140,164,80989,1,8,0:0:0:0:
140,164,81080,1,0,0:0:0:0:
140,164,81171,1,8,0:0:0:0:
140,164,81262,1,8,0:0:0:0:
140,164,81352,1,0,0:0:0:0:
127,156,81534,1,8,0:0:0:0:
113,159,81716,1,4,0:0:0:0:
69,160,82080,1,8,0:0:0:0:
111,179,82262,1,0,0:0:0:0:
149,196,82443,1,8,0:0:0:0:
149,196,82534,1,8,0:0:0:0:
149,196,82625,1,8,0:0:0:0:
144,194,82807,1,0,0:0:0:0:
142,196,82989,1,8,0:0:0:0:
112,240,83171,1,0,0:0:0:0:
116,148,83262,1,0,0:0:0:0:
116,148,83352,1,0,0:0:0:0:
109,152,83534,1,8,0:0:0:0:
111,233,83716,1,0,0:0:0:0:
139,199,83807,1,8,0:0:0:0:
133,201,83898,1,0,0:0:0:0:
132,201,83989,1,0,0:0:0:0:
129,202,84080,1,8,0:0:0:0:
96,185,84443,1,0,0:0:0:0:
95,190,84534,1,0,0:0:0:0:
95,190,84625,1,0,0:0:0:0:
96,185,84807,1,8,0:0:0:0:
96,185,84989,1,8,0:0:0:0:
83,186,85171,1,0,0:0:0:0:
80,186,85262,1,0,0:0:0:0:
77,186,85352,1,8,0:0:0:0:
70,187,85534,1,0,0:0:0:0:
70,187,85716,1,8,0:0:0:0:
62,183,85898,1,0,0:0:0:0:
60,183,86080,1,12,0:0:0:0:
64,201,86262,1,0,0:0:0:0:
56,196,86443,1,8,0:0:0:0:
62,210,86625,1,0,0:0:0:0:
62,212,86716,1,8,0:0:0:0:
56,196,86807,1,0,0:0:0:0:
57,222,86989,1,8,0:0:0:0:
57,222,87080,1,8,0:0:0:0:
55,220,87171,1,8,0:0:0:0:
185,190,87534,1,12,0:0:0:0:
185,190,87716,1,0,0:0:0:0:
185,190,87898,1,0,0:0:0:0:
151,199,88080,1,8,0:0:0:0:
171,199,88262,1,0,0:0:0:0:
171,199,88352,1,0,0:0:0:0:
168,199,88443,1,0,0:0:0:0:
162,197,88625,1,8,0:0:0:0:
162,197,88807,1,0,0:0:0:0:
162,197,88898,1,8,0:0:0:0:
162,197,88989,1,0,0:0:0:0:
162,197,89080,1,0,0:0:0:0:
160,199,89171,1,8,0:0:0:0:
198,176,89352,1,0,0:0:0:0:
198,176,89534,1,8,0:0:0:0:
198,176,89625,1,8,0:0:0:0:
198,176,89716,1,0,0:0:0:0:
149,83,89807,1,0,0:0:0:0:
149,83,89898,1,8,0:0:0:0:
198,176,90262,1,0,0:0:0:0:
193,170,90352,1,0,0:0:0:0:
193,170,90443,1,0,0:0:0:0:
149,83,90625,1,8,0:0:0:0:
122,101,90807,1,0,0:0:0:0:
122,101,90989,1,8,0:0:0:0:
113,111,91171,1,0,0:0:0:0:
177,185,91262,1,0,0:0:0:0:
113,111,91352,1,0,0:0:0:0:
114,112,91534,1,8,0:0:0:0:
115,112,91716,1,8,0:0:0:0:
178,142,91898,1,0,0:0:0:0:
173,156,91989,1,0,0:0:0:0:
192,165,92080,1,8,0:0:0:0:
184,160,92262,1,0,0:0:0:0:
184,160,92443,1,0,0:0:0:0:
140,164,92625,1,8,0:0:0:0:
140,164,92716,1,8,0:0:0:0:
140,164,92807,1,0,0:0:0:0:
140,164,92989,1,8,0:0:0:0:
127,156,93171,1,0,0:0:0:0:
113,159,93352,1,12,0:0:0:0:
69,160,93716,1,0,0:0:0:0:
111,179,93898,1,8,0:0:0:0:
149,196,94080,1,0,0:0:0:0:
149,196,94171,1,0,0:0:0:0:
149,196,94262,1,0,0:0:0:0:
144,194,94443,1,8,0:0:0:0:
142,196,94625,1,0,0:0:0:0:
112,240,94807,1,8,0:0:0:0:
116,148,94898,1,8,0:0:0:0:
116,148,94989,1,0,0:0:0:0:
109,152,95171,1,8,0:0:0:0:
111,233,95352,1,0,0:0:0:0:
139,199,95443,1,8,0:0:0:0:
133,201,95534,1,0,0:0:0:0:
132,201,95625,1,0,0:0:0:0:
129,202,95716,1,8,0:0:0:0:
96,185,96080,1,0,0:0:0:0:
95,190,96171,1,0,0:0:0:0:
95,190,96262,1,0,0:0:0:0:
96,185,96443,1,8,0:0:0:0:
96,185,96625,1,0,0:0:0:0:
83,186,96807,1,8,0:0:0:0:
80,186,96898,1,8,0:0:0:0:
77,186,96989,1,8,0:0:0:0:
70,187,97171,1,0,0:0:0:0:
70,187,97352,1,0,0:0:0:0:
62,183,97534,1,12,0:0:0:0:
213,139,98443,1,0,0:0:0:0:
213,139,98625,1,8,0:0:0:0:
213,139,98716,1,8,0:0:0:0:
213,139,98807,1,8,0:0:0:0:
211,146,99171,1,12,0:0:0:0:
212,148,99534,1,8,0:0:0:0:
199,176,99716,1,0,0:0:0:0:
199,176,99807,1,0,0:0:0:0:
199,176,99898,1,8,0:0:0:0:
199,176,100080,1,0,0:0:0:0:
199,176,100262,1,8,0:0:0:0:
204,178,100625,1,0,0:0:0:0:
204,178,100989,1,8,0:0:0:0:
229,167,101171,1,0,0:0:0:0:
229,167,101262,1,0,0:0:0:0:
229,167,101352,1,0,0:0:0:0:
229,167,101534,1,0,0:0:0:0:
229,167,101716,1,8,0:0:0:0:
262,198,101989,1,0,0:0:0:0:
211,146,102080,1,0,0:0:0:0:
212,148,102443,1,8,0:0:0:0:
199,176,102625,1,0,0:0:0:0:
199,176,102716,1,0,0:0:0:0:
199,176,102807,1,8,0:0:0:0:
199,176,102989,1,0,0:0:0:0:
199,176,103171,1,8,0:0:0:0:
204,178,103534,1,0,0:0:0:0:
204,178,103898,1,8,0:0:0:0:
229,167,104080,1,0,0:0:0:0:
229,167,104171,1,0,0:0:0:0:
229,167,104262,1,0,0:0:0:0:
229,167,104443,1,0,0:0:0:0:
229,167,104625,1,8,0:0:0:0:
291,157,104807,1,0,0:0:0:0:
211,146,104989,1,12,0:0:0:0:
212,148,105352,1,8,0:0:0:0:
199,176,105534,1,0,0:0:0:0:
199,176,105625,1,0,0:0:0:0:
199,176,105716,1,8,0:0:0:0:
199,176,105898,1,0,0:0:0:0:
199,176,106080,1,8,0:0:0:0:
204,178,106443,1,0,0:0:0:0:
204,178,106807,1,8,0:0:0:0:
229,167,106989,1,0,0:0:0:0:
229,167,107080,1,0,0:0:0:0:
229,167,107171,1,0,0:0:0:0:
229,167,107352,1,0,0:0:0:0:
229,167,107534,1,8,0:0:0:0:
262,198,107807,1,0,0:0:0:0:
211,146,107898,1,0,0:0:0:0:
212,148,108262,1,8,0:0:0:0:
199,176,108443,1,0,0:0:0:0:
199,176,108534,1,0,0:0:0:0:
199,176,108625,1,8,0:0:0:0:
199,176,108807,1,0,0:0:0:0:
199,176,108989,1,8,0:0:0:0:
204,178,109352,1,12,0:0:0:0:
129,162,109534,1,0,0:0:0:0:
134,162,109716,1,0,0:0:0:0:
157,161,109898,1,12,0:0:0:0:
157,157,110080,1,0,0:0:0:0:
92,158,110262,1,8,0:0:0:0:
92,158,110352,1,8,0:0:0:0:
97,159,110443,1,8,0:0:0:0:
272,162,110807,1,4,0:0:0:0:
173,238,111171,1,0,0:0:0:0:
173,238,111352,1,8,0:0:0:0:
173,238,111534,1,0,0:0:0:0:
173,238,111716,1,0,0:0:0:0:
136,222,111898,1,8,0:0:0:0:
136,222,112080,1,0,0:0:0:0:
136,222,112262,1,8,0:0:0:0:
136,222,112443,1,8,0:0:0:0:
201,154,112625,1,0,0:0:0:0:
201,154,112807,1,8,0:0:0:0:
169,170,113171,1,0,0:0:0:0:
164,159,113352,1,8,0:0:0:0:
157,172,113534,1,0,0:0:0:0:
157,173,113625,1,0,0:0:0:0:
157,173,113716,1,8,0:0:0:0:
168,204,113898,1,0,0:0:0:0:
168,204,114080,1,8,0:0:0:0:
168,204,114625,1,0,0:0:0:0:
168,204,114807,1,8,0:0:0:0:
168,204,114989,1,0,0:0:0:0:
151,203,115171,1,8,0:0:0:0:
150,203,115352,1,8,0:0:0:0:
148,204,115534,1,0,0:0:0:0:
147,205,115716,1,8,0:0:0:0:
137,212,116080,1,0,0:0:0:0:
137,212,116262,1,8,0:0:0:0:
141,212,116443,1,0,0:0:0:0:
164,217,116534,1,0,0:0:0:0:
165,217,116625,1,0,0:0:0:0:
117,159,116989,1,8,0:0:0:0:
117,159,117352,1,0,0:0:0:0:
117,159,117534,1,8,0:0:0:0:
117,159,117716,1,8,0:0:0:0:
117,159,117898,1,0,0:0:0:0:
100,152,118262,1,8,0:0:0:0:
100,152,118443,1,0,0:0:0:0:
100,152,118625,1,8,0:0:0:0:
98,142,118989,1,0,0:0:0:0:
138,201,119171,1,8,0:0:0:0:
138,201,119352,1,0,0:0:0:0:
144,208,119443,1,0,0:0:0:0:
138,201,119534,1,0,0:0:0:0:
120,215,120080,1,8,0:0:0:0:
120,215,120262,1,0,0:0:0:0:
120,215,120443,1,8,0:0:0:0:
120,215,120625,1,8,0:0:0:0:
114,215,120807,1,0,0:0:0:0:
104,209,120989,1,12,0:0:0:0:
104,208,121171,1,0,0:0:0:0:
80,212,121352,1,8,0:0:0:0:
80,212,121534,1,0,0:0:0:0:
83,211,121625,1,0,0:0:0:0:
80,212,121716,1,0,0:0:0:0:
74,214,121898,1,8,0:0:0:0:
74,214,121989,1,8,0:0:0:0:
74,214,122080,1,0,0:0:0:0:
73,223,122262,1,0,0:0:0:0:
72,223,122443,1,12,0:0:0:0:
104,209,122807,1,0,0:0:0:0:
104,209,122989,1,8,0:0:0:0:
85,196,123171,1,0,0:0:0:0:
85,196,123352,1,0,0:0:0:0:
85,196,123534,1,8,0:0:0:0:
85,196,123716,1,0,0:0:0:0:
85,196,123898,1,8,0:0:0:0:
85,196,124080,1,8,0:0:0:0:
85,196,124262,1,0,0:0:0:0:
85,196,124443,1,8,0:0:0:0:
113,206,124807,1,0,0:0:0:0:
113,206,124989,1,8,0:0:0:0:
113,206,125171,1,0,0:0:0:0:
113,206,125262,1,0,0:0:0:0:
113,206,125352,1,0,0:0:0:0:
113,206,125534,1,8,0:0:0:0:
113,206,125716,1,0,0:0:0:0:
113,206,125898,1,0,0:0:0:0:
113,206,126080,1,8,0:0:0:0:
117,207,126443,1,0,0:0:0:0:
117,208,126625,1,8,0:0:0:0:
117,209,126807,1,0,0:0:0:0:
118,211,126989,1,0,0:0:0:0:
163,184,127171,1,8,0:0:0:0:
163,184,127352,1,8,0:0:0:0:
163,184,127716,1,8,0:0:0:0:
163,184,127898,1,8,0:0:0:0:
163,184,128080,1,0,0:0:0:0:
163,184,128171,1,0,0:0:0:0:
163,184,128262,1,8,0:0:0:0:
163,190,128625,1,0,0:0:0:0:
163,190,128989,1,8,0:0:0:0:
163,190,129171,1,0,0:0:0:0:
163,190,129352,1,0,0:0:0:0:
157,190,129534,1,8,0:0:0:0:
157,190,129898,1,0,0:0:0:0:
164,140,130080,1,8,0:0:0:0:
164,140,130262,1,8,0:0:0:0:
158,141,130625,1,0,0:0:0:0:
158,141,130807,1,8,0:0:0:0:
151,132,130989,1,0,0:0:0:0:
151,132,131080,1,0,0:0:0:0:
149,135,131171,1,8,0:0:0:0:
149,136,131352,1,0,0:0:0:0:
152,148,131716,1,0,0:0:0:0:
153,140,131898,1,8,0:0:0:0:
152,139,132080,1,8,0:0:0:0:
149,136,132262,1,0,0:0:0:0:
150,140,132443,1,0,0:0:0:0:
144,147,132625,1,12,0:0:0:0:
192,170,132989,1,8,0:0:0:0:
196,197,133171,1,0,0:0:0:0:
301,186,133262,1,0,0:0:0:0:
455,249,133352,1,0,0:0:0:0:
196,205,133534,1,8,0:0:0:0:
196,205,133716,1,8,0:0:0:0:
284,212,134080,1,12,0:0:0:0:
267,225,134262,1,0,0:0:0:0:
267,225,134443,1,0,0:0:0:0:
267,224,134625,1,8,0:0:0:0:
267,224,134989,1,0,0:0:0:0:
267,225,135171,1,8,0:0:0:0:
268,216,135352,1,8,0:0:0:0:
149,213,135534,1,0,0:0:0:0:
149,213,135716,1,8,0:0:0:0:
149,213,135898,1,0,0:0:0:0:
154,217,136080,1,8,0:0:0:0:
207,196,136443,1,8,0:0:0:0:
390,95,136625,1,8,0:0:0:0:
207,196,136807,1,0,0:0:0:0:
284,126,136898,1,0,0:0:0:0:
284,126,136989,1,0,0:0:0:0:
207,196,137171,1,8,0:0:0:0:
207,196,137352,1,0,0:0:0:0:
207,196,137534,1,8,0:0:0:0:
207,196,137898,1,0,0:0:0:0:
207,196,138080,1,0,0:0:0:0:
207,196,138262,1,8,0:0:0:0:
207,196,138625,1,8,0:0:0:0:
207,196,138989,1,0,0:0:0:0:
207,190,139352,1,0,0:0:0:0:
208,190,139534,1,8,0:0:0:0:
209,189,139716,1,0,0:0:0:0:
208,177,139807,1,0,0:0:0:0:
209,189,139898,1,8,0:0:0:0:
389,148,140262,1,0,0:0:0:0:
389,148,140443,1,0,0:0:0:0:
389,148,140625,1,8,0:0:0:0:
389,148,140807,1,8,0:0:0:0:
389,148,140989,1,0,0:0:0:0:
389,148,141171,1,0,0:0:0:0:
385,156,141352,1,12,0:0:0:0:
253,250,141534,1,0,0:0:0:0:
253,250,141716,1,8,0:0:0:0:
253,250,141898,1,8,0:0:0:0:
253,250,142080,1,0,0:0:0:0:
242,246,142262,1,8,0:0:0:0:
242,246,142352,1,8,0:0:0:0:
244,250,142443,1,8,0:0:0:0:
236,245,142625,1,0,0:0:0:0:
237,250,142807,1,12,0:0:0:0:
204,234,143171,1,0,0:0:0:0:
214,246,143352,1,8,0:0:0:0:
216,234,143534,1,0,0:0:0:0:
216,234,143898,1,8,0:0:0:0:
220,241,144080,1,0,0:0:0:0:
214,246,144262,1,12,0:0:0:0:
177,192,144443,1,0,0:0:0:0:
180,188,144625,1,0,0:0:0:0:
183,187,144807,1,8,0:0:0:0:
193,187,144898,1,8,0:0:0:0:
184,187,144989,1,0,0:0:0:0:
195,185,145171,1,8,0:0:0:0:
195,179,145262,1,8,0:0:0:0:
191,176,145352,1,8,0:0:0:0:
192,176,145534,1,0,0:0:0:0:
183,150,145716,1,12,0:0:0:0:
155,198,146080,1,0,0:0:0:0:
155,198,146262,1,8,0:0:0:0:
155,198,146443,1,0,0:0:0:0:
162,198,146625,1,8,0:0:0:0:
164,198,146807,1,0,0:0:0:0:
164,198,146989,1,0,0:0:0:0:
162,198,147534,1,8,0:0:0:0:
216,176,147716,1,0,0:0:0:0:
216,176,147898,1,8,0:0:0:0:
216,176,148080,1,0,0:0:0:0:
216,176,148262,1,8,0:0:0:0:
216,176,148443,1,8,0:0:0:0:
183,187,148989,1,0,0:0:0:0:
183,187,149171,1,8,0:0:0:0:
183,187,149352,1,0,0:0:0:0:
176,186,149534,1,8,0:0:0:0:
187,192,149716,1,0,0:0:0:0:
143,181,149807,1,0,0:0:0:0:
187,194,149898,1,0,0:0:0:0:
189,197,150080,1,12,0:0:0:0:
255,211,150443,1,0,0:0:0:0:
247,210,150625,1,8,0:0:0:0:
248,210,150716,1,8,0:0:0:0:
255,211,150807,1,8,0:0:0:0:
283,202,150989,1,0,0:0:0:0:
283,202,151080,1,0,0:0:0:0:
283,202,151171,1,8,0:0:0:0:
283,202,151352,1,0,0:0:0:0:
185,190,151534,1,12,0:0:0:0:
185,190,151716,1,0,0:0:0:0:
185,190,151898,1,8,0:0:0:0:
151,199,152080,1,8,0:0:0:0:
171,199,152262,1,0,0:0:0:0:
171,199,152352,1,0,0:0:0:0:
168,199,152443,1,0,0:0:0:0:
162,197,152625,1,8,0:0:0:0:
162,197,152807,1,0,0:0:0:0:
162,197,152898,1,8,0:0:0:0:
162,197,152989,1,0,0:0:0:0:
162,197,153080,1,0,0:0:0:0:
160,199,153171,1,8,0:0:0:0:
198,176,153352,1,0,0:0:0:0:
198,176,153534,1,8,0:0:0:0:
198,176,153625,1,8,0:0:0:0:
198,176,153716,1,8,0:0:0:0:
149,83,153807,1,8,0:0:0:0:
149,83,153898,1,0,0:0:0:0:
198,176,154262,1,0,0:0:0:0:
193,170,154352,1,0,0:0:0:0:
193,170,154443,1,8,0:0:0:0:
149,83,154625,1,0,0:0:0:0:
122,101,154807,1,8,0:0:0:0:
122,101,154989,1,8,0:0:0:0:
113,111,155171,1,0,0:0:0:0:
177,185,155262,1,0,0:0:0:0:
113,111,155352,1,0,0:0:0:0:
114,112,155534,1,8,0:0:0:0:
115,112,155716,1,0,0:0:0:0:
192,165,156080,1,8,0:0:0:0:
184,160,156262,1,0,0:0:0:0:
184,160,156443,1,8,0:0:0:0:
140,164,156625,1,0,0:0:0:0:
140,164,156716,1,8,0:0:0:0:
140,164,156807,1,0,0:0:0:0:
140,164,156898,1,0,0:0:0:0:
140,164,156989,1,8,0:0:0:0:
127,156,157171,1,0,0:0:0:0:
113,159,157352,1,12,0:0:0:0:
69,160,157716,1,0,0:0:0:0:
111,179,157898,1,8,0:0:0:0:
149,196,158080,1,0,0:0:0:0:
149,196,158171,1,0,0:0:0:0:
149,196,158262,1,0,0:0:0:0:
144,194,158443,1,8,0:0:0:0:
142,196,158625,1,8,0:0:0:0:
112,240,158807,1,0,0:0:0:0:
116,148,158898,1,8,0:0:0:0:
116,148,158989,1,0,0:0:0:0:
109,152,159171,1,0,0:0:0:0:
111,233,159352,1,8,0:0:0:0:
139,199,159443,1,0,0:0:0:0:
133,201,159534,1,8,0:0:0:0:
132,201,159625,1,8,0:0:0:0:
129,202,159716,1,0,0:0:0:0:
96,185,160080,1,0,0:0:0:0:
95,190,160171,1,0,0:0:0:0:
95,190,160262,1,8,0:0:0:0:
96,185,160443,1,0,0:0:0:0:
96,185,160625,1,8,0:0:0:0:
83,186,160807,1,0,0:0:0:0:
80,186,160898,1,0,0:0:0:0:
77,186,160989,1,0,0:0:0:0:
70,187,161171,1,8,0:0:0:0:
70,187,161352,1,0,0:0:0:0:
62,183,161534,1,0,0:0:0:0:
60,183,161716,1,12,0:0:0:0:
64,201,161898,1,0,0:0:0:0:
56,196,162080,1,8,0:0:0:0:
62,210,162262,1,0,0:0:0:0:
62,212,162352,1,0,0:0:0:0:
56,196,162443,1,8,0:0:0:0:
57,222,162625,1,0,0:0:0:0:
57,222,162716,1,0,0:0:0:0:
55,220,162807,1,0,0:0:0:0:
185,190,163171,1,12,0:0:0:0:
185,190,163352,1,0,0:0:0:0:
185,190,163534,1,8,0:0:0:0:
151,199,163716,1,8,0:0:0:0:
171,199,163898,1,0,0:0:0:0:
171,199,163989,1,0,0:0:0:0:
168,199,164080,1,0,0:0:0:0:
162,197,164262,1,8,0:0:0:0:
162,197,164443,1,0,0:0:0:0:
162,197,164534,1,8,0:0:0:0:
162,197,164625,1,0,0:0:0:0:
162,197,164716,1,0,0:0:0:0:
160,199,164807,1,8,0:0:0:0:
198,176,164989,1,0,0:0:0:0:
198,176,165171,1,8,0:0:0:0:
198,176,165262,1,8,0:0:0:0:
198,176,165352,1,8,0:0:0:0:
149,83,165443,1,8,0:0:0:0:
149,83,165534,1,0,0:0:0:0:
198,176,165898,1,0,0:0:0:0:
193,170,165989,1,0,0:0:0:0:
193,170,166080,1,8,0:0:0:0:
149,83,166262,1,0,0:0:0:0:
122,101,166443,1,8,0:0:0:0:
122,101,166625,1,0,0:0:0:0:
113,111,166807,1,8,0:0:0:0:
177,185,166898,1,8,0:0:0:0:
113,111,166989,1,8,0:0:0:0:
114,112,167171,1,0,0:0:0:0:
115,112,167352,1,8,0:0:0:0:
178,142,167534,1,0,0:0:0:0:
173,156,167625,1,0,0:0:0:0:
192,165,167716,1,0,0:0:0:0:
184,160,167898,1,8,0:0:0:0:
184,160,168080,1,0,0:0:0:0:
140,164,168262,1,8,0:0:0:0:
140,164,168352,1,8,0:0:0:0:
140,164,168443,1,0,0:0:0:0:
140,164,168625,1,8,0:0:0:0:
127,156,168807,1,0,0:0:0:0:
113,159,168989,1,12,0:0:0:0:
69,160,169352,1,0,0:0:0:0:
111,179,169534,1,0,0:0:0:0:
149,196,169716,1,8,0:0:0:0:
149,196,169807,1,8,0:0:0:0:
149,196,169898,1,8,0:0:0:0:
144,194,170080,1,0,0:0:0:0:
142,196,170262,1,8,0:0:0:0:
112,240,170443,1,0,0:0:0:0:
116,148,170534,1,0,0:0:0:0:
116,148,170625,1,0,0:0:0:0:
109,152,170807,1,8,0:0:0:0:
111,233,170989,1,0,0:0:0:0:
139,199,171080,1,8,0:0:0:0:
133,201,171171,1,0,0:0:0:0:
132,201,171262,1,0,0:0:0:0:
129,202,171352,1,8,0:0:0:0:
96,185,171716,1,0,0:0:0:0:
95,190,171807,1,0,0:0:0:0:
95,190,171898,1,0,0:0:0:0:
96,185,172080,1,8,0:0:0:0:
96,185,172262,1,0,0:0:0:0:
83,186,172443,1,8,0:0:0:0:
80,186,172534,1,8,0:0:0:0:
77,186,172625,1,8,0:0:0:0:
70,187,172807,1,0,0:0:0:0:
70,187,172989,1,0,0:0:0:0:
62,183,173171,1,12,0:0:0:0:
213,139,174080,1,0,0:0:0:0:
213,139,174262,1,8,0:0:0:0:
213,139,174352,1,8,0:0:0:0:
213,139,174443,1,8,0:0:0:0:
229,283,174807,1,12,0:0:0:0:
91,185,175171,1,8,0:0:0:0:
262,220,175352,1,0,0:0:0:0:
262,220,175534,1,8,0:0:0:0:
262,220,175625,1,8,0:0:0:0:
262,220,175716,1,8,0:0:0:0:
258,215,175898,1,0,0:0:0:0:
131,190,176080,1,8,0:0:0:0:
131,190,176262,1,8,0:0:0:0:
248,201,176625,1,8,0:0:0:0:
247,201,176807,1,0,0:0:0:0:
158,192,176989,1,0,0:0:0:0:
155,186,177080,1,8,0:0:0:0:
155,186,177171,1,0,0:0:0:0:
149,189,177352,1,0,0:0:0:0:
149,189,177534,1,8,0:0:0:0:
149,188,177716,1,8,0:0:0:0:
91,185,178080,1,8,0:0:0:0:
262,220,178262,1,0,0:0:0:0:
262,220,178443,1,8,0:0:0:0:
262,220,178534,1,8,0:0:0:0:
262,220,178625,1,8,0:0:0:0:
258,215,178807,1,0,0:0:0:0:
131,190,178989,1,8,0:0:0:0:
131,190,179171,1,8,0:0:0:0:
248,201,179534,1,8,0:0:0:0:
247,201,179716,1,0,0:0:0:0:
158,192,179898,1,0,0:0:0:0:
155,186,179989,1,8,0:0:0:0:
155,186,180080,1,0,0:0:0:0:
149,189,180262,1,0,0:0:0:0:
149,189,180443,1,8,0:0:0:0:
149,188,180625,1,12,0:0:0:0:
91,185,180989,1,8,0:0:0:0:
262,220,181171,1,0,0:0:0:0:
262,220,181352,1,8,0:0:0:0:
262,220,181443,1,8,0:0:0:0:
262,220,181534,1,8,0:0:0:0:
258,215,181716,1,0,0:0:0:0:
131,190,181898,1,8,0:0:0:0:
131,190,182080,1,8,0:0:0:0:
248,201,182443,1,8,0:0:0:0:
247,201,182625,1,0,0:0:0:0:
158,192,182807,1,0,0:0:0:0:
155,186,182898,1,8,0:0:0:0:
155,186,182989,1,0,0:0:0:0:
149,189,183171,1,0,0:0:0:0:
149,189,183352,1,8,0:0:0:0:
149,188,183534,1,8,0:0:0:0:
91,185,183898,1,8,0:0:0:0:
262,220,184080,1,0,0:0:0:0:
262,220,184262,1,8,0:0:0:0:
262,220,184352,1,8,0:0:0:0:
262,220,184443,1,8,0:0:0:0:
258,215,184625,1,0,0:0:0:0:
131,190,184807,1,8,0:0:0:0:
131,190,184989,1,8,0:0:0:0:
248,201,185352,1,8,0:0:0:0:
247,201,185534,1,0,0:0:0:0:
158,192,185625,1,0,0:0:0:0:
155,186,185807,1,8,0:0:0:0:
155,186,185898,1,0,0:0:0:0:
149,189,186080,1,0,0:0:0:0:
149,189,186262,1,8,0:0:0:0:
149,188,186443,1,12,0:0:0:0:
91,185,186807,1,8,0:0:0:0:
262,220,186989,1,0,0:0:0:0:
262,220,187171,1,8,0:0:0:0:
262,220,187262,1,8,0:0:0:0:
262,220,187352,1,8,0:0:0:0:
258,215,187534,1,0,0:0:0:0:
131,190,187716,1,8,0:0:0:0:
131,190,187898,1,8,0:0:0:0:
248,201,188262,1,8,0:0:0:0:
247,201,188443,1,0,0:0:0:0:
158,192,188625,1,0,0:0:0:0:
155,186,188716,1,8,0:0:0:0:
155,186,188807,1,0,0:0:0:0:
149,189,188989,1,0,0:0:0:0:
149,189,189171,1,8,0:0:0:0:
149,188,189352,1,8,0:0:0:0:
91,185,189716,1,8,0:0:0:0:
262,220,189898,1,0,0:0:0:0:
262,220,190080,1,8,0:0:0:0:
262,220,190171,1,8,0:0:0:0:
262,220,190262,1,8,0:0:0:0:
258,215,190443,1,0,0:0:0:0:
131,190,190625,1,8,0:0:0:0:
131,190,190807,1,8,0:0:0:0:
248,201,191171,1,8,0:0:0:0:
247,201,191352,1,0,0:0:0:0:
158,192,191534,1,0,0:0:0:0:
155,186,191625,1,8,0:0:0:0:
155,186,191716,1,0,0:0:0:0:
149,189,191898,1,0,0:0:0:0:
149,189,192080,1,8,0:0:0:0:
149,188,192262,1,12,0:0:0:0:
91,185,192625,1,8,0:0:0:0:
262,220,192807,1,0,0:0:0:0:
262,220,192989,1,8,0:0:0:0:
262,220,193080,1,8,0:0:0:0:
262,220,193171,1,8,0:0:0:0:
258,215,193352,1,0,0:0:0:0:
131,190,193534,1,8,0:0:0:0:
131,190,193716,1,8,0:0:0:0:
248,201,194080,1,8,0:0:0:0:
247,201,194262,1,0,0:0:0:0:
158,192,194443,1,0,0:0:0:0:
155,186,194534,1,8,0:0:0:0:
155,186,194625,1,0,0:0:0:0:
149,189,194807,1,0,0:0:0:0:
149,189,194989,1,8,0:0:0:0:
149,188,195171,1,8,0:0:0:0:
91,185,195534,1,8,0:0:0:0:
262,220,195716,1,0,0:0:0:0:
262,220,195898,1,8,0:0:0:0:
262,220,195989,1,8,0:0:0:0:
262,220,196080,1,8,0:0:0:0:
258,215,196262,1,0,0:0:0:0:
131,190,196443,1,8,0:0:0:0:
131,190,196625,1,12,0:0:0:0:
248,201,196989,1,12,0:0:0:0:
208,196,197352,1,12,0:0:0:0:
181,189,197534,1,0,0:0:0:0:
181,189,197625,1,0,0:0:0:0:
181,189,197716,1,0,0:0:0:0:
181,189,197898,1,0,0:0:0:0:
126,205,198080,1,12,0:0:0:0:
368,235,199534,1,0,0:0:0:0:
269,235,200989,1,8,0:0:0:0:
264,234,202443,1,0,0:0:0:0:
233,236,203352,1,0,0:0:0:0:
233,236,203534,1,0,0:0:0:0:
233,236,203716,1,0,0:0:0:0:
216,230,203898,1,12,0:0:0:0:
234,205,204262,1,0,0:0:0:0:
227,196,204625,1,8,0:0:0:0:
221,195,204989,1,0,0:0:0:0:
240,223,205352,1,8,0:0:0:0:
136,322,205534,1,0,0:0:0:0:
153,312,205716,1,0,0:0:0:0:
307,193,206080,1,8,0:0:0:0:
307,193,206443,1,0,0:0:0:0:
251,206,206807,1,12,0:0:0:0:
251,206,207171,1,0,0:0:0:0:
259,234,207534,1,0,0:0:0:0:
262,242,207898,1,12,0:0:0:0:
267,241,208262,1,12,0:0:0:0:
266,250,208443,1,0,0:0:0:0:
264,249,208625,1,0,0:0:0:0:
262,250,208807,1,8,0:0:0:0:
199,185,208989,1,0,0:0:0:0:
198,191,209171,1,8,0:0:0:0:
198,190,209352,1,0,0:0:0:0:
192,190,209443,1,0,0:0:0:0:
186,191,209534,1,0,0:0:0:0:
195,195,209716,1,12,0:0:0:0:
155,198,210080,1,0,0:0:0:0:
155,198,210262,1,8,0:0:0:0:
155,198,210443,1,0,0:0:0:0:
162,198,210625,1,8,0:0:0:0:
164,198,210807,1,0,0:0:0:0:
164,198,210989,1,0,0:0:0:0:
162,198,211534,1,8,0:0:0:0:
216,176,211716,1,0,0:0:0:0:
216,176,211898,1,8,0:0:0:0:
216,176,212080,1,0,0:0:0:0:
216,176,212262,1,8,0:0:0:0:
216,176,212443,1,8,0:0:0:0:
183,187,212989,1,0,0:0:0:0:
183,187,213171,1,8,0:0:0:0:
183,187,213352,1,0,0:0:0:0:
176,186,213534,1,8,0:0:0:0:
187,192,213716,1,0,0:0:0:0:
143,181,213807,1,0,0:0:0:0:
187,194,213898,1,0,0:0:0:0:
189,197,214080,1,12,0:0:0:0:
255,211,214443,1,0,0:0:0:0:
247,210,214625,1,8,0:0:0:0:
248,210,214716,1,8,0:0:0:0:
255,211,214807,1,8,0:0:0:0:
283,202,214989,1,0,0:0:0:0:
283,202,215080,1,0,0:0:0:0:
283,202,215171,1,8,0:0:0:0:
283,202,215352,1,0,0:0:0:0:
185,190,215534,1,12,0:0:0:0:
185,190,215716,1,0,0:0:0:0:
185,190,215898,1,8,0:0:0:0:
151,199,216080,1,8,0:0:0:0:
171,199,216262,1,0,0:0:0:0:
171,199,216352,1,0,0:0:0:0:
168,199,216443,1,0,0:0:0:0:
162,197,216625,1,8,0:0:0:0:
162,197,216807,1,0,0:0:0:0:
162,197,216898,1,8,0:0:0:0:
162,197,216989,1,0,0:0:0:0:
162,197,217080,1,0,0:0:0:0:
160,199,217171,1,8,0:0:0:0:
198,176,217352,1,0,0:0:0:0:
198,176,217534,1,8,0:0:0:0:
198,176,217625,1,8,0:0:0:0:
198,176,217716,1,8,0:0:0:0:
149,83,217807,1,8,0:0:0:0:
149,83,217898,1,0,0:0:0:0:
198,176,218262,1,0,0:0:0:0:
193,170,218352,1,0,0:0:0:0:
193,170,218443,1,8,0:0:0:0:
149,83,218625,1,0,0:0:0:0:
122,101,218807,1,8,0:0:0:0:
122,101,218989,1,0,0:0:0:0:
113,111,219171,1,8,0:0:0:0:
177,185,219262,1,8,0:0:0:0:
113,111,219352,1,8,0:0:0:0:
114,112,219534,1,0,0:0:0:0:
115,112,219716,1,8,0:0:0:0:
192,165,220080,1,0,0:0:0:0:
184,160,220262,1,8,0:0:0:0:
184,160,220443,1,0,0:0:0:0:
140,164,220625,1,8,0:0:0:0:
140,164,220716,1,0,0:0:0:0:
140,164,220807,1,8,0:0:0:0:
140,164,220898,1,8,0:0:0:0:
140,164,220989,1,0,0:0:0:0:
127,156,221171,1,0,0:0:0:0:
113,159,221352,1,12,0:0:0:0:
69,160,221716,1,0,0:0:0:0:
111,179,221898,1,8,0:0:0:0:
149,196,222080,1,0,0:0:0:0:
149,196,222171,1,0,0:0:0:0:
149,196,222262,1,0,0:0:0:0:
144,194,222443,1,8,0:0:0:0:
142,196,222625,1,0,0:0:0:0:
112,240,222807,1,8,0:0:0:0:
116,148,222898,1,8,0:0:0:0:
116,148,222989,1,0,0:0:0:0:
109,152,223171,1,8,0:0:0:0:
111,233,223352,1,0,0:0:0:0:
139,199,223443,1,8,0:0:0:0:
133,201,223534,1,0,0:0:0:0:
132,201,223625,1,0,0:0:0:0:
129,202,223716,1,8,0:0:0:0:
96,185,224080,1,0,0:0:0:0:
95,190,224171,1,0,0:0:0:0:
95,190,224262,1,8,0:0:0:0:
96,185,224443,1,0,0:0:0:0:
96,185,224625,1,8,0:0:0:0:
83,186,224807,1,0,0:0:0:0:
80,186,224898,1,0,0:0:0:0:
77,186,224989,1,0,0:0:0:0:
70,187,225171,1,0,0:0:0:0:
70,187,225352,1,8,0:0:0:0:
62,183,225534,1,0,0:0:0:0:
60,183,225716,1,12,0:0:0:0:
64,201,225898,1,0,0:0:0:0:
56,196,226080,1,8,0:0:0:0:
62,210,226262,1,0,0:0:0:0:
62,212,226352,1,0,0:0:0:0:
56,196,226443,1,8,0:0:0:0:
57,222,226625,1,0,0:0:0:0:
57,222,226716,1,0,0:0:0:0:
55,220,226807,1,0,0:0:0:0:
185,190,227171,1,12,0:0:0:0:
185,190,227352,1,0,0:0:0:0:
185,190,227534,1,8,0:0:0:0:
151,199,227716,1,0,0:0:0:0:
171,199,227898,1,8,0:0:0:0:
171,199,227989,1,8,0:0:0:0:
168,199,228080,1,8,0:0:0:0:
162,197,228262,1,0,0:0:0:0:
162,197,228443,1,8,0:0:0:0:
162,197,228534,1,0,0:0:0:0:
162,197,228625,1,8,0:0:0:0:
162,197,228716,1,8,0:0:0:0:
160,199,228807,1,0,0:0:0:0:
198,176,228989,1,8,0:0:0:0:
198,176,229171,1,0,0:0:0:0:
198,176,229262,1,8,0:0:0:0:
198,176,229352,1,0,0:0:0:0:
149,83,229443,1,0,0:0:0:0:
149,83,229534,1,8,0:0:0:0:
198,176,229898,1,0,0:0:0:0:
193,170,229989,1,0,0:0:0:0:
193,170,230080,1,0,0:0:0:0:
149,83,230262,1,8,0:0:0:0:
122,101,230443,1,0,0:0:0:0:
122,101,230625,1,8,0:0:0:0:
113,111,230807,1,0,0:0:0:0:
177,185,230898,1,0,0:0:0:0:
113,111,230989,1,8,0:0:0:0:
114,112,231171,1,0,0:0:0:0:
115,112,231352,1,0,0:0:0:0:
178,142,231534,1,8,0:0:0:0:
173,156,231625,1,8,0:0:0:0:
192,165,231716,1,0,0:0:0:0:
184,160,231898,1,8,0:0:0:0:
184,160,232080,1,0,0:0:0:0:
140,164,232262,1,8,0:0:0:0:
140,164,232352,1,8,0:0:0:0:
140,164,232443,1,8,0:0:0:0:
140,164,232625,1,0,0:0:0:0:
127,156,232807,1,0,0:0:0:0:
113,159,232989,1,12,0:0:0:0:
69,160,233352,1,0,0:0:0:0:
111,179,233534,1,8,0:0:0:0:
149,196,233716,1,0,0:0:0:0:
149,196,233807,1,0,0:0:0:0:
149,196,233898,1,0,0:0:0:0:
144,194,234080,1,8,0:0:0:0:
142,196,234262,1,0,0:0:0:0:
112,240,234443,1,8,0:0:0:0:
116,148,234534,1,8,0:0:0:0:
116,148,234625,1,0,0:0:0:0:
109,152,234807,1,8,0:0:0:0:
111,233,234989,1,0,0:0:0:0:
139,199,235080,1,8,0:0:0:0:
133,201,235171,1,0,0:0:0:0:
132,201,235262,1,0,0:0:0:0:
129,202,235352,1,8,0:0:0:0:
96,185,235716,1,0,0:0:0:0:
95,190,235807,1,0,0:0:0:0:
95,190,235898,1,8,0:0:0:0:
96,185,236080,1,0,0:0:0:0:
96,185,236262,1,8,0:0:0:0:
83,186,236443,1,0,0:0:0:0:
80,186,236534,1,0,0:0:0:0:
77,186,236625,1,0,0:0:0:0:
70,187,236807,1,8,0:0:0:0:
70,187,236989,1,0,0:0:0:0:
180,183,237171,1,0,0:0:0:0:
182,156,237352,1,12,0:0:0:0:
255,172,237716,1,0,0:0:0:0:
255,172,237898,1,8,0:0:0:0:
255,172,237989,1,8,0:0:0:0:
246,168,238080,1,0,0:0:0:0:
245,168,238262,1,8,0:0:0:0:
245,168,238352,1,8,0:0:0:0:
245,168,238443,1,8,0:0:0:0:
245,168,238625,1,0,0:0:0:0:
242,161,238807,1,12,0:0:0:0:
185,190,238989,1,0,0:0:0:0:
185,190,239171,1,8,0:0:0:0:
151,199,239352,1,0,0:0:0:0:
171,199,239534,1,8,0:0:0:0:
171,199,239625,1,8,0:0:0:0:
168,199,239716,1,0,0:0:0:0:
162,197,239898,1,8,0:0:0:0:
162,197,240080,1,0,0:0:0:0:
162,197,240171,1,8,0:0:0:0:
162,197,240262,1,0,0:0:0:0:
162,197,240352,1,0,0:0:0:0:
160,199,240443,1,8,0:0:0:0:
198,176,240625,1,0,0:0:0:0:
198,176,240807,1,8,0:0:0:0:
198,176,240898,1,8,0:0:0:0:
198,176,240989,1,8,0:0:0:0:
149,83,241080,1,8,0:0:0:0:
149,83,241171,1,0,0:0:0:0:
198,176,241534,1,8,0:0:0:0:
193,170,241625,1,8,0:0:0:0:
193,170,241716,1,0,0:0:0:0:
149,83,241898,1,8,0:0:0:0:
122,101,242080,1,0,0:0:0:0:
122,101,242262,1,0,0:0:0:0:
113,111,242443,1,8,0:0:0:0:
177,185,242534,1,8,0:0:0:0:
113,111,242625,1,8,0:0:0:0:
114,112,242807,1,0,0:0:0:0:
115,112,242989,1,8,0:0:0:0:
192,165,243352,1,0,0:0:0:0:
184,160,243534,1,8,0:0:0:0:
184,160,243716,1,0,0:0:0:0:
140,164,243898,1,8,0:0:0:0:
140,164,243989,1,0,0:0:0:0:
140,164,244080,1,8,0:0:0:0:
140,164,244171,1,8,0:0:0:0:
140,164,244262,1,0,0:0:0:0:
127,156,244443,1,0,0:0:0:0:
113,159,244625,1,12,0:0:0:0:
69,160,244989,1,0,0:0:0:0:
111,179,245171,1,8,0:0:0:0:
149,196,245352,1,0,0:0:0:0:
149,196,245443,1,0,0:0:0:0:
149,196,245534,1,0,0:0:0:0:
144,194,245716,1,8,0:0:0:0:
142,196,245898,1,0,0:0:0:0:
112,240,246080,1,8,0:0:0:0:
116,148,246171,1,8,0:0:0:0:
116,148,246262,1,0,0:0:0:0:
109,152,246443,1,8,0:0:0:0:
111,233,246625,1,0,0:0:0:0:
139,199,246716,1,8,0:0:0:0:
133,201,246807,1,0,0:0:0:0:
132,201,246898,1,0,0:0:0:0:
129,202,246989,1,8,0:0:0:0:
96,185,247352,1,0,0:0:0:0:
95,190,247443,1,0,0:0:0:0:
95,190,247534,1,8,0:0:0:0:
96,185,247716,1,0,0:0:0:0:
96,185,247898,1,8,0:0:0:0:
83,186,248080,1,0,0:0:0:0:
80,186,248171,1,0,0:0:0:0:
77,186,248262,1,0,0:0:0:0:
70,187,248443,1,8,0:0:0:0:
70,187,248625,1,8,0:0:0:0:
62,183,248807,1,0,0:0:0:0:
60,183,248989,1,12,0:0:0:0:
64,201,249171,1,0,0:0:0:0:
56,196,249352,1,8,0:0:0:0:
62,210,249534,1,0,0:0:0:0:
62,212,249625,1,0,0:0:0:0:
56,196,249716,1,8,0:0:0:0:
57,222,249898,1,0,0:0:0:0:
57,222,249989,1,0,0:0:0:0:
55,220,250080,1,0,0:0:0:0:
185,190,250443,1,12,0:0:0:0:
185,190,250625,1,0,0:0:0:0:
185,190,250807,1,8,0:0:0:0:
151,199,250989,1,0,0:0:0:0:
171,199,251171,1,8,0:0:0:0:
171,199,251262,1,8,0:0:0:0:
168,199,251352,1,8,0:0:0:0:
162,197,251534,1,0,0:0:0:0:
162,197,251716,1,8,0:0:0:0:
162,197,251807,1,0,0:0:0:0:
162,197,251898,1,8,0:0:0:0:
162,197,251989,1,8,0:0:0:0:
160,199,252080,1,0,0:0:0:0:
198,176,252262,1,8,0:0:0:0:
198,176,252443,1,0,0:0:0:0:
198,176,252534,1,0,0:0:0:0:
198,176,252625,1,0,0:0:0:0:
149,83,252716,1,0,0:0:0:0:
149,83,252807,1,8,0:0:0:0:
198,176,253171,1,0,0:0:0:0:
193,170,253262,1,0,0:0:0:0:
193,170,253352,1,8,0:0:0:0:
149,83,253534,1,0,0:0:0:0:
122,101,253716,1,0,0:0:0:0:
122,101,253898,1,8,0:0:0:0:
113,111,254080,1,0,0:0:0:0:
177,185,254171,1,0,0:0:0:0:
113,111,254262,1,0,0:0:0:0:
114,112,254443,1,8,0:0:0:0:
115,112,254625,1,8,0:0:0:0:
178,142,254807,1,0,0:0:0:0:
173,156,254898,1,0,0:0:0:0:
192,165,254989,1,8,0:0:0:0:
184,160,255171,1,0,0:0:0:0:
184,160,255352,1,0,0:0:0:0:
140,164,255534,1,8,0:0:0:0:
140,164,255625,1,8,0:0:0:0:
140,164,255716,1,0,0:0:0:0:
140,164,255898,1,8,0:0:0:0:
127,156,256080,1,0,0:0:0:0:
113,159,256262,1,12,0:0:0:0:
69,160,256625,1,0,0:0:0:0:
111,179,256807,1,8,0:0:0:0:
149,196,256989,1,0,0:0:0:0:
149,196,257080,1,0,0:0:0:0:
149,196,257171,1,0,0:0:0:0:
144,194,257352,1,8,0:0:0:0:
142,196,257534,1,8,0:0:0:0:
112,240,257716,1,0,0:0:0:0:
116,148,257807,1,0,0:0:0:0:
116,148,257898,1,8,0:0:0:0:
109,152,258080,1,0,0:0:0:0:
111,233,258262,1,8,0:0:0:0:
139,199,258352,1,0,0:0:0:0:
133,201,258443,1,8,0:0:0:0:
132,201,258534,1,8,0:0:0:0:
129,202,258625,1,0,0:0:0:0:
96,185,258989,1,0,0:0:0:0:
95,190,259080,1,0,0:0:0:0:
95,190,259171,1,8,0:0:0:0:
96,185,259352,1,0,0:0:0:0:
96,185,259534,1,8,0:0:0:0:
83,186,259716,1,0,0:0:0:0:
80,186,259807,1,0,0:0:0:0:
77,186,259898,1,0,0:0:0:0:
70,187,260080,1,8,0:0:0:0:
70,187,260262,1,0,0:0:0:0:
180,183,260443,1,12,0:0:0:0:
246,168,261352,1,0,0:0:0:0:
255,172,261534,1,8,0:0:0:0:
255,172,261625,1,8,0:0:0:0:
255,172,261716,1,8,0:0:0:0:
196,194,262080,1,4,0:0:0:0:
209,181,262443,1,0,0:0:0:0:
276,170,262625,1,8,0:0:0:0:
213,181,262807,1,8,0:0:0:0:
213,184,262989,1,0,0:0:0:0:
216,181,263352,1,0,0:0:0:0:
218,181,263716,1,0,0:0:0:0:
225,185,263898,1,8,0:0:0:0:
225,185,264080,1,0,0:0:0:0:
199,166,264443,1,8,0:0:0:0:
199,166,264625,1,0,0:0:0:0:
200,170,264989,1,8,0:0:0:0:
204,172,265352,1,8,0:0:0:0:
232,125,265534,1,0,0:0:0:0:
249,171,265716,1,0,0:0:0:0:
260,169,265898,1,8,0:0:0:0:
260,169,266262,1,8,0:0:0:0:
249,171,266625,1,8,0:0:0:0:
249,174,266807,1,0,0:0:0:0:
249,174,266989,1,8,0:0:0:0:
249,171,267352,1,0,0:0:0:0:
249,171,267534,1,8,0:0:0:0:
231,169,267898,1,4,0:0:0:0:
228,170,268262,1,0,0:0:0:0:
229,128,268443,1,8,0:0:0:0:
227,174,268625,1,8,0:0:0:0:
231,174,268807,1,0,0:0:0:0:
231,174,269171,1,0,0:0:0:0:
227,174,269534,1,0,0:0:0:0:
231,174,269716,1,8,0:0:0:0:
231,174,269898,1,0,0:0:0:0:
231,180,270262,1,8,0:0:0:0:
231,180,270443,1,0,0:0:0:0:
231,174,270807,1,8,0:0:0:0:
231,180,271171,1,8,0:0:0:0:
224,127,271352,1,0,0:0:0:0:
238,189,271534,1,0,0:0:0:0:
238,191,271716,1,8,0:0:0:0:
236,186,272080,1,8,0:0:0:0:
216,112,272262,1,4,0:0:0:0:
195,109,272625,1,0,0:0:0:0:
221,109,272807,1,12,0:0:0:0:
202,80,273171,1,8,0:0:0:0:
221,109,273352,1,4,0:0:0:0:
221,109,273716,1,4,0:0:0:0:
231,83,274080,1,8,0:0:0:0:
219,81,274262,1,0,0:0:0:0:
219,81,274352,1,0,0:0:0:0:
219,81,274443,1,0,0:0:0:0:
219,81,274625,1,8,0:0:0:0:
217,85,274807,1,0,0:0:0:0:
217,86,274989,1,0,0:0:0:0:
219,86,275171,1,8,0:0:0:0:
231,82,275534,1,8,0:0:0:0:
224,89,275716,1,0,0:0:0:0:
223,82,276080,1,8,0:0:0:0:
224,83,276262,1,0,0:0:0:0:
231,82,276443,1,0,0:0:0:0:
218,81,276625,1,8,0:0:0:0:
223,82,276989,1,0,0:0:0:0:
224,83,277171,1,8,0:0:0:0:
224,83,277262,1,8,0:0:0:0:
220,83,277352,1,8,0:0:0:0:
211,180,277534,1,0,0:0:0:0:
211,180,277716,1,8,0:0:0:0:
191,155,277898,1,0,0:0:0:0:
191,155,278080,1,8,0:0:0:0:
195,149,278443,1,0,0:0:0:0:
200,137,278625,1,8,0:0:0:0:
202,134,278989,1,0,0:0:0:0:
207,129,279171,1,8,0:0:0:0:
206,134,279352,1,8,0:0:0:0:
211,136,279534,1,4,0:0:0:0:
222,108,279898,1,0,0:0:0:0:
259,65,280080,1,8,0:0:0:0:
259,65,280171,1,8,0:0:0:0:
259,65,280262,1,8,0:0:0:0:
259,65,280443,1,0,0:0:0:0:
259,65,280625,1,8,0:0:0:0:
259,65,280807,1,8,0:0:0:0:
259,65,280989,1,0,0:0:0:0:
260,70,281171,1,0,0:0:0:0:
262,69,281352,1,8,0:0:0:0:
262,69,281534,1,0,0:0:0:0:
259,65,281898,1,8,0:0:0:0:
260,70,282080,1,8,0:0:0:0:
253,63,282262,1,0,0:0:0:0:
253,63,282443,1,0,0:0:0:0:
249,67,282807,1,0,0:0:0:0:
260,70,282989,1,8,0:0:0:0:
260,70,283080,1,8,0:0:0:0:
259,78,283171,1,8,0:0:0:0:
260,82,283352,1,0,0:0:0:0:
261,82,283534,1,0,0:0:0:0:
260,85,283716,1,12,0:0:0:0:
180,126,284625,1,0,0:0:0:0:
180,126,284807,1,8,0:0:0:0:
180,126,284898,1,8,0:0:0:0:
186,126,284989,1,8,0:0:0:0:
184,126,285352,1,4,0:0:0:0:
256,192,285716,12,0,291352,0:0:0:0:
