osu file format v14

[General]
AudioFilename: audio.mp3
AudioLeadIn: 0
PreviewTime: 75807
Countdown: 0
SampleSet: Normal
StackLeniency: 0.7
Mode: 1
LetterboxInBreaks: 0
WidescreenStoryboard: 0

[Editor]
Bookmarks: 11898,23534,35171,46807,58443,70080,75898,110807,122443,134080,145716,198080
DistanceSpacing: 1
BeatDivisor: 4
GridSize: 32
TimelineZoom: 1.4

[Metadata]
Title:Shirley!!
TitleUnicode:Shirley!!
Artist:iroha(sasaki)
ArtistUnicode:iroha(sasaki)
Creator:_gt
Version:Inner Oni!!
Source:
Tags:featured artist mappers' guild mpg mg vmc2 vocaloid mapping contest 2 ler1211 鏡音リン kagamine rin japanese pop jpop j-pop vocaloid debutante iv
BeatmapID:4563184
BeatmapSetID:2163652

[Difficulty]
HPDrainRate:6
CircleSize:5
OverallDifficulty:6
ApproachRate:5
SliderMultiplier:1.4
SliderTickRate:1

[Events]
//Background and Video events
0,0,"16323857_p0.jpg",0,80
//Break Periods
//Storyboard Layer 0 (Background)
//Storyboard Layer 1 (Fail)
//Storyboard Layer 2 (Pass)
//Storyboard Layer 3 (Foreground)
//Storyboard Layer 4 (Overlay)
//Storyboard Sound Samples

[TimingPoints]
262,363.636363636364,4,1,0,70,1,0
262,-133.333333333333,4,1,0,70,0,0
11171,-125,4,1,0,80,0,0
11352,-123.127465596737,4,1,0,80,0,0
11474,-121.881166996522,4,1,0,80,0,0
11534,-121.272868892679,4,1,0,80,0,0
11655,-120.055353570035,4,1,0,80,0,0
11716,-119.446206889609,4,1,0,80,0,0
11898,-117.647058823529,4,1,0,80,0,0
23514,-117.647058823529,4,1,0,90,0,0
23534,-105.263157894737,4,1,0,90,0,0
32262,-100,4,1,0,90,0,0
33352,-100,4,1,0,90,0,0
33534,-101.059760479188,4,1,0,90,0,0
33716,-102.130751881108,4,1,0,90,0,0
33898,-103.213093226641,4,1,0,90,0,0
34080,-104.306904798005,4,1,0,90,0,0
34262,-105.412308152118,4,1,0,90,0,0
34352,-105.963257281408,4,1,0,90,0,0
34443,-106.523255892103,4,1,0,90,0,0
34625,-107.652147259192,4,1,0,90,0,0
34686,-108.033182533923,4,1,0,90,0,0
34746,-108.409286996497,4,1,0,90,0,0
34807,-108.793002170842,4,1,0,90,0,0
34898,-109.367955523845,4,1,0,90,0,0
34989,-109.94594741197,4,1,0,90,0,0
35151,-109.94594741197,4,1,0,80,0,0
35171,-111.111111111111,4,1,0,80,0,0
45352,-100,4,1,0,80,0,0
45442,-100.704876076575,4,1,0,80,0,0
45533,-101.414720655984,4,1,0,80,0,0
45624,-102.129568760014,4,1,0,80,0,0
45715,-102.849455657312,4,1,0,80,0,0
45806,-103.574416865129,4,1,0,80,0,0
45897,-104.304488151063,4,1,0,80,0,0
45988,-105.039705534834,4,1,0,80,0,0
46079,-105.780105290055,4,1,0,80,0,0
46170,-106.52572394602,4,1,0,80,0,0
46261,-107.276598289514,4,1,0,80,0,0
46352,-108.032765366621,4,1,0,80,0,0
46443,-108.794262484553,4,1,0,80,0,0
46534,-109.561127213493,4,1,0,80,0,0
46625,-110.333397388447,4,1,0,80,0,0
46716,-111.111111111111,4,1,0,80,0,0
46807,-105.263157894737,4,1,0,80,0,0
56989,-105.263157894737,4,1,0,80,0,0
57079,-105.619464975455,4,1,0,80,0,0
57170,-105.976978126164,4,1,0,80,0,0
57261,-106.335701429309,4,1,0,80,0,0
57352,-106.695638981157,4,1,0,80,0,0
57443,-107.056794891839,4,1,0,80,0,0
57534,-107.4191732854,4,1,0,80,0,0
57625,-107.782778299841,4,1,0,80,0,0
57716,-108.147614087175,4,1,0,80,0,0
57806,-108.513684813465,4,1,0,80,0,0
57897,-108.880994658877,4,1,0,80,0,0
57988,-109.249547817727,4,1,0,80,0,0
58079,-109.619348498528,4,1,0,80,0,0
58170,-109.990400924039,4,1,0,80,0,0
58261,-110.362709331311,4,1,0,80,0,0
58352,-110.736277971741,4,1,0,80,0,0
58443,-111.111111111111,4,1,0,80,0,0
65716,-100,4,1,0,80,0,0
65806,-100.704876076575,4,1,0,80,0,0
65897,-101.414720655984,4,1,0,80,0,0
65988,-102.129568760014,4,1,0,80,0,0
66079,-102.849455657312,4,1,0,80,0,0
66170,-103.574416865129,4,1,0,80,0,0
66261,-104.304488151063,4,1,0,80,0,0
66352,-105.039705534834,4,1,0,80,0,0
66443,-105.780105290055,4,1,0,80,0,0
66534,-106.52572394602,4,1,0,80,0,0
66625,-107.276598289514,4,1,0,80,0,0
66716,-108.032765366621,4,1,0,80,0,0
66807,-108.794262484553,4,1,0,80,0,0
66898,-109.561127213493,4,1,0,80,0,0
66989,-110.333397388447,4,1,0,80,0,0
67080,-111.111111111111,4,1,0,80,0,0
67171,-105.263157894737,4,1,0,80,0,0
68625,-100,4,1,0,80,0,0
68715,-100.660676122253,4,1,0,80,0,0
68806,-101.325717173891,4,1,0,80,0,0
68897,-101.995151992961,4,1,0,80,0,0
68988,-102.669009608034,4,1,0,80,0,0
69079,-103.347319239468,4,1,0,80,0,0
69170,-104.030110300672,4,1,0,80,0,0
69261,-104.717412399382,4,1,0,80,0,0
69352,-105.409255338946,4,1,0,80,0,0
69443,-106.105669119615,4,1,0,80,0,0
69534,-106.806683939845,4,1,0,80,0,0
69625,-107.512330197606,4,1,0,80,0,0
69716,-108.2226384917,4,1,0,80,0,0
69807,-108.937639623087,4,1,0,80,0,0
69898,-109.657364596222,4,1,0,80,0,0
69989,-110.381844620402,4,1,0,80,0,0
70080,-111.111111111111,4,1,0,80,0,0
70443,-111.111111111111,4,1,0,80,0,0
70533,-110.419740414913,4,1,0,80,0,0
70624,-109.73267165967,4,1,0,80,0,0
70715,-109.049878077261,4,1,0,80,0,0
70806,-108.371333066121,4,1,0,80,0,0
70897,-107.697010190212,4,1,0,80,0,0
70988,-107.026883177989,4,1,0,80,0,0
71079,-106.360925921377,4,1,0,80,0,0
71170,-105.699112474754,4,1,0,80,0,0
71261,-105.041417053941,4,1,0,80,0,0
71352,-104.387814035197,4,1,0,80,0,0
71443,-103.738277954219,4,1,0,80,0,0
71534,-103.092783505155,4,1,0,80,0,0
71887,-106.837606837607,4,1,0,80,0,0
71977,-106.172827322031,4,1,0,80,0,0
72068,-105.512184288145,4,1,0,80,0,0
72159,-104.855651997366,4,1,0,80,0,0
72250,-104.20320487127,4,1,0,80,0,0
72341,-103.554817490589,4,1,0,80,0,0
72432,-102.91046459422,4,1,0,80,0,0
72523,-102.270121078247,4,1,0,80,0,0
72614,-101.633761994956,4,1,0,80,0,0
72705,-101.001362551866,4,1,0,80,0,0
72796,-100.372898110766,4,1,0,80,0,0
72887,-99.7483441867493,4,1,0,80,0,0
72978,-99.1276764472641,4,1,0,80,0,0
73331,-102.728468113083,4,1,0,80,0,0
73421,-102.089257040415,4,1,0,80,0,0
73512,-101.454023353985,4,1,0,80,0,0
73603,-100.82274230516,4,1,0,80,0,0
73694,-100.195389299299,4,1,0,80,0,0
73785,-99.571939894797,4,1,0,80,0,0
73876,-98.952369802135,4,1,0,80,0,0
73967,-98.3366548829298,4,1,0,80,0,0
74058,-97.7247711489957,4,1,0,80,0,0
74149,-97.1166947614097,4,1,0,80,0,0
74240,-96.5124020295826,4,1,0,80,0,0
74331,-95.9118694103359,4,1,0,80,0,0
74422,-95.3150735069847,4,1,0,80,0,0
74807,-97.6527757998541,4,1,0,80,0,0
74989,-98.8829782881017,4,1,0,80,0,0
75080,-99.503879042937,4,1,0,80,0,0
75171,-100.128678524874,4,1,0,80,0,0
75352,-101.383097780823,4,1,0,80,0,0
75443,-102.019697153429,4,1,0,80,0,0
75534,-102.660293827066,4,1,0,80,0,0
75716,-103.953579633597,4,1,0,80,0,0
75878,-103.953579633597,4,1,0,100,0,0
75898,-100,4,1,0,100,0,1
86080,-95.2380952380952,4,1,0,100,0,0
86169,-95.87567042762,4,1,0,100,0,0
86260,-96.5175138894288,4,1,0,100,0,0
86351,-97.1636541976392,4,1,0,100,0,0
86442,-97.8141201176589,4,1,0,100,0,0
86533,-98.4689406074671,4,1,0,100,0,0
86624,-99.1281448189033,4,1,0,100,0,0
86715,-99.7917620989648,4,1,0,100,0,0
86805,-100.459821991114,4,1,0,100,0,0
86896,-101.132354236593,4,1,0,100,0,0
86987,-101.809388775747,4,1,0,100,0,0
87078,-102.49095574936,4,1,0,100,0,0
87169,-103.177085499993,4,1,0,100,0,0
87260,-103.867808573337,4,1,0,100,0,0
87351,-104.563155719572,4,1,0,100,0,0
87442,-105.263157894737,4,1,0,100,0,0
87534,-100,4,1,0,100,0,1
97534,-100,4,1,0,100,0,0
97696,-100,4,1,0,80,0,0
97716,-105.263157894737,4,1,0,80,0,0
98443,-95.2380952380952,4,1,0,80,0,0
99171,-105.263157894737,4,1,0,80,0,0
99534,-102.040816326531,4,1,0,80,0,0
99624,-105.263157894737,4,1,0,80,0,0
100260,-102.040816326531,4,1,0,80,0,0
100351,-105.263157894737,4,1,0,80,0,0
100987,-102.040816326531,4,1,0,80,0,0
101078,-105.263157894737,4,1,0,80,0,0
101715,-102.040816326531,4,1,0,80,0,0
101806,-105.263157894737,4,1,0,80,0,0
102442,-102.040816326531,4,1,0,80,0,0
102533,-105.263157894737,4,1,0,80,0,0
103169,-102.040816326531,4,1,0,80,0,0
103260,-105.263157894737,4,1,0,80,0,0
103896,-102.040816326531,4,1,0,80,0,0
103987,-105.263157894737,4,1,0,80,0,0
104624,-102.040816326531,4,1,0,80,0,0
104715,-105.263157894737,4,1,0,80,0,0
105352,-102.040816326531,4,1,0,80,0,0
105442,-105.263157894737,4,1,0,80,0,0
106078,-102.040816326531,4,1,0,80,0,0
106169,-105.263157894737,4,1,0,80,0,0
106805,-102.040816326531,4,1,0,80,0,0
106896,-105.263157894737,4,1,0,80,0,0
107533,-102.040816326531,4,1,0,80,0,0
107624,-105.263157894737,4,1,0,80,0,0
108260,-102.040816326531,4,1,0,80,0,0
108351,-105.263157894737,4,1,0,80,0,0
108987,-102.040816326531,4,1,0,80,0,0
109078,-105.263157894737,4,1,0,80,0,0
109352,-100,4,1,0,80,0,0
109442,-100.660676122253,4,1,0,80,0,0
109533,-101.325717173891,4,1,0,80,0,0
109624,-101.995151992961,4,1,0,80,0,0
109715,-102.669009608034,4,1,0,80,0,0
109806,-103.347319239468,4,1,0,80,0,0
109897,-104.030110300672,4,1,0,80,0,0
109988,-104.717412399382,4,1,0,80,0,0
110079,-105.409255338946,4,1,0,80,0,0
110170,-106.105669119615,4,1,0,80,0,0
110261,-106.806683939845,4,1,0,80,0,0
110352,-107.512330197606,4,1,0,80,0,0
110443,-108.2226384917,4,1,0,80,0,0
110534,-108.937639623087,4,1,0,80,0,0
110625,-109.657364596222,4,1,0,80,0,0
110716,-110.381844620402,4,1,0,80,0,0
110804,-111.111111111111,4,1,0,80,0,0
120985,-100,4,1,0,80,0,0
121075,-100.704876076575,4,1,0,80,0,0
121166,-101.414720655984,4,1,0,80,0,0
121257,-102.129568760014,4,1,0,80,0,0
121348,-102.849455657312,4,1,0,80,0,0
121439,-103.574416865129,4,1,0,80,0,0
121530,-104.304488151063,4,1,0,80,0,0
121621,-105.039705534834,4,1,0,80,0,0
121712,-105.780105290055,4,1,0,80,0,0
121803,-106.52572394602,4,1,0,80,0,0
121894,-107.276598289514,4,1,0,80,0,0
121985,-108.032765366621,4,1,0,80,0,0
122076,-108.794262484553,4,1,0,80,0,0
122167,-109.561127213493,4,1,0,80,0,0
122258,-110.333397388447,4,1,0,80,0,0
122349,-111.111111111111,4,1,0,80,0,0
122440,-105.263157894737,4,1,0,80,0,0
132622,-105.263157894737,4,1,0,80,0,0
132712,-105.619464975455,4,1,0,80,0,0
132803,-105.976978126164,4,1,0,80,0,0
132894,-106.335701429309,4,1,0,80,0,0
132985,-106.695638981157,4,1,0,80,0,0
133076,-107.056794891839,4,1,0,80,0,0
133167,-107.4191732854,4,1,0,80,0,0
133258,-107.782778299841,4,1,0,80,0,0
133349,-108.147614087175,4,1,0,80,0,0
133439,-108.513684813465,4,1,0,80,0,0
133530,-108.880994658877,4,1,0,80,0,0
133621,-109.249547817727,4,1,0,80,0,0
133712,-109.619348498528,4,1,0,80,0,0
133803,-109.990400924039,4,1,0,80,0,0
133894,-110.362709331311,4,1,0,80,0,0
133985,-110.736277971741,4,1,0,80,0,0
134076,-111.111111111111,4,1,0,80,0,0
141349,-100,4,1,0,80,0,0
141439,-100.704876076575,4,1,0,80,0,0
141530,-101.414720655984,4,1,0,80,0,0
141621,-102.129568760014,4,1,0,80,0,0
141712,-102.849455657312,4,1,0,80,0,0
141803,-103.574416865129,4,1,0,80,0,0
141894,-104.304488151063,4,1,0,80,0,0
141985,-105.039705534834,4,1,0,80,0,0
142076,-105.780105290055,4,1,0,80,0,0
142167,-106.52572394602,4,1,0,80,0,0
142258,-107.276598289514,4,1,0,80,0,0
142349,-108.032765366621,4,1,0,80,0,0
142440,-108.794262484553,4,1,0,80,0,0
142531,-109.561127213493,4,1,0,80,0,0
142622,-110.333397388447,4,1,0,80,0,0
142713,-111.111111111111,4,1,0,80,0,0
142804,-105.263157894737,4,1,0,80,0,0
144258,-100,4,1,0,80,0,0
144348,-100.660676122253,4,1,0,80,0,0
144439,-101.325717173891,4,1,0,80,0,0
144530,-101.995151992961,4,1,0,80,0,0
144621,-102.669009608034,4,1,0,80,0,0
144712,-103.347319239468,4,1,0,80,0,0
144803,-104.030110300672,4,1,0,80,0,0
144894,-104.717412399382,4,1,0,80,0,0
144985,-105.409255338946,4,1,0,80,0,0
145076,-106.105669119615,4,1,0,80,0,0
145167,-106.806683939845,4,1,0,80,0,0
145258,-107.512330197606,4,1,0,80,0,0
145349,-108.2226384917,4,1,0,80,0,0
145440,-108.937639623087,4,1,0,80,0,0
145531,-109.657364596222,4,1,0,80,0,0
145622,-110.381844620402,4,1,0,80,0,0
145713,-111.111111111111,4,1,0,80,0,0
146076,-111.111111111111,4,1,0,80,0,0
146166,-110.419740414913,4,1,0,80,0,0
146257,-109.73267165967,4,1,0,80,0,0
146348,-109.049878077261,4,1,0,80,0,0
146439,-108.371333066121,4,1,0,80,0,0
146530,-107.697010190212,4,1,0,80,0,0
146621,-107.026883177989,4,1,0,80,0,0
146712,-106.360925921377,4,1,0,80,0,0
146803,-105.699112474754,4,1,0,80,0,0
146894,-105.041417053941,4,1,0,80,0,0
146985,-104.387814035197,4,1,0,80,0,0
147076,-103.738277954219,4,1,0,80,0,0
147167,-103.092783505155,4,1,0,80,0,0
147520,-106.837606837607,4,1,0,80,0,0
147610,-106.172827322031,4,1,0,80,0,0
147701,-105.512184288145,4,1,0,80,0,0
147792,-104.855651997366,4,1,0,80,0,0
147883,-104.20320487127,4,1,0,80,0,0
147974,-103.554817490589,4,1,0,80,0,0
148065,-102.91046459422,4,1,0,80,0,0
148156,-102.270121078247,4,1,0,80,0,0
148247,-101.633761994956,4,1,0,80,0,0
148338,-101.001362551866,4,1,0,80,0,0
148429,-100.372898110766,4,1,0,80,0,0
148520,-99.7483441867493,4,1,0,80,0,0
148611,-99.1276764472641,4,1,0,80,0,0
148964,-102.728468113083,4,1,0,80,0,0
149054,-102.089257040415,4,1,0,80,0,0
149145,-101.454023353985,4,1,0,80,0,0
149236,-100.82274230516,4,1,0,80,0,0
149327,-100.195389299299,4,1,0,80,0,0
149418,-99.571939894797,4,1,0,80,0,0
149509,-98.952369802135,4,1,0,80,0,0
149600,-98.3366548829298,4,1,0,80,0,0
149691,-97.7247711489957,4,1,0,80,0,0
149782,-97.1166947614097,4,1,0,80,0,0
149873,-96.5124020295826,4,1,0,80,0,0
149964,-95.9118694103359,4,1,0,80,0,0
150055,-95.3150735069847,4,1,0,80,0,0
150440,-97.6527757998541,4,1,0,80,0,0
150622,-98.8829782881017,4,1,0,80,0,0
150713,-99.503879042937,4,1,0,80,0,0
150804,-100.128678524874,4,1,0,80,0,0
150985,-101.383097780823,4,1,0,80,0,0
151076,-102.019697153429,4,1,0,80,0,0
151167,-102.660293827066,4,1,0,80,0,0
151349,-103.953579633597,4,1,0,80,0,0
151514,-103.953579633597,4,1,0,100,0,0
151534,-100,4,1,0,100,0,1
161716,-95.2380952380952,4,1,0,100,0,0
161802,-95.87567042762,4,1,0,100,0,0
161893,-96.5175138894288,4,1,0,100,0,0
161984,-97.1636541976392,4,1,0,100,0,0
162075,-97.8141201176589,4,1,0,100,0,0
162166,-98.4689406074671,4,1,0,100,0,0
162257,-99.1281448189033,4,1,0,100,0,0
162348,-99.7917620989648,4,1,0,100,0,0
162438,-100.459821991114,4,1,0,100,0,0
162529,-101.132354236593,4,1,0,100,0,0
162620,-101.809388775747,4,1,0,100,0,0
162711,-102.49095574936,4,1,0,100,0,0
162802,-103.177085499993,4,1,0,100,0,0
162893,-103.867808573337,4,1,0,100,0,0
162984,-104.563155719572,4,1,0,100,0,0
163075,-105.263157894737,4,1,0,100,0,0
163171,-100,4,1,0,100,0,1
173171,-100,4,1,0,100,0,0
173332,-100,4,1,0,80,0,0
173352,-105.263157894737,4,1,0,80,0,0
174079,-95.2380952380952,4,1,0,80,0,0
174807,-102.040816326531,4,1,0,80,0,0
175171,-105.263157894737,4,1,0,80,0,0
176080,-102.040816326531,4,1,0,80,0,0
176444,-105.263157894737,4,1,0,80,0,0
177534,-102.040816326531,4,1,0,80,0,0
177898,-105.263157894737,4,1,0,80,0,0
178989,-102.040816326531,4,1,0,80,0,0
179353,-105.263157894737,4,1,0,80,0,0
180443,-102.040816326531,4,1,0,80,0,0
180807,-105.263157894737,4,1,0,80,0,0
181898,-102.040816326531,4,1,0,80,0,0
182262,-105.263157894737,4,1,0,80,0,0
183352,-102.040816326531,4,1,0,80,0,0
183716,-105.263157894737,4,1,0,80,0,0
184807,-102.040816326531,4,1,0,80,0,0
185171,-105.263157894737,4,1,0,80,0,0
186262,-102.040816326531,4,1,0,80,0,0
186626,-105.263157894737,4,1,0,80,0,0
187716,-102.040816326531,4,1,0,80,0,0
188080,-105.263157894737,4,1,0,80,0,0
189171,-102.040816326531,4,1,0,80,0,0
189535,-105.263157894737,4,1,0,80,0,0
190625,-102.040816326531,4,1,0,80,0,0
190989,-105.263157894737,4,1,0,80,0,0
192080,-102.040816326531,4,1,0,80,0,0
192444,-105.263157894737,4,1,0,80,0,0
193534,-102.040816326531,4,1,0,80,0,0
193898,-105.263157894737,4,1,0,80,0,0
194989,-102.040816326531,4,1,0,80,0,0
195353,-105.263157894737,4,1,0,80,0,0
196443,-102.040816326531,4,1,0,80,0,0
196533,-101.388078041316,4,1,0,80,0,0
196624,-100.739515215338,4,1,0,80,0,0
196715,-100.095101138871,4,1,0,80,0,0
196806,-99.4548092730485,4,1,0,80,0,0
196897,-98.8186132487685,4,1,0,80,0,0
196988,-98.1864868656076,4,1,0,80,0,0
197079,-97.5584040907424,4,1,0,80,0,0
197170,-96.9343390578768,4,1,0,80,0,0
197261,-96.3142660661774,4,1,0,80,0,0
197352,-95.6981595792149,4,1,0,80,0,0
197443,-95.0859942239122,4,1,0,80,0,0
197534,-94.4777447894994,4,1,0,80,0,0
197625,-93.8733862264761,4,1,0,80,0,0
197716,-93.2728936455793,4,1,0,80,0,0
197807,-92.6762423167583,4,1,0,80,0,0
197898,-92.0834076681567,4,1,0,80,0,0
197989,-91.4943652851001,4,1,0,80,0,0
198080,-90.9090909090909,4,1,0,80,0,0
198242,-90.9090909090909,4,1,0,60,0,0
198262,-133.333333333333,4,1,0,60,0,0
203332,-133.333333333333,4,1,0,70,0,0
203898,-117.647058823529,4,1,0,70,0,0
206787,-117.647058823529,4,1,0,80,0,0
206807,-105.263157894737,4,1,0,80,0,0
208262,-100,4,1,0,80,0,0
208352,-100.660676122253,4,1,0,80,0,0
208443,-101.325717173891,4,1,0,80,0,0
208534,-101.995151992961,4,1,0,80,0,0
208625,-102.669009608034,4,1,0,80,0,0
208716,-103.347319239468,4,1,0,80,0,0
208807,-104.030110300672,4,1,0,80,0,0
208898,-104.717412399382,4,1,0,80,0,0
208989,-105.409255338946,4,1,0,80,0,0
209080,-106.105669119615,4,1,0,80,0,0
209169,-106.806683939845,4,1,0,80,0,0
209260,-107.512330197606,4,1,0,80,0,0
209351,-108.2226384917,4,1,0,80,0,0
209442,-108.937639623087,4,1,0,80,0,0
209533,-109.657364596222,4,1,0,80,0,0
209624,-110.381844620402,4,1,0,80,0,0
209715,-111.111111111111,4,1,0,80,0,0
210078,-111.111111111111,4,1,0,80,0,0
210168,-110.419740414913,4,1,0,80,0,0
210259,-109.73267165967,4,1,0,80,0,0
210350,-109.049878077261,4,1,0,80,0,0
210441,-108.371333066121,4,1,0,80,0,0
210532,-107.697010190212,4,1,0,80,0,0
210623,-107.026883177989,4,1,0,80,0,0
210714,-106.360925921377,4,1,0,80,0,0
210805,-105.699112474754,4,1,0,80,0,0
210896,-105.041417053941,4,1,0,80,0,0
210987,-104.387814035197,4,1,0,80,0,0
211078,-103.738277954219,4,1,0,80,0,0
211169,-103.092783505155,4,1,0,80,0,0
211522,-106.837606837607,4,1,0,80,0,0
211612,-106.172827322031,4,1,0,80,0,0
211703,-105.512184288145,4,1,0,80,0,0
211794,-104.855651997366,4,1,0,80,0,0
211885,-104.20320487127,4,1,0,80,0,0
211976,-103.554817490589,4,1,0,80,0,0
212067,-102.91046459422,4,1,0,80,0,0
212158,-102.270121078247,4,1,0,80,0,0
212249,-101.633761994956,4,1,0,80,0,0
212340,-101.001362551866,4,1,0,80,0,0
212431,-100.372898110766,4,1,0,80,0,0
212522,-99.7483441867493,4,1,0,80,0,0
212613,-99.1276764472641,4,1,0,80,0,0
212966,-102.728468113083,4,1,0,80,0,0
213056,-102.089257040415,4,1,0,80,0,0
213147,-101.454023353985,4,1,0,80,0,0
213238,-100.82274230516,4,1,0,80,0,0
213329,-100.195389299299,4,1,0,80,0,0
213420,-99.571939894797,4,1,0,80,0,0
213511,-98.952369802135,4,1,0,80,0,0
213602,-98.3366548829298,4,1,0,80,0,0
213693,-97.7247711489957,4,1,0,80,0,0
213784,-97.1166947614097,4,1,0,80,0,0
213875,-96.5124020295826,4,1,0,80,0,0
213966,-95.9118694103359,4,1,0,80,0,0
214057,-95.3150735069847,4,1,0,80,0,0
214442,-97.6527757998541,4,1,0,80,0,0
214624,-98.8829782881017,4,1,0,80,0,0
214715,-99.503879042937,4,1,0,80,0,0
214806,-100.128678524874,4,1,0,80,0,0
214987,-101.383097780823,4,1,0,80,0,0
215078,-102.019697153429,4,1,0,80,0,0
215169,-102.660293827066,4,1,0,80,0,0
215351,-103.953579633597,4,1,0,80,0,0
215512,-103.953579633597,4,1,0,100,0,0
215534,-100,4,1,0,100,0,1
225716,-95.2380952380952,4,1,0,100,0,0
225805,-95.87567042762,4,1,0,100,0,0
225896,-96.5175138894288,4,1,0,100,0,0
225987,-97.1636541976392,4,1,0,100,0,0
226078,-97.8141201176589,4,1,0,100,0,0
226169,-98.4689406074671,4,1,0,100,0,0
226260,-99.1281448189033,4,1,0,100,0,0
226351,-99.7917620989648,4,1,0,100,0,0
226441,-100.459821991114,4,1,0,100,0,0
226532,-101.132354236593,4,1,0,100,0,0
226623,-101.809388775747,4,1,0,100,0,0
226714,-102.49095574936,4,1,0,100,0,0
226805,-103.177085499993,4,1,0,100,0,0
226896,-103.867808573337,4,1,0,100,0,0
226987,-104.563155719572,4,1,0,100,0,0
227078,-105.263157894737,4,1,0,100,0,0
227171,-100,4,1,0,100,0,1
237352,-95.2380952380952,4,1,0,100,0,0
237441,-95.87567042762,4,1,0,100,0,0
237532,-96.5175138894288,4,1,0,100,0,0
237623,-97.1636541976392,4,1,0,100,0,0
237714,-97.8141201176589,4,1,0,100,0,0
237805,-98.4689406074671,4,1,0,100,0,0
237896,-99.1281448189033,4,1,0,100,0,0
237987,-99.7917620989648,4,1,0,100,0,0
238077,-100.459821991114,4,1,0,100,0,0
238168,-101.132354236593,4,1,0,100,0,0
238259,-101.809388775747,4,1,0,100,0,0
238350,-102.49095574936,4,1,0,100,0,0
238441,-103.177085499993,4,1,0,100,0,0
238532,-103.867808573337,4,1,0,100,0,0
238623,-104.563155719572,4,1,0,100,0,0
238714,-105.263157894737,4,1,0,100,0,0
238807,-100,4,1,0,100,0,1
248989,-95.2380952380952,4,1,0,100,0,0
249078,-95.87567042762,4,1,0,100,0,0
249169,-96.5175138894288,4,1,0,100,0,0
249260,-97.1636541976392,4,1,0,100,0,0
249351,-97.8141201176589,4,1,0,100,0,0
249442,-98.4689406074671,4,1,0,100,0,0
249533,-99.1281448189033,4,1,0,100,0,0
249624,-99.7917620989648,4,1,0,100,0,0
249714,-100.459821991114,4,1,0,100,0,0
249805,-101.132354236593,4,1,0,100,0,0
249896,-101.809388775747,4,1,0,100,0,0
249987,-102.49095574936,4,1,0,100,0,0
250078,-103.177085499993,4,1,0,100,0,0
250169,-103.867808573337,4,1,0,100,0,0
250260,-104.563155719572,4,1,0,100,0,0
250351,-105.263157894737,4,1,0,100,0,0
250443,-100,4,1,0,100,0,1
260443,-100,4,1,0,100,0,0
260605,-100,4,1,0,80,0,0
260625,-105.263157894737,4,1,0,80,0,0
261352,-95.2380952380952,4,1,0,80,0,0
262080,-105.263157894737,4,1,0,80,0,0
285514,-105.263157894737,4,1,0,50,0,0

[HitObjects]
282,301,262,5,0,0:0:0:0:
282,301,625,1,8,0:0:0:0:
282,301,807,1,0,0:0:0:0:
278,304,989,1,0,0:0:0:0:
278,304,1352,1,8,0:0:0:0:
278,304,1534,1,8,0:0:0:0:
276,304,1716,1,0,0:0:0:0:
278,304,2080,1,8,0:0:0:0:
278,304,2262,1,0,0:0:0:0:
276,304,2625,1,0,0:0:0:0:
278,304,2807,1,8,0:0:0:0:
278,304,2989,1,8,0:0:0:0:
264,139,3171,1,0,0:0:0:0:
246,140,3534,1,8,0:0:0:0:
244,138,3716,1,0,0:0:0:0:
244,138,3898,1,0,0:0:0:0:
246,140,4262,1,8,0:0:0:0:
242,136,4443,1,8,0:0:0:0:
244,138,4625,1,0,0:0:0:0:
246,140,4989,1,8,0:0:0:0:
246,140,5171,1,0,0:0:0:0:
236,134,5534,1,0,0:0:0:0:
236,134,5716,1,8,0:0:0:0:
236,134,5898,1,8,0:0:0:0:
282,301,6080,1,0,0:0:0:0:
282,301,6443,1,8,0:0:0:0:
282,301,6625,1,0,0:0:0:0:
278,304,6807,1,0,0:0:0:0:
278,304,7171,1,8,0:0:0:0:
278,304,7352,1,8,0:0:0:0:
276,304,7534,1,0,0:0:0:0:
278,304,7898,1,8,0:0:0:0:
278,304,8080,1,0,0:0:0:0:
276,304,8443,1,0,0:0:0:0:
278,304,8625,1,8,0:0:0:0:
278,304,8807,1,8,0:0:0:0:
264,139,8989,1,0,0:0:0:0:
246,140,9352,1,8,0:0:0:0:
244,138,9534,1,0,0:0:0:0:
244,138,9716,1,0,0:0:0:0:
246,140,10080,1,8,0:0:0:0:
242,136,10262,1,8,0:0:0:0:
244,138,10443,1,0,0:0:0:0:
300,230,11171,1,0,0:0:0:0:
270,160,11352,1,8,0:0:0:0:
353,65,11474,1,8,0:0:0:0:
353,65,11534,1,8,0:0:0:0:
353,70,11655,1,8,0:0:0:0:
353,70,11716,1,8,0:0:0:0:
228,129,11898,1,4,0:0:0:0:
142,181,12262,1,8,0:0:0:0:
236,192,12625,1,0,0:0:0:0:
236,192,12807,1,0,0:0:0:0:
236,192,12989,1,8,0:0:0:0:
242,152,13171,1,0,0:0:0:0:
229,183,13352,1,0,0:0:0:0:
244,146,13534,1,8,0:0:0:0:
233,178,13716,1,8,0:0:0:0:
313,187,13898,1,0,0:0:0:0:
196,200,13989,1,0,0:0:0:0:
239,181,14262,1,0,0:0:0:0:
233,182,14443,1,8,0:0:0:0:
237,181,14625,1,0,0:0:0:0:
208,187,14807,1,0,0:0:0:0:
209,188,15171,1,8,0:0:0:0:
209,145,15352,1,0,0:0:0:0:
209,145,15443,1,0,0:0:0:0:
209,145,15534,1,0,0:0:0:0:
202,147,15716,1,0,0:0:0:0:
202,147,16080,1,0,0:0:0:0:
203,150,16262,1,8,0:0:0:0:
298,138,16443,1,0,0:0:0:0:
298,138,16625,1,8,0:0:0:0:
298,138,16807,1,8,0:0:0:0:
298,138,16898,1,8,0:0:0:0:
293,142,17171,1,0,0:0:0:0:
291,136,17352,1,8,0:0:0:0:
289,134,17534,1,8,0:0:0:0:
228,129,17716,1,4,0:0:0:0:
142,181,18080,1,8,0:0:0:0:
236,192,18443,1,0,0:0:0:0:
236,192,18625,1,0,0:0:0:0:
236,192,18807,1,8,0:0:0:0:
242,152,18989,1,0,0:0:0:0:
229,183,19171,1,0,0:0:0:0:
244,146,19352,1,8,0:0:0:0:
233,178,19534,1,8,0:0:0:0:
313,187,19716,1,0,0:0:0:0:
178,163,19807,1,0,0:0:0:0:
239,181,20080,1,0,0:0:0:0:
233,182,20262,1,8,0:0:0:0:
237,181,20443,1,0,0:0:0:0:
208,187,20625,1,0,0:0:0:0:
209,188,20989,1,8,0:0:0:0:
209,145,21171,1,0,0:0:0:0:
209,145,21262,1,0,0:0:0:0:
209,145,21352,1,0,0:0:0:0:
202,147,21534,1,0,0:0:0:0:
202,147,21898,1,0,0:0:0:0:
203,150,22080,1,8,0:0:0:0:
298,138,22262,1,0,0:0:0:0:
211,185,22352,1,0,0:0:0:0:
298,138,22443,5,8,0:0:0:0:
298,138,22625,1,8,0:0:0:0:
298,138,22716,1,0,0:0:0:0:
302,198,22807,1,8,0:0:0:0:
293,142,22989,1,0,0:0:0:0:
294,185,23080,1,0,0:0:0:0:
294,185,23171,1,0,0:0:0:0:
289,134,23352,1,0,0:0:0:0:
289,132,23534,1,12,0:0:0:0:
197,188,23898,1,8,0:0:0:0:
197,188,24262,1,0,0:0:0:0:
231,199,24443,1,8,0:0:0:0:
231,199,24504,1,8,0:0:0:0:
231,199,24565,1,8,0:0:0:0:
231,199,24625,1,0,0:0:0:0:
242,161,24807,1,8,0:0:0:0:
195,105,24989,1,0,0:0:0:0:
233,181,25171,1,0,0:0:0:0:
229,176,25352,1,8,0:0:0:0:
179,223,25534,1,0,0:0:0:0:
179,223,25625,1,0,0:0:0:0:
178,227,25716,1,8,0:0:0:0:
273,166,25898,1,8,0:0:0:0:
284,214,26080,1,0,0:0:0:0:
284,214,26140,1,8,0:0:0:0:
284,214,26201,1,8,0:0:0:0:
284,214,26262,1,0,0:0:0:0:
200,220,26443,1,8,0:0:0:0:
200,220,26625,1,0,0:0:0:0:
200,220,26807,1,8,0:0:0:0:
238,223,26989,1,0,0:0:0:0:
238,223,27080,1,0,0:0:0:0:
238,223,27171,1,8,0:0:0:0:
215,231,27352,1,8,0:0:0:0:
198,242,27716,1,8,0:0:0:0:
198,241,27898,1,0,0:0:0:0:
188,245,28080,1,0,0:0:0:0:
191,250,28262,1,8,0:0:0:0:
190,246,28443,1,0,0:0:0:0:
190,245,28625,1,8,0:0:0:0:
271,151,28686,1,8,0:0:0:0:
271,151,28746,1,8,0:0:0:0:
271,151,28807,1,0,0:0:0:0:
231,150,28989,1,8,0:0:0:0:
231,150,29171,1,8,0:0:0:0:
237,151,29352,1,4,0:0:0:0:
197,188,29716,1,8,0:0:0:0:
197,188,30080,1,0,0:0:0:0:
231,199,30262,1,8,0:0:0:0:
231,199,30322,1,8,0:0:0:0:
231,199,30383,1,8,0:0:0:0:
231,199,30443,1,0,0:0:0:0:
242,161,30625,1,8,0:0:0:0:
195,105,30807,1,0,0:0:0:0:
233,181,30989,1,0,0:0:0:0:
229,176,31171,1,8,0:0:0:0:
179,223,31352,1,0,0:0:0:0:
179,223,31443,1,0,0:0:0:0:
178,227,31534,1,8,0:0:0:0:
273,166,31716,1,8,0:0:0:0:
284,214,31898,1,0,0:0:0:0:
284,214,31958,1,8,0:0:0:0:
284,214,32019,1,8,0:0:0:0:
284,214,32080,1,0,0:0:0:0:
200,220,32262,1,12,0:0:0:0:
127,174,32625,1,0,0:0:0:0:
238,128,32807,1,12,0:0:0:0:
127,174,33171,1,0,0:0:0:0:
256,131,33352,1,12,0:0:0:0:
278,143,33534,1,0,0:0:0:0:
278,143,33716,1,0,0:0:0:0:
278,143,33898,1,0,0:0:0:0:
278,143,34080,1,0,0:0:0:0:
117,176,34262,1,8,0:0:0:0:
117,176,34352,1,8,0:0:0:0:
149,185,34443,1,0,0:0:0:0:
316,148,34625,1,8,0:0:0:0:
316,148,34686,1,0,0:0:0:0:
316,148,34746,1,0,0:0:0:0:
257,130,34807,1,8,0:0:0:0:
180,85,34898,1,8,0:0:0:0:
281,160,34989,1,0,0:0:0:0:
245,128,35171,1,12,0:0:0:0:
193,280,35534,1,8,0:0:0:0:
193,280,35716,1,8,0:0:0:0:
206,278,35898,1,0,0:0:0:0:
206,278,35989,1,0,0:0:0:0:
206,278,36080,1,0,0:0:0:0:
224,277,36262,1,8,0:0:0:0:
204,266,36443,1,0,0:0:0:0:
198,269,36625,1,8,0:0:0:0:
198,268,36807,1,8,0:0:0:0:
195,265,36989,1,0,0:0:0:0:
198,264,37171,1,8,0:0:0:0:
331,215,37534,1,8,0:0:0:0:
229,269,37716,1,0,0:0:0:0:
331,215,37898,1,8,0:0:0:0:
331,215,37989,1,8,0:0:0:0:
331,215,38080,1,8,0:0:0:0:
331,215,38262,1,0,0:0:0:0:
331,215,38443,1,8,0:0:0:0:
331,215,38625,1,8,0:0:0:0:
331,215,38807,1,0,0:0:0:0:
331,215,38898,1,0,0:0:0:0:
331,215,38989,1,8,0:0:0:0:
331,215,39171,1,0,0:0:0:0:
330,221,39352,1,0,0:0:0:0:
220,203,39534,1,8,0:0:0:0:
220,203,39716,1,0,0:0:0:0:
217,196,39898,1,8,0:0:0:0:
218,196,40080,1,8,0:0:0:0:
212,188,40443,1,8,0:0:0:0:
211,188,40625,1,0,0:0:0:0:
220,203,40807,1,8,0:0:0:0:
296,192,40898,1,8,0:0:0:0:
296,192,40989,1,0,0:0:0:0:
284,203,41352,1,8,0:0:0:0:
220,205,41534,1,0,0:0:0:0:
209,227,41716,1,8,0:0:0:0:
209,227,41807,1,8,0:0:0:0:
209,227,41898,1,8,0:0:0:0:
209,227,42080,1,0,0:0:0:0:
209,227,42262,1,8,0:0:0:0:
202,225,42443,1,0,0:0:0:0:
202,228,42625,1,0,0:0:0:0:
203,235,42807,1,8,0:0:0:0:
202,233,42989,1,8,0:0:0:0:
214,251,43352,1,0,0:0:0:0:
214,250,43534,1,0,0:0:0:0:
180,178,43716,1,8,0:0:0:0:
180,178,43807,1,8,0:0:0:0:
180,178,43898,1,0,0:0:0:0:
208,245,44262,1,8,0:0:0:0:
200,217,44443,1,8,0:0:0:0:
180,178,44625,1,0,0:0:0:0:
180,178,44716,1,0,0:0:0:0:
180,178,44807,1,0,0:0:0:0:
200,226,44989,1,8,0:0:0:0:
198,231,45171,1,0,0:0:0:0:
195,227,45352,1,12,0:0:0:0:
185,230,45534,1,0,0:0:0:0:
185,230,45716,1,8,0:0:0:0:
183,235,45898,1,0,0:0:0:0:
183,235,45989,1,0,0:0:0:0:
183,235,46080,1,0,0:0:0:0:
367,259,46262,1,8,0:0:0:0:
367,259,46352,1,8,0:0:0:0:
362,254,46443,1,8,0:0:0:0:
362,254,46534,1,8,0:0:0:0:
330,223,46625,1,0,0:0:0:0:
330,223,46716,1,0,0:0:0:0:
303,221,46807,1,12,0:0:0:0:
193,280,47171,1,0,0:0:0:0:
193,280,47352,1,0,0:0:0:0:
206,278,47534,1,8,0:0:0:0:
206,278,47625,1,8,0:0:0:0:
206,278,47716,1,0,0:0:0:0:
224,277,47898,1,8,0:0:0:0:
204,266,48080,1,8,0:0:0:0:
198,269,48262,1,0,0:0:0:0:
198,268,48443,1,8,0:0:0:0:
195,265,48625,1,0,0:0:0:0:
198,264,48807,1,8,0:0:0:0:
331,215,49171,1,0,0:0:0:0:
229,269,49352,1,8,0:0:0:0:
331,215,49534,1,8,0:0:0:0:
331,215,49625,1,8,0:0:0:0:
331,215,49716,1,0,0:0:0:0:
331,215,49898,1,8,0:0:0:0:
331,215,50080,1,0,0:0:0:0:
331,215,50262,1,0,0:0:0:0:
331,215,50443,1,8,0:0:0:0:
331,215,50534,1,8,0:0:0:0:
331,215,50625,1,0,0:0:0:0:
331,215,50807,1,8,0:0:0:0:
330,221,50989,1,0,0:0:0:0:
220,203,51171,1,8,0:0:0:0:
220,203,51352,1,0,0:0:0:0:
217,196,51534,1,8,0:0:0:0:
218,196,51716,1,8,0:0:0:0:
212,188,52080,1,0,0:0:0:0:
211,188,52262,1,8,0:0:0:0:
220,203,52443,1,0,0:0:0:0:
296,192,52534,1,0,0:0:0:0:
296,192,52625,1,8,0:0:0:0:
284,203,52989,1,0,0:0:0:0:
220,205,53171,1,8,0:0:0:0:
209,227,53352,1,0,0:0:0:0:
209,227,53443,1,0,0:0:0:0:
209,227,53534,1,0,0:0:0:0:
209,227,53716,1,8,0:0:0:0:
209,227,53898,1,0,0:0:0:0:
202,225,54080,1,0,0:0:0:0:
202,228,54262,1,8,0:0:0:0:
203,235,54443,1,8,0:0:0:0:
202,233,54625,1,0,0:0:0:0:
214,251,54807,1,8,0:0:0:0:
214,250,55171,1,0,0:0:0:0:
180,178,55352,1,8,0:0:0:0:
180,178,55443,1,8,0:0:0:0:
180,178,55534,1,0,0:0:0:0:
283,158,55716,1,8,0:0:0:0:
200,217,56080,1,0,0:0:0:0:
180,178,56262,1,8,0:0:0:0:
180,178,56352,1,8,0:0:0:0:
180,178,56443,1,8,0:0:0:0:
200,226,56625,1,0,0:0:0:0:
198,231,56807,1,0,0:0:0:0:
195,227,56989,1,12,0:0:0:0:
185,230,57171,1,0,0:0:0:0:
185,230,57352,1,0,0:0:0:0:
183,235,57534,1,8,0:0:0:0:
183,235,57625,1,8,0:0:0:0:
183,235,57716,1,0,0:0:0:0:
367,259,57898,1,8,0:0:0:0:
271,205,57989,1,0,0:0:0:0:
304,179,58080,1,8,0:0:0:0:
291,288,58443,1,12,0:0:0:0:
193,280,58807,1,8,0:0:0:0:
193,280,58989,1,8,0:0:0:0:
206,278,59171,1,0,0:0:0:0:
206,278,59262,1,0,0:0:0:0:
206,278,59352,1,0,0:0:0:0:
224,277,59534,1,8,0:0:0:0:
204,266,59716,1,0,0:0:0:0:
198,269,59898,1,8,0:0:0:0:
288,229,60080,1,0,0:0:0:0:
264,194,60262,1,0,0:0:0:0:
264,194,60443,1,8,0:0:0:0:
264,194,60807,1,0,0:0:0:0:
271,196,60989,1,8,0:0:0:0:
298,174,61171,1,0,0:0:0:0:
281,152,61262,1,0,0:0:0:0:
281,152,61352,1,0,0:0:0:0:
277,144,61534,1,8,0:0:0:0:
271,153,61898,1,0,0:0:0:0:
273,148,62080,1,8,0:0:0:0:
271,153,62171,1,8,0:0:0:0:
269,153,62262,1,8,0:0:0:0:
256,158,62443,1,0,0:0:0:0:
215,149,62625,1,8,0:0:0:0:
215,149,62807,1,0,0:0:0:0:
224,145,62989,1,8,0:0:0:0:
224,145,63171,1,8,0:0:0:0:
302,169,63352,1,0,0:0:0:0:
302,169,63716,1,8,0:0:0:0:
302,163,63898,1,0,0:0:0:0:
302,160,64080,1,0,0:0:0:0:
284,151,64171,1,0,0:0:0:0:
284,151,64262,1,8,0:0:0:0:
274,137,64443,1,0,0:0:0:0:
276,139,64625,1,8,0:0:0:0:
278,136,64807,1,8,0:0:0:0:
278,138,64989,1,0,0:0:0:0:
269,143,65080,1,0,0:0:0:0:
277,139,65171,1,0,0:0:0:0:
268,145,65352,1,8,0:0:0:0:
271,145,65534,1,0,0:0:0:0:
275,146,65716,1,12,0:0:0:0:
273,154,65898,1,0,0:0:0:0:
275,154,66080,1,0,0:0:0:0:
276,153,66262,1,8,0:0:0:0:
271,145,66443,1,0,0:0:0:0:
286,140,66625,1,8,0:0:0:0:
286,140,66716,1,8,0:0:0:0:
286,140,66807,1,0,0:0:0:0:
285,140,66989,1,8,0:0:0:0:
285,140,67080,1,8,0:0:0:0:
285,140,67171,1,4,0:0:0:0:
227,177,67534,1,8,0:0:0:0:
227,177,67716,1,0,0:0:0:0:
227,177,67898,1,8,0:0:0:0:
215,174,67989,1,8,0:0:0:0:
227,177,68080,1,8,0:0:0:0:
214,174,68262,1,0,0:0:0:0:
216,174,68443,1,8,0:0:0:0:
183,187,68625,1,4,0:0:0:0:
196,190,68807,1,8,0:0:0:0:
196,190,68989,1,8,0:0:0:0:
123,186,69171,1,0,0:0:0:0:
123,186,69262,1,0,0:0:0:0:
120,192,69352,1,0,0:0:0:0:
318,210,69534,1,8,0:0:0:0:
318,210,69625,1,8,0:0:0:0:
318,210,69716,1,8,0:0:0:0:
238,148,69898,1,0,0:0:0:0:
223,143,69989,1,0,0:0:0:0:
198,169,70080,1,12,0:0:0:0:
222,128,70443,1,0,0:0:0:0:
235,131,70625,1,8,0:0:0:0:
235,131,70807,1,0,0:0:0:0:
236,132,70898,1,0,0:0:0:0:
239,132,70989,1,0,0:0:0:0:
252,143,71171,1,8,0:0:0:0:
252,143,71352,1,0,0:0:0:0:
232,149,71534,5,0,0:0:0:0:
220,147,71898,1,8,0:0:0:0:
220,148,72080,1,0,0:0:0:0:
204,146,72262,1,0,0:0:0:0:
193,146,72352,1,0,0:0:0:0:
204,146,72443,1,0,0:0:0:0:
224,275,72625,5,8,0:0:0:0:
224,275,72807,1,8,0:0:0:0:
189,145,72898,1,8,0:0:0:0:
224,275,72989,1,0,0:0:0:0:
182,147,73352,1,8,0:0:0:0:
182,149,73534,1,0,0:0:0:0:
213,152,73716,1,8,0:0:0:0:
213,152,73898,1,0,0:0:0:0:
248,179,74080,1,8,0:0:0:0:
248,179,74171,1,8,0:0:0:0:
233,165,74262,1,0,0:0:0:0:
242,175,74352,1,0,0:0:0:0:
233,165,74443,1,12,0:0:0:0:
222,156,74807,1,8,0:0:0:0:
222,156,74989,1,8,0:0:0:0:
222,156,75080,1,8,0:0:0:0:
220,155,75171,1,8,0:0:0:0:
171,168,75352,1,0,0:0:0:0:
171,168,75443,1,0,0:0:0:0:
282,122,75534,1,8,0:0:0:0:
282,122,75716,1,0,0:0:0:0:
208,280,75898,1,12,0:0:0:0:
220,282,76080,1,0,0:0:0:0:
208,280,76171,1,0,0:0:0:0:
208,280,76262,1,8,0:0:0:0:
184,220,76443,1,8,0:0:0:0:
216,224,76625,1,0,0:0:0:0:
216,224,76716,1,0,0:0:0:0:
216,224,76807,1,0,0:0:0:0:
209,234,76989,1,8,0:0:0:0:
204,235,77171,1,0,0:0:0:0:
204,231,77262,1,0,0:0:0:0:
204,231,77352,1,8,0:0:0:0:
203,231,77534,1,0,0:0:0:0:
199,226,77716,1,8,0:0:0:0:
205,154,77898,1,0,0:0:0:0:
205,154,77989,1,8,0:0:0:0:
205,154,78080,1,8,0:0:0:0:
205,154,78171,1,8,0:0:0:0:
205,154,78262,1,0,0:0:0:0:
200,150,78443,1,8,0:0:0:0:
255,245,78625,1,0,0:0:0:0:
255,245,78716,1,0,0:0:0:0:
172,176,78807,1,0,0:0:0:0:
173,207,78989,1,8,0:0:0:0:
173,207,79171,1,0,0:0:0:0:
173,196,79352,1,8,0:0:0:0:
173,207,79534,1,0,0:0:0:0:
173,207,79625,1,0,0:0:0:0:
173,207,79716,1,0,0:0:0:0:
173,207,79898,1,8,0:0:0:0:
187,239,80080,1,0,0:0:0:0:
187,239,80171,1,0,0:0:0:0:
187,239,80262,1,8,0:0:0:0:
187,239,80443,1,0,0:0:0:0:
181,234,80625,1,8,0:0:0:0:
202,173,80807,1,0,0:0:0:0:
151,165,80989,1,8,0:0:0:0:
151,165,81080,1,8,0:0:0:0:
240,143,81171,1,0,0:0:0:0:
289,147,81262,1,0,0:0:0:0:
142,173,81352,1,8,0:0:0:0:
142,179,81534,1,0,0:0:0:0:
257,199,81625,1,0,0:0:0:0:
197,180,81716,1,12,0:0:0:0:
275,168,81898,1,0,0:0:0:0:
170,192,81989,1,0,0:0:0:0:
207,161,82080,1,0,0:0:0:0:
162,177,82262,1,8,0:0:0:0:
196,168,82443,1,0,0:0:0:0:
196,168,82534,1,0,0:0:0:0:
264,173,82625,1,8,0:0:0:0:
190,163,82807,1,0,0:0:0:0:
190,162,82989,1,0,0:0:0:0:
222,165,83171,1,8,0:0:0:0:
222,159,83262,1,8,0:0:0:0:
221,159,83352,1,0,0:0:0:0:
210,149,83534,1,8,0:0:0:0:
210,181,83716,1,0,0:0:0:0:
198,176,83807,1,8,0:0:0:0:
198,176,83898,1,0,0:0:0:0:
196,176,83989,1,0,0:0:0:0:
196,176,84080,1,8,0:0:0:0:
201,184,84262,1,0,0:0:0:0:
203,189,84443,1,0,0:0:0:0:
236,196,84534,1,8,0:0:0:0:
236,196,84625,1,0,0:0:0:0:
174,172,84807,1,8,0:0:0:0:
121,144,84898,1,8,0:0:0:0:
173,172,84989,1,8,0:0:0:0:
230,224,85171,1,0,0:0:0:0:
184,221,85352,1,8,0:0:0:0:
182,216,85443,1,8,0:0:0:0:
182,216,85534,1,0,0:0:0:0:
184,203,85716,1,8,0:0:0:0:
180,210,85898,1,0,0:0:0:0:
178,208,86080,1,12,0:0:0:0:
178,207,86262,1,0,0:0:0:0:
178,207,86443,1,8,0:0:0:0:
178,205,86625,1,0,0:0:0:0:
179,205,86716,1,0,0:0:0:0:
180,210,86807,1,0,0:0:0:0:
160,219,86989,1,8,0:0:0:0:
356,164,87080,1,8,0:0:0:0:
162,216,87171,1,8,0:0:0:0:
168,211,87352,1,0,0:0:0:0:
168,210,87443,1,0,0:0:0:0:
208,280,87534,1,12,0:0:0:0:
220,282,87716,1,0,0:0:0:0:
208,280,87807,1,8,0:0:0:0:
208,280,87898,1,0,0:0:0:0:
184,220,88080,1,0,0:0:0:0:
216,224,88262,1,8,0:0:0:0:
216,224,88352,1,8,0:0:0:0:
216,224,88443,1,0,0:0:0:0:
209,234,88625,1,8,0:0:0:0:
204,235,88807,1,0,0:0:0:0:
204,231,88898,1,0,0:0:0:0:
204,231,88989,1,8,0:0:0:0:
203,231,89171,1,0,0:0:0:0:
199,226,89352,1,0,0:0:0:0:
205,154,89534,1,8,0:0:0:0:
205,154,89625,1,0,0:0:0:0:
205,154,89716,1,8,0:0:0:0:
205,154,89807,1,8,0:0:0:0:
205,154,89898,1,0,0:0:0:0:
200,150,90080,1,8,0:0:0:0:
182,163,90262,1,0,0:0:0:0:
164,161,90352,1,0,0:0:0:0:
172,176,90443,1,0,0:0:0:0:
173,207,90625,1,8,0:0:0:0:
173,207,90807,1,0,0:0:0:0:
173,196,90989,1,8,0:0:0:0:
173,207,91171,1,0,0:0:0:0:
173,207,91262,1,0,0:0:0:0:
173,207,91352,1,8,0:0:0:0:
173,207,91534,1,0,0:0:0:0:
187,239,91716,1,0,0:0:0:0:
187,239,91898,1,8,0:0:0:0:
187,239,91989,1,8,0:0:0:0:
187,239,92080,1,8,0:0:0:0:
181,234,92262,1,0,0:0:0:0:
202,173,92443,1,8,0:0:0:0:
151,165,92625,1,0,0:0:0:0:
151,165,92716,1,0,0:0:0:0:
142,173,92807,1,8,0:0:0:0:
267,152,92989,1,0,0:0:0:0:
142,179,93171,1,0,0:0:0:0:
211,214,93262,1,0,0:0:0:0:
197,180,93352,1,12,0:0:0:0:
275,168,93534,1,0,0:0:0:0:
170,192,93625,1,0,0:0:0:0:
207,161,93716,1,0,0:0:0:0:
151,154,93898,1,8,0:0:0:0:
196,168,94080,1,0,0:0:0:0:
196,168,94171,1,8,0:0:0:0:
264,173,94262,1,0,0:0:0:0:
190,163,94443,1,0,0:0:0:0:
190,162,94625,1,8,0:0:0:0:
222,165,94807,1,0,0:0:0:0:
222,159,94898,1,0,0:0:0:0:
221,159,94989,1,0,0:0:0:0:
210,149,95171,1,8,0:0:0:0:
210,181,95352,1,0,0:0:0:0:
198,176,95443,1,8,0:0:0:0:
198,176,95534,1,0,0:0:0:0:
196,176,95625,1,0,0:0:0:0:
196,176,95716,1,8,0:0:0:0:
201,184,95898,1,0,0:0:0:0:
203,189,96080,1,8,0:0:0:0:
223,203,96171,1,8,0:0:0:0:
202,187,96262,1,8,0:0:0:0:
254,203,96443,1,0,0:0:0:0:
241,213,96625,1,8,0:0:0:0:
230,224,96807,1,0,0:0:0:0:
302,166,96898,1,8,0:0:0:0:
302,166,96989,1,0,0:0:0:0:
258,84,97171,1,0,0:0:0:0:
281,144,97262,1,8,0:0:0:0:
281,144,97352,1,0,0:0:0:0:
281,144,97443,1,0,0:0:0:0:
281,144,97534,1,12,0:0:0:0:
291,169,98443,1,0,0:0:0:0:
291,169,98625,1,8,0:0:0:0:
291,169,98716,1,8,0:0:0:0:
294,173,98807,1,8,0:0:0:0:
185,201,99171,1,12,0:0:0:0:
206,205,99534,1,8,0:0:0:0:
153,176,99716,1,0,0:0:0:0:
153,176,99807,1,8,0:0:0:0:
153,176,99898,1,0,0:0:0:0:
153,176,99989,1,8,0:0:0:0:
153,176,100080,1,0,0:0:0:0:
268,176,100262,1,8,0:0:0:0:
180,223,100443,1,0,0:0:0:0:
180,232,100625,1,0,0:0:0:0:
268,176,100989,1,8,0:0:0:0:
104,170,101171,1,0,0:0:0:0:
104,170,101262,1,0,0:0:0:0:
104,170,101352,1,8,0:0:0:0:
104,170,101443,1,8,0:0:0:0:
104,170,101534,1,0,0:0:0:0:
268,176,101716,1,8,0:0:0:0:
213,222,101898,1,0,0:0:0:0:
249,241,101989,1,8,0:0:0:0:
222,223,102080,1,0,0:0:0:0:
268,176,102443,1,8,0:0:0:0:
153,176,102625,1,0,0:0:0:0:
153,176,102716,1,8,0:0:0:0:
153,176,102807,1,0,0:0:0:0:
153,176,102898,1,8,0:0:0:0:
153,176,102989,1,0,0:0:0:0:
268,176,103171,1,8,0:0:0:0:
180,223,103352,1,0,0:0:0:0:
180,232,103534,1,0,0:0:0:0:
268,176,103898,1,8,0:0:0:0:
243,158,104080,1,0,0:0:0:0:
243,158,104171,1,0,0:0:0:0:
243,158,104262,1,8,0:0:0:0:
243,158,104352,1,8,0:0:0:0:
235,155,104443,1,0,0:0:0:0:
268,176,104625,1,8,0:0:0:0:
152,163,104807,1,0,0:0:0:0:
152,163,104989,1,12,0:0:0:0:
206,205,105352,1,8,0:0:0:0:
153,176,105534,1,0,0:0:0:0:
153,176,105625,1,8,0:0:0:0:
153,176,105716,1,0,0:0:0:0:
153,176,105807,1,8,0:0:0:0:
153,176,105898,1,0,0:0:0:0:
268,176,106080,1,8,0:0:0:0:
180,223,106262,1,0,0:0:0:0:
180,232,106443,1,0,0:0:0:0:
268,176,106807,1,8,0:0:0:0:
104,170,106989,1,0,0:0:0:0:
104,170,107080,1,0,0:0:0:0:
104,170,107171,1,8,0:0:0:0:
104,170,107262,1,8,0:0:0:0:
104,170,107352,1,0,0:0:0:0:
268,176,107534,1,8,0:0:0:0:
213,222,107716,1,0,0:0:0:0:
249,241,107807,1,8,0:0:0:0:
222,223,107898,1,0,0:0:0:0:
268,176,108262,1,8,0:0:0:0:
153,176,108443,1,0,0:0:0:0:
153,176,108534,1,8,0:0:0:0:
153,176,108625,1,0,0:0:0:0:
153,176,108716,1,8,0:0:0:0:
153,176,108807,1,0,0:0:0:0:
268,176,108989,1,8,0:0:0:0:
180,223,109171,1,0,0:0:0:0:
180,232,109352,1,12,0:0:0:0:
193,122,109534,1,0,0:0:0:0:
225,145,109716,1,8,0:0:0:0:
240,141,109898,1,0,0:0:0:0:
240,141,110080,1,0,0:0:0:0:
240,141,110262,1,8,0:0:0:0:
240,141,110352,1,8,0:0:0:0:
240,141,110443,1,8,0:0:0:0:
238,141,110625,1,0,0:0:0:0:
240,141,110807,1,12,0:0:0:0:
193,280,111171,1,0,0:0:0:0:
193,280,111352,1,8,0:0:0:0:
206,278,111534,1,0,0:0:0:0:
206,278,111625,1,0,0:0:0:0:
206,278,111716,1,0,0:0:0:0:
224,277,111898,1,8,0:0:0:0:
204,266,112080,1,0,0:0:0:0:
198,269,112262,1,8,0:0:0:0:
198,268,112443,1,0,0:0:0:0:
195,265,112625,1,0,0:0:0:0:
198,264,112807,1,8,0:0:0:0:
331,215,113171,1,0,0:0:0:0:
229,269,113352,1,8,0:0:0:0:
331,215,113534,1,0,0:0:0:0:
331,215,113625,1,0,0:0:0:0:
331,215,113716,1,8,0:0:0:0:
331,215,113898,1,0,0:0:0:0:
331,215,114080,1,8,0:0:0:0:
331,215,114443,1,0,0:0:0:0:
331,215,114534,1,0,0:0:0:0:
331,215,114625,1,0,0:0:0:0:
331,215,114807,1,8,0:0:0:0:
330,221,114989,1,0,0:0:0:0:
220,203,115171,1,8,0:0:0:0:
220,203,115352,1,8,0:0:0:0:
217,196,115534,1,0,0:0:0:0:
218,196,115716,1,8,0:0:0:0:
212,188,116080,1,8,0:0:0:0:
211,188,116262,1,8,0:0:0:0:
220,203,116443,1,0,0:0:0:0:
296,192,116534,1,0,0:0:0:0:
296,192,116625,1,8,0:0:0:0:
284,203,116989,1,0,0:0:0:0:
220,205,117171,1,8,0:0:0:0:
209,227,117352,1,0,0:0:0:0:
209,227,117443,1,0,0:0:0:0:
209,227,117534,1,0,0:0:0:0:
209,227,117716,1,8,0:0:0:0:
209,227,117898,1,0,0:0:0:0:
202,225,118080,1,8,0:0:0:0:
202,228,118262,1,0,0:0:0:0:
203,235,118443,1,0,0:0:0:0:
202,233,118625,1,8,0:0:0:0:
214,251,118989,1,8,0:0:0:0:
214,250,119171,1,0,0:0:0:0:
180,178,119352,1,8,0:0:0:0:
180,178,119443,1,8,0:0:0:0:
180,178,119534,1,0,0:0:0:0:
208,245,119898,1,8,0:0:0:0:
200,217,120080,1,0,0:0:0:0:
180,178,120262,1,8,0:0:0:0:
180,178,120352,1,8,0:0:0:0:
180,178,120443,1,8,0:0:0:0:
200,226,120625,1,0,0:0:0:0:
198,231,120807,1,0,0:0:0:0:
195,227,120989,1,12,0:0:0:0:
185,230,121171,1,0,0:0:0:0:
185,230,121352,1,0,0:0:0:0:
183,235,121534,1,8,0:0:0:0:
183,235,121625,1,8,0:0:0:0:
183,235,121716,1,0,0:0:0:0:
367,259,121898,1,8,0:0:0:0:
367,259,121989,1,8,0:0:0:0:
362,254,122080,1,0,0:0:0:0:
362,254,122171,1,0,0:0:0:0:
330,223,122262,1,0,0:0:0:0:
330,223,122352,1,0,0:0:0:0:
303,221,122443,1,12,0:0:0:0:
193,280,122807,1,0,0:0:0:0:
193,280,122989,1,8,0:0:0:0:
206,278,123171,1,0,0:0:0:0:
206,278,123262,1,0,0:0:0:0:
206,278,123352,1,0,0:0:0:0:
224,277,123534,1,8,0:0:0:0:
204,266,123716,1,0,0:0:0:0:
198,269,123898,1,8,0:0:0:0:
198,268,124080,1,0,0:0:0:0:
195,265,124262,1,0,0:0:0:0:
198,264,124443,1,8,0:0:0:0:
331,215,124807,1,0,0:0:0:0:
229,269,124989,1,8,0:0:0:0:
331,215,125171,1,0,0:0:0:0:
331,215,125262,1,0,0:0:0:0:
331,215,125352,1,8,0:0:0:0:
331,215,125534,1,0,0:0:0:0:
331,215,125716,1,8,0:0:0:0:
331,215,125898,1,8,0:0:0:0:
331,215,126080,1,0,0:0:0:0:
331,215,126171,1,0,0:0:0:0:
331,215,126262,1,0,0:0:0:0:
331,215,126443,1,8,0:0:0:0:
330,221,126625,1,0,0:0:0:0:
220,203,126807,1,8,0:0:0:0:
220,203,126989,1,0,0:0:0:0:
217,196,127171,1,8,0:0:0:0:
218,196,127352,1,8,0:0:0:0:
212,188,127716,1,0,0:0:0:0:
211,188,127898,1,8,0:0:0:0:
220,203,128080,1,0,0:0:0:0:
296,192,128171,1,0,0:0:0:0:
296,192,128262,1,8,0:0:0:0:
284,203,128625,1,8,0:0:0:0:
220,205,128807,1,0,0:0:0:0:
209,227,128989,1,8,0:0:0:0:
209,227,129080,1,8,0:0:0:0:
209,227,129171,1,0,0:0:0:0:
209,227,129352,1,8,0:0:0:0:
209,227,129534,1,0,0:0:0:0:
202,225,129716,1,8,0:0:0:0:
202,228,129898,1,0,0:0:0:0:
203,235,130080,1,0,0:0:0:0:
202,233,130262,1,8,0:0:0:0:
214,251,130625,1,8,0:0:0:0:
214,250,130807,1,0,0:0:0:0:
180,178,130989,1,8,0:0:0:0:
180,178,131080,1,8,0:0:0:0:
180,178,131171,1,0,0:0:0:0:
283,158,131352,1,0,0:0:0:0:
200,217,131716,1,0,0:0:0:0:
180,178,131898,1,8,0:0:0:0:
180,178,131989,1,8,0:0:0:0:
180,178,132080,1,0,0:0:0:0:
200,226,132262,1,8,0:0:0:0:
198,231,132443,1,0,0:0:0:0:
195,227,132625,1,12,0:0:0:0:
185,230,132807,1,0,0:0:0:0:
185,230,132989,1,8,0:0:0:0:
183,235,133171,1,0,0:0:0:0:
183,235,133262,1,0,0:0:0:0:
183,235,133352,1,0,0:0:0:0:
367,259,133534,1,8,0:0:0:0:
271,205,133625,1,0,0:0:0:0:
304,179,133716,1,8,0:0:0:0:
291,288,134080,1,12,0:0:0:0:
193,280,134443,1,0,0:0:0:0:
193,280,134625,1,8,0:0:0:0:
206,278,134807,1,0,0:0:0:0:
206,278,134898,1,0,0:0:0:0:
206,278,134989,1,0,0:0:0:0:
224,277,135171,1,8,0:0:0:0:
204,266,135352,1,0,0:0:0:0:
198,269,135534,1,8,0:0:0:0:
288,229,135716,1,8,0:0:0:0:
264,194,135898,1,0,0:0:0:0:
264,194,136080,1,8,0:0:0:0:
264,194,136443,1,8,0:0:0:0:
271,196,136625,1,8,0:0:0:0:
298,174,136807,1,0,0:0:0:0:
281,152,136898,1,0,0:0:0:0:
281,152,136989,1,0,0:0:0:0:
277,144,137171,1,8,0:0:0:0:
198,205,137352,1,0,0:0:0:0:
271,153,137534,1,8,0:0:0:0:
273,148,137716,1,0,0:0:0:0:
271,153,137807,1,0,0:0:0:0:
269,153,137898,1,0,0:0:0:0:
256,158,138080,1,8,0:0:0:0:
215,149,138262,1,8,0:0:0:0:
215,149,138443,1,0,0:0:0:0:
224,145,138625,1,8,0:0:0:0:
224,145,138807,1,0,0:0:0:0:
302,169,138989,1,8,0:0:0:0:
302,169,139352,1,0,0:0:0:0:
302,163,139534,1,8,0:0:0:0:
302,160,139716,1,0,0:0:0:0:
284,151,139807,1,0,0:0:0:0:
284,151,139898,1,8,0:0:0:0:
274,137,140080,1,0,0:0:0:0:
276,139,140262,1,8,0:0:0:0:
278,136,140443,1,0,0:0:0:0:
278,138,140625,1,8,0:0:0:0:
269,143,140716,1,8,0:0:0:0:
277,139,140807,1,8,0:0:0:0:
268,145,140989,1,0,0:0:0:0:
271,145,141171,1,0,0:0:0:0:
275,146,141352,1,12,0:0:0:0:
273,154,141534,1,0,0:0:0:0:
275,154,141716,1,8,0:0:0:0:
276,153,141898,1,8,0:0:0:0:
271,145,142080,1,0,0:0:0:0:
286,140,142262,1,8,0:0:0:0:
286,140,142352,1,8,0:0:0:0:
286,140,142443,1,0,0:0:0:0:
285,140,142625,1,8,0:0:0:0:
285,140,142716,1,8,0:0:0:0:
285,140,142807,1,4,0:0:0:0:
227,177,143171,1,8,0:0:0:0:
227,177,143352,1,0,0:0:0:0:
227,177,143534,1,8,0:0:0:0:
215,174,143625,1,8,0:0:0:0:
227,177,143716,1,8,0:0:0:0:
214,174,143898,1,0,0:0:0:0:
216,174,144080,1,8,0:0:0:0:
183,187,144262,1,4,0:0:0:0:
196,190,144443,1,8,0:0:0:0:
196,190,144625,1,0,0:0:0:0:
123,186,144807,1,8,0:0:0:0:
123,186,144898,1,8,0:0:0:0:
120,192,144989,1,0,0:0:0:0:
318,210,145171,1,8,0:0:0:0:
318,210,145262,1,8,0:0:0:0:
318,210,145352,1,8,0:0:0:0:
238,148,145534,1,0,0:0:0:0:
223,143,145625,1,0,0:0:0:0:
198,169,145716,1,12,0:0:0:0:
222,128,146080,1,0,0:0:0:0:
235,131,146262,1,8,0:0:0:0:
235,131,146443,1,0,0:0:0:0:
236,132,146534,1,0,0:0:0:0:
239,132,146625,1,0,0:0:0:0:
252,143,146807,1,8,0:0:0:0:
252,143,146989,1,8,0:0:0:0:
232,149,147171,5,0,0:0:0:0:
220,147,147534,1,8,0:0:0:0:
220,148,147716,1,8,0:0:0:0:
204,146,147898,1,0,0:0:0:0:
193,146,147989,1,0,0:0:0:0:
204,146,148080,1,8,0:0:0:0:
224,275,148262,5,0,0:0:0:0:
224,275,148443,1,8,0:0:0:0:
189,145,148534,1,8,0:0:0:0:
224,275,148625,1,0,0:0:0:0:
182,147,148989,1,8,0:0:0:0:
182,149,149171,1,0,0:0:0:0:
213,152,149352,1,8,0:0:0:0:
213,152,149534,1,8,0:0:0:0:
248,179,149716,1,0,0:0:0:0:
248,179,149807,1,0,0:0:0:0:
233,165,149898,1,0,0:0:0:0:
242,175,149989,1,0,0:0:0:0:
233,165,150080,1,12,0:0:0:0:
222,156,150443,1,8,0:0:0:0:
222,156,150625,1,0,0:0:0:0:
222,156,150716,1,8,0:0:0:0:
220,155,150807,1,0,0:0:0:0:
171,168,150989,1,0,0:0:0:0:
171,168,151080,1,0,0:0:0:0:
282,122,151171,1,8,0:0:0:0:
282,122,151352,1,0,0:0:0:0:
208,280,151534,1,12,0:0:0:0:
220,282,151716,1,0,0:0:0:0:
208,280,151807,1,0,0:0:0:0:
208,280,151898,1,8,0:0:0:0:
184,220,152080,1,0,0:0:0:0:
216,224,152262,1,8,0:0:0:0:
216,224,152352,1,8,0:0:0:0:
216,224,152443,1,0,0:0:0:0:
209,234,152625,1,8,0:0:0:0:
204,235,152807,1,0,0:0:0:0:
204,231,152898,1,0,0:0:0:0:
204,231,152989,1,0,0:0:0:0:
203,231,153171,1,8,0:0:0:0:
199,226,153352,1,0,0:0:0:0:
205,154,153534,1,8,0:0:0:0:
205,154,153625,1,0,0:0:0:0:
205,154,153716,1,8,0:0:0:0:
205,154,153807,1,8,0:0:0:0:
205,154,153898,1,0,0:0:0:0:
200,150,154080,1,8,0:0:0:0:
255,245,154262,1,0,0:0:0:0:
255,245,154352,1,8,0:0:0:0:
172,176,154443,1,0,0:0:0:0:
173,207,154625,1,8,0:0:0:0:
173,207,154807,1,8,0:0:0:0:
173,196,154989,1,0,0:0:0:0:
173,207,155171,1,8,0:0:0:0:
173,207,155262,1,8,0:0:0:0:
173,207,155352,1,8,0:0:0:0:
173,207,155534,1,0,0:0:0:0:
187,239,155716,1,8,0:0:0:0:
187,239,155807,1,8,0:0:0:0:
187,239,155898,1,0,0:0:0:0:
187,239,156080,1,8,0:0:0:0:
181,234,156262,1,8,0:0:0:0:
202,173,156443,1,0,0:0:0:0:
151,165,156625,1,8,0:0:0:0:
151,165,156716,1,8,0:0:0:0:
240,143,156807,1,0,0:0:0:0:
289,147,156898,1,0,0:0:0:0:
142,173,156989,1,8,0:0:0:0:
142,179,157171,1,0,0:0:0:0:
257,199,157262,1,0,0:0:0:0:
197,180,157352,1,12,0:0:0:0:
275,168,157534,1,0,0:0:0:0:
170,192,157625,1,0,0:0:0:0:
207,161,157716,1,0,0:0:0:0:
162,177,157898,1,8,0:0:0:0:
196,168,158080,1,0,0:0:0:0:
196,168,158171,1,0,0:0:0:0:
264,173,158262,1,8,0:0:0:0:
190,163,158443,1,0,0:0:0:0:
190,162,158625,1,8,0:0:0:0:
222,165,158807,1,0,0:0:0:0:
222,159,158898,1,0,0:0:0:0:
221,159,158989,1,0,0:0:0:0:
210,149,159171,1,8,0:0:0:0:
210,181,159352,1,0,0:0:0:0:
198,176,159443,1,8,0:0:0:0:
198,176,159534,1,0,0:0:0:0:
196,176,159625,1,0,0:0:0:0:
196,176,159716,1,8,0:0:0:0:
201,184,159898,1,0,0:0:0:0:
203,189,160080,1,8,0:0:0:0:
236,196,160171,1,0,0:0:0:0:
236,196,160262,1,8,0:0:0:0:
174,172,160443,1,0,0:0:0:0:
121,144,160534,1,0,0:0:0:0:
173,172,160625,1,8,0:0:0:0:
230,224,160807,1,0,0:0:0:0:
184,221,160989,1,8,0:0:0:0:
182,216,161080,1,8,0:0:0:0:
182,216,161171,1,0,0:0:0:0:
184,203,161352,1,8,0:0:0:0:
180,210,161534,1,0,0:0:0:0:
178,208,161716,1,12,0:0:0:0:
178,207,161898,1,0,0:0:0:0:
178,207,162080,1,0,0:0:0:0:
178,205,162262,1,8,0:0:0:0:
179,205,162352,1,8,0:0:0:0:
180,210,162443,1,0,0:0:0:0:
160,219,162625,1,8,0:0:0:0:
302,159,162716,1,8,0:0:0:0:
162,216,162807,1,8,0:0:0:0:
168,211,162989,1,0,0:0:0:0:
168,210,163080,1,0,0:0:0:0:
208,280,163171,1,12,0:0:0:0:
220,282,163352,1,0,0:0:0:0:
208,280,163443,1,0,0:0:0:0:
208,280,163534,1,8,0:0:0:0:
184,220,163716,1,0,0:0:0:0:
216,224,163898,1,8,0:0:0:0:
216,224,163989,1,8,0:0:0:0:
216,224,164080,1,8,0:0:0:0:
209,234,164262,1,0,0:0:0:0:
204,235,164443,1,8,0:0:0:0:
204,231,164534,1,8,0:0:0:0:
204,231,164625,1,0,0:0:0:0:
203,231,164807,1,8,0:0:0:0:
199,226,164989,1,0,0:0:0:0:
205,154,165171,1,8,0:0:0:0:
205,154,165262,1,0,0:0:0:0:
205,154,165352,1,8,0:0:0:0:
205,154,165443,1,8,0:0:0:0:
205,154,165534,1,0,0:0:0:0:
200,150,165716,1,8,0:0:0:0:
182,163,165898,1,0,0:0:0:0:
164,161,165989,1,0,0:0:0:0:
172,176,166080,1,8,0:0:0:0:
173,207,166262,1,0,0:0:0:0:
173,207,166443,1,8,0:0:0:0:
173,196,166625,1,0,0:0:0:0:
173,207,166807,1,8,0:0:0:0:
173,207,166898,1,8,0:0:0:0:
173,207,166989,1,8,0:0:0:0:
173,207,167171,1,0,0:0:0:0:
187,239,167352,1,8,0:0:0:0:
187,239,167534,1,0,0:0:0:0:
187,239,167625,1,0,0:0:0:0:
187,239,167716,1,8,0:0:0:0:
181,234,167898,1,0,0:0:0:0:
202,173,168080,1,0,0:0:0:0:
151,165,168262,1,8,0:0:0:0:
151,165,168352,1,8,0:0:0:0:
142,173,168443,1,0,0:0:0:0:
267,152,168625,1,8,0:0:0:0:
142,179,168807,1,0,0:0:0:0:
211,214,168898,1,0,0:0:0:0:
197,180,168989,1,12,0:0:0:0:
275,168,169171,1,0,0:0:0:0:
170,192,169262,1,0,0:0:0:0:
207,161,169352,1,0,0:0:0:0:
162,177,169534,1,8,0:0:0:0:
196,168,169716,1,0,0:0:0:0:
196,168,169807,1,0,0:0:0:0:
264,173,169898,1,8,0:0:0:0:
190,163,170080,1,0,0:0:0:0:
190,162,170262,1,0,0:0:0:0:
222,165,170443,1,8,0:0:0:0:
222,159,170534,1,8,0:0:0:0:
221,159,170625,1,0,0:0:0:0:
210,149,170807,1,8,0:0:0:0:
210,181,170989,1,0,0:0:0:0:
198,176,171080,1,8,0:0:0:0:
198,176,171171,1,0,0:0:0:0:
196,176,171262,1,0,0:0:0:0:
196,176,171352,1,8,0:0:0:0:
201,184,171534,1,0,0:0:0:0:
203,189,171716,1,0,0:0:0:0:
223,203,171807,1,0,0:0:0:0:
202,187,171898,1,8,0:0:0:0:
254,203,172080,1,0,0:0:0:0:
241,213,172262,1,8,0:0:0:0:
230,224,172443,1,0,0:0:0:0:
302,166,172534,1,0,0:0:0:0:
302,166,172625,1,8,0:0:0:0:
258,84,172807,1,0,0:0:0:0:
281,144,172898,1,8,0:0:0:0:
281,144,172989,1,0,0:0:0:0:
281,144,173080,1,0,0:0:0:0:
281,144,173171,1,12,0:0:0:0:
291,169,174080,1,0,0:0:0:0:
291,169,174262,1,8,0:0:0:0:
291,169,174352,1,8,0:0:0:0:
294,173,174443,1,8,0:0:0:0:
185,201,174807,1,12,0:0:0:0:
206,205,175171,1,8,0:0:0:0:
153,176,175352,1,0,0:0:0:0:
153,176,175443,1,8,0:0:0:0:
153,176,175534,1,0,0:0:0:0:
153,176,175625,1,0,0:0:0:0:
153,176,175716,1,8,0:0:0:0:
268,176,175898,1,0,0:0:0:0:
180,223,176080,1,8,0:0:0:0:
180,232,176262,1,8,0:0:0:0:
268,176,176625,1,8,0:0:0:0:
104,170,176807,1,0,0:0:0:0:
104,170,176898,1,8,0:0:0:0:
104,170,176989,1,8,0:0:0:0:
104,170,177080,1,0,0:0:0:0:
104,170,177171,1,8,0:0:0:0:
268,176,177352,1,0,0:0:0:0:
213,222,177534,1,8,0:0:0:0:
249,241,177625,1,0,0:0:0:0:
222,223,177716,1,8,0:0:0:0:
268,176,178080,1,8,0:0:0:0:
153,176,178262,1,0,0:0:0:0:
153,176,178352,1,8,0:0:0:0:
153,176,178443,1,0,0:0:0:0:
153,176,178534,1,0,0:0:0:0:
153,176,178625,1,8,0:0:0:0:
268,176,178807,1,0,0:0:0:0:
180,223,178989,1,8,0:0:0:0:
180,232,179171,1,8,0:0:0:0:
268,176,179534,1,8,0:0:0:0:
243,158,179716,1,0,0:0:0:0:
243,158,179807,1,8,0:0:0:0:
243,158,179898,1,8,0:0:0:0:
243,158,179989,1,0,0:0:0:0:
235,155,180080,1,8,0:0:0:0:
268,176,180262,1,0,0:0:0:0:
152,163,180443,1,8,0:0:0:0:
152,163,180625,1,12,0:0:0:0:
206,205,180989,1,8,0:0:0:0:
153,176,181171,1,0,0:0:0:0:
153,176,181262,1,8,0:0:0:0:
153,176,181352,1,0,0:0:0:0:
153,176,181443,1,0,0:0:0:0:
153,176,181534,1,8,0:0:0:0:
268,176,181716,1,0,0:0:0:0:
180,223,181898,1,8,0:0:0:0:
180,232,182080,1,8,0:0:0:0:
268,176,182443,1,8,0:0:0:0:
104,170,182625,1,0,0:0:0:0:
104,170,182716,1,8,0:0:0:0:
104,170,182807,1,8,0:0:0:0:
104,170,182898,1,0,0:0:0:0:
104,170,182989,1,8,0:0:0:0:
268,176,183171,1,0,0:0:0:0:
213,222,183352,1,8,0:0:0:0:
249,241,183443,1,0,0:0:0:0:
222,223,183534,1,8,0:0:0:0:
268,176,183898,1,8,0:0:0:0:
153,176,184080,1,0,0:0:0:0:
153,176,184171,1,8,0:0:0:0:
153,176,184262,1,0,0:0:0:0:
153,176,184352,1,0,0:0:0:0:
153,176,184443,1,8,0:0:0:0:
268,176,184625,1,0,0:0:0:0:
180,223,184807,1,8,0:0:0:0:
235,172,184989,1,8,0:0:0:0:
238,194,185352,1,8,0:0:0:0:
199,185,185534,1,0,0:0:0:0:
207,128,185625,1,0,0:0:0:0:
207,128,185807,1,0,0:0:0:0:
199,185,185898,1,0,0:0:0:0:
229,169,186080,1,0,0:0:0:0:
229,169,186262,1,8,0:0:0:0:
229,169,186443,1,12,0:0:0:0:
206,205,186807,1,8,0:0:0:0:
153,176,186989,1,0,0:0:0:0:
153,176,187080,1,8,0:0:0:0:
153,176,187171,1,0,0:0:0:0:
153,176,187262,1,0,0:0:0:0:
153,176,187352,1,8,0:0:0:0:
268,176,187534,1,0,0:0:0:0:
180,223,187716,1,8,0:0:0:0:
180,232,187898,1,8,0:0:0:0:
268,176,188262,1,8,0:0:0:0:
104,170,188443,1,0,0:0:0:0:
104,170,188534,1,8,0:0:0:0:
104,170,188625,1,8,0:0:0:0:
104,170,188716,1,0,0:0:0:0:
104,170,188807,1,8,0:0:0:0:
268,176,188989,1,0,0:0:0:0:
213,222,189171,1,8,0:0:0:0:
249,241,189262,1,0,0:0:0:0:
222,223,189352,1,8,0:0:0:0:
268,176,189716,1,8,0:0:0:0:
153,176,189898,1,0,0:0:0:0:
153,176,189989,1,8,0:0:0:0:
153,176,190080,1,0,0:0:0:0:
153,176,190171,1,0,0:0:0:0:
153,176,190262,1,8,0:0:0:0:
268,176,190443,1,0,0:0:0:0:
180,223,190625,1,8,0:0:0:0:
180,232,190807,1,8,0:0:0:0:
268,176,191171,1,8,0:0:0:0:
243,158,191352,1,0,0:0:0:0:
243,158,191443,1,8,0:0:0:0:
243,158,191534,1,8,0:0:0:0:
243,158,191625,1,0,0:0:0:0:
235,155,191716,1,8,0:0:0:0:
268,176,191898,5,0,0:0:0:0:
152,163,192080,1,8,0:0:0:0:
152,163,192262,1,12,0:0:0:0:
206,205,192625,1,8,0:0:0:0:
153,176,192807,1,0,0:0:0:0:
153,176,192898,1,8,0:0:0:0:
153,176,192989,1,0,0:0:0:0:
153,176,193080,1,0,0:0:0:0:
153,176,193171,1,8,0:0:0:0:
268,176,193352,1,0,0:0:0:0:
180,223,193534,1,8,0:0:0:0:
180,232,193716,1,8,0:0:0:0:
268,176,194080,1,8,0:0:0:0:
104,170,194262,1,0,0:0:0:0:
104,170,194352,1,8,0:0:0:0:
104,170,194443,1,8,0:0:0:0:
104,170,194534,1,0,0:0:0:0:
104,170,194625,1,8,0:0:0:0:
268,176,194807,1,0,0:0:0:0:
213,222,194989,1,8,0:0:0:0:
249,241,195080,1,0,0:0:0:0:
222,223,195171,1,8,0:0:0:0:
219,203,195534,1,8,0:0:0:0:
219,203,195716,1,0,0:0:0:0:
219,203,195807,1,8,0:0:0:0:
219,203,195898,1,0,0:0:0:0:
219,203,195989,1,0,0:0:0:0:
219,203,196080,1,8,0:0:0:0:
219,203,196262,1,0,0:0:0:0:
219,203,196443,1,8,0:0:0:0:
140,227,196625,5,12,0:0:0:0:
140,227,196989,1,12,0:0:0:0:
140,227,197352,1,12,0:0:0:0:
245,192,197534,1,0,0:0:0:0:
245,192,197625,1,0,0:0:0:0:
178,174,197716,1,8,0:0:0:0:
178,174,197807,1,8,0:0:0:0:
159,190,197898,1,0,0:0:0:0:
126,205,198080,1,12,0:0:0:0:
368,235,199534,1,0,0:0:0:0:
269,235,200989,1,8,0:0:0:0:
264,234,202443,1,0,0:0:0:0:
233,236,203352,1,0,0:0:0:0:
233,236,203534,1,0,0:0:0:0:
233,236,203716,1,0,0:0:0:0:
216,230,203898,1,12,0:0:0:0:
234,205,204262,1,0,0:0:0:0:
227,196,204625,1,8,0:0:0:0:
221,195,204989,1,0,0:0:0:0:
240,223,205352,1,8,0:0:0:0:
136,322,205534,1,0,0:0:0:0:
153,312,205716,1,0,0:0:0:0:
307,193,206080,1,8,0:0:0:0:
307,193,206443,1,0,0:0:0:0:
251,206,206807,1,12,0:0:0:0:
251,206,207171,1,0,0:0:0:0:
259,234,207534,1,0,0:0:0:0:
262,242,207898,1,12,0:0:0:0:
267,241,208262,1,12,0:0:0:0:
266,250,208443,1,0,0:0:0:0:
264,249,208625,1,0,0:0:0:0:
262,250,208807,1,8,0:0:0:0:
199,185,208989,1,0,0:0:0:0:
198,191,209171,1,8,0:0:0:0:
198,190,209352,1,0,0:0:0:0:
199,185,209443,1,8,0:0:0:0:
192,190,209534,1,0,0:0:0:0:
186,191,209625,1,0,0:0:0:0:
195,195,209716,1,12,0:0:0:0:
222,128,210080,1,0,0:0:0:0:
235,131,210262,1,8,0:0:0:0:
235,131,210443,1,0,0:0:0:0:
236,132,210534,1,0,0:0:0:0:
239,132,210625,1,0,0:0:0:0:
252,143,210807,1,8,0:0:0:0:
252,143,210989,1,8,0:0:0:0:
232,149,211171,5,0,0:0:0:0:
220,147,211534,1,8,0:0:0:0:
220,148,211716,1,0,0:0:0:0:
204,146,211898,1,8,0:0:0:0:
193,146,211989,1,8,0:0:0:0:
204,146,212080,1,0,0:0:0:0:
224,275,212262,5,8,0:0:0:0:
224,275,212443,1,0,0:0:0:0:
189,145,212534,1,0,0:0:0:0:
224,275,212625,1,8,0:0:0:0:
182,147,212989,1,8,0:0:0:0:
182,149,213171,1,0,0:0:0:0:
213,152,213352,1,8,0:0:0:0:
213,152,213534,1,8,0:0:0:0:
248,179,213716,1,0,0:0:0:0:
248,179,213807,1,8,0:0:0:0:
233,165,213898,1,0,0:0:0:0:
242,175,213989,1,0,0:0:0:0:
233,165,214080,1,12,0:0:0:0:
222,156,214443,1,8,0:0:0:0:
222,156,214625,1,0,0:0:0:0:
222,156,214716,1,0,0:0:0:0:
220,155,214807,1,8,0:0:0:0:
171,168,214989,1,0,0:0:0:0:
171,168,215080,1,0,0:0:0:0:
282,122,215171,1,0,0:0:0:0:
282,122,215352,1,0,0:0:0:0:
208,280,215534,1,12,0:0:0:0:
220,282,215716,1,0,0:0:0:0:
208,280,215807,1,0,0:0:0:0:
208,280,215898,1,0,0:0:0:0:
184,220,216080,1,8,0:0:0:0:
216,224,216262,1,0,0:0:0:0:
216,224,216352,1,0,0:0:0:0:
216,224,216443,1,8,0:0:0:0:
209,234,216625,1,0,0:0:0:0:
204,235,216807,1,8,0:0:0:0:
204,231,216898,1,8,0:0:0:0:
204,231,216989,1,8,0:0:0:0:
203,231,217171,1,0,0:0:0:0:
199,226,217352,1,8,0:0:0:0:
205,154,217534,1,0,0:0:0:0:
205,154,217625,1,8,0:0:0:0:
205,154,217716,1,0,0:0:0:0:
205,154,217807,1,0,0:0:0:0:
205,154,217898,1,8,0:0:0:0:
200,150,218080,1,0,0:0:0:0:
255,245,218262,1,8,0:0:0:0:
255,245,218352,1,8,0:0:0:0:
172,176,218443,1,0,0:0:0:0:
173,207,218625,1,8,0:0:0:0:
173,207,218807,1,0,0:0:0:0:
173,196,218989,1,8,0:0:0:0:
173,207,219171,1,0,0:0:0:0:
173,207,219262,1,0,0:0:0:0:
173,207,219352,1,0,0:0:0:0:
173,207,219534,1,8,0:0:0:0:
187,239,219716,1,0,0:0:0:0:
187,239,219807,1,0,0:0:0:0:
187,239,219898,1,8,0:0:0:0:
187,239,220080,1,0,0:0:0:0:
181,234,220262,1,8,0:0:0:0:
202,173,220443,1,0,0:0:0:0:
151,165,220625,1,8,0:0:0:0:
151,165,220716,1,8,0:0:0:0:
240,143,220807,1,0,0:0:0:0:
289,147,220898,1,0,0:0:0:0:
142,173,220989,1,8,0:0:0:0:
142,179,221171,1,0,0:0:0:0:
257,199,221262,1,0,0:0:0:0:
197,180,221352,1,12,0:0:0:0:
275,168,221534,1,0,0:0:0:0:
170,192,221625,1,0,0:0:0:0:
207,161,221716,1,0,0:0:0:0:
162,177,221898,1,8,0:0:0:0:
196,168,222080,1,0,0:0:0:0:
196,168,222171,1,0,0:0:0:0:
264,173,222262,1,8,0:0:0:0:
190,163,222443,1,0,0:0:0:0:
190,162,222625,1,0,0:0:0:0:
222,165,222807,1,8,0:0:0:0:
222,159,222898,1,8,0:0:0:0:
221,159,222989,1,0,0:0:0:0:
210,149,223171,1,8,0:0:0:0:
210,181,223352,1,0,0:0:0:0:
198,176,223443,1,8,0:0:0:0:
198,176,223534,1,0,0:0:0:0:
196,176,223625,1,0,0:0:0:0:
196,176,223716,1,8,0:0:0:0:
201,184,223898,1,8,0:0:0:0:
203,189,224080,1,0,0:0:0:0:
236,196,224171,1,0,0:0:0:0:
236,196,224262,1,8,0:0:0:0:
174,172,224443,1,0,0:0:0:0:
121,144,224534,1,0,0:0:0:0:
173,172,224625,1,0,0:0:0:0:
230,224,224807,1,8,0:0:0:0:
184,221,224989,1,0,0:0:0:0:
182,216,225080,1,0,0:0:0:0:
182,216,225171,1,8,0:0:0:0:
184,203,225352,1,0,0:0:0:0:
180,210,225534,1,0,0:0:0:0:
178,208,225716,1,12,0:0:0:0:
178,207,225898,1,0,0:0:0:0:
178,207,226080,1,8,0:0:0:0:
178,205,226262,1,0,0:0:0:0:
179,205,226352,1,0,0:0:0:0:
180,210,226443,1,0,0:0:0:0:
160,219,226625,1,8,0:0:0:0:
297,169,226716,1,8,0:0:0:0:
162,216,226807,1,8,0:0:0:0:
168,211,226989,1,0,0:0:0:0:
168,210,227080,1,0,0:0:0:0:
208,280,227171,1,12,0:0:0:0:
220,282,227352,1,0,0:0:0:0:
208,280,227443,1,0,0:0:0:0:
208,280,227534,1,8,0:0:0:0:
184,220,227716,1,0,0:0:0:0:
216,224,227898,1,8,0:0:0:0:
216,224,227989,1,8,0:0:0:0:
216,224,228080,1,0,0:0:0:0:
209,234,228262,1,8,0:0:0:0:
204,235,228443,1,0,0:0:0:0:
204,231,228534,1,0,0:0:0:0:
204,231,228625,1,0,0:0:0:0:
203,231,228807,1,8,0:0:0:0:
199,226,228989,1,8,0:0:0:0:
205,154,229171,1,0,0:0:0:0:
205,154,229262,1,8,0:0:0:0:
205,154,229352,1,0,0:0:0:0:
205,154,229443,1,0,0:0:0:0:
205,154,229534,1,8,0:0:0:0:
200,150,229716,1,0,0:0:0:0:
182,163,229898,1,8,0:0:0:0:
164,161,229989,1,8,0:0:0:0:
172,176,230080,1,0,0:0:0:0:
173,207,230262,1,8,0:0:0:0:
173,207,230443,1,0,0:0:0:0:
173,196,230625,1,0,0:0:0:0:
173,207,230807,1,8,0:0:0:0:
173,207,230898,1,8,0:0:0:0:
173,207,230989,1,0,0:0:0:0:
173,207,231171,1,8,0:0:0:0:
187,239,231352,1,8,0:0:0:0:
187,239,231534,1,0,0:0:0:0:
187,239,231625,1,0,0:0:0:0:
187,239,231716,1,8,0:0:0:0:
181,234,231898,1,0,0:0:0:0:
202,173,232080,1,8,0:0:0:0:
151,165,232262,1,0,0:0:0:0:
151,165,232352,1,0,0:0:0:0:
142,173,232443,1,0,0:0:0:0:
267,152,232625,1,8,0:0:0:0:
142,179,232807,1,0,0:0:0:0:
211,214,232898,1,0,0:0:0:0:
197,180,232989,1,12,0:0:0:0:
275,168,233171,1,0,0:0:0:0:
170,192,233262,1,0,0:0:0:0:
207,161,233352,1,0,0:0:0:0:
162,177,233534,1,8,0:0:0:0:
196,168,233716,1,0,0:0:0:0:
196,168,233807,1,0,0:0:0:0:
264,173,233898,1,8,0:0:0:0:
190,163,234080,1,0,0:0:0:0:
190,162,234262,1,0,0:0:0:0:
222,165,234443,1,8,0:0:0:0:
222,159,234534,1,8,0:0:0:0:
221,159,234625,1,8,0:0:0:0:
210,149,234807,1,0,0:0:0:0:
210,181,234989,1,8,0:0:0:0:
198,176,235080,1,8,0:0:0:0:
198,176,235171,1,8,0:0:0:0:
196,176,235262,1,8,0:0:0:0:
196,176,235352,1,0,0:0:0:0:
201,184,235534,1,8,0:0:0:0:
203,189,235716,1,0,0:0:0:0:
223,203,235807,1,0,0:0:0:0:
202,187,235898,1,8,0:0:0:0:
254,203,236080,1,0,0:0:0:0:
241,213,236262,1,8,0:0:0:0:
230,224,236443,1,0,0:0:0:0:
302,166,236534,1,0,0:0:0:0:
302,166,236625,1,8,0:0:0:0:
258,84,236807,1,0,0:0:0:0:
281,144,236898,1,0,0:0:0:0:
281,144,236989,1,8,0:0:0:0:
281,144,237080,1,8,0:0:0:0:
281,144,237171,1,0,0:0:0:0:
267,301,237352,1,12,0:0:0:0:
267,301,237534,1,0,0:0:0:0:
291,168,237716,1,8,0:0:0:0:
287,203,237898,1,0,0:0:0:0:
249,298,237989,1,12,0:0:0:0:
273,166,238262,1,0,0:0:0:0:
241,297,238352,1,0,0:0:0:0:
241,297,238443,1,12,0:0:0:0:
241,299,238625,1,0,0:0:0:0:
238,310,238716,1,0,0:0:0:0:
208,280,238807,1,12,0:0:0:0:
220,282,238989,1,0,0:0:0:0:
208,280,239080,1,0,0:0:0:0:
208,280,239171,1,8,0:0:0:0:
184,220,239352,1,0,0:0:0:0:
216,224,239534,1,8,0:0:0:0:
216,224,239716,1,0,0:0:0:0:
209,234,239898,1,8,0:0:0:0:
204,235,240080,1,0,0:0:0:0:
204,231,240171,1,0,0:0:0:0:
204,231,240262,1,0,0:0:0:0:
203,231,240443,1,8,0:0:0:0:
199,226,240625,1,8,0:0:0:0:
205,154,240807,1,0,0:0:0:0:
205,154,240898,1,8,0:0:0:0:
205,154,240989,1,0,0:0:0:0:
205,154,241080,1,0,0:0:0:0:
205,154,241171,1,8,0:0:0:0:
200,150,241352,1,0,0:0:0:0:
255,245,241534,1,8,0:0:0:0:
255,245,241625,1,8,0:0:0:0:
172,176,241716,1,0,0:0:0:0:
173,207,241898,1,8,0:0:0:0:
173,207,242080,1,0,0:0:0:0:
173,196,242262,1,8,0:0:0:0:
173,207,242443,1,0,0:0:0:0:
173,207,242534,1,0,0:0:0:0:
173,207,242625,1,0,0:0:0:0:
173,207,242807,1,8,0:0:0:0:
187,239,242989,1,0,0:0:0:0:
187,239,243080,1,0,0:0:0:0:
187,239,243171,1,8,0:0:0:0:
187,239,243352,1,0,0:0:0:0:
181,234,243534,1,8,0:0:0:0:
202,173,243716,1,8,0:0:0:0:
151,165,243898,1,0,0:0:0:0:
151,165,243989,1,8,0:0:0:0:
240,143,244080,1,0,0:0:0:0:
289,147,244171,1,0,0:0:0:0:
142,173,244262,1,8,0:0:0:0:
142,179,244443,1,0,0:0:0:0:
257,199,244534,1,0,0:0:0:0:
197,180,244625,1,12,0:0:0:0:
275,168,244807,1,0,0:0:0:0:
170,192,244898,1,0,0:0:0:0:
207,161,244989,1,0,0:0:0:0:
162,177,245171,1,8,0:0:0:0:
196,168,245352,1,0,0:0:0:0:
196,168,245443,1,0,0:0:0:0:
264,173,245534,1,8,0:0:0:0:
190,163,245716,1,0,0:0:0:0:
190,162,245898,1,0,0:0:0:0:
222,165,246080,1,8,0:0:0:0:
222,159,246171,1,8,0:0:0:0:
221,159,246262,1,0,0:0:0:0:
210,149,246443,1,8,0:0:0:0:
210,181,246625,1,0,0:0:0:0:
198,176,246716,1,0,0:0:0:0:
198,176,246807,1,8,0:0:0:0:
196,176,246898,1,8,0:0:0:0:
196,176,246989,1,0,0:0:0:0:
201,184,247171,1,8,0:0:0:0:
203,189,247352,1,0,0:0:0:0:
236,196,247443,1,0,0:0:0:0:
236,196,247534,1,8,0:0:0:0:
174,172,247716,1,0,0:0:0:0:
121,144,247807,1,0,0:0:0:0:
173,172,247898,1,0,0:0:0:0:
230,224,248080,1,8,0:0:0:0:
184,221,248262,1,0,0:0:0:0:
182,216,248352,1,0,0:0:0:0:
182,216,248443,1,8,0:0:0:0:
184,203,248625,1,0,0:0:0:0:
180,210,248807,1,0,0:0:0:0:
178,208,248989,1,12,0:0:0:0:
178,207,249171,1,0,0:0:0:0:
178,207,249352,1,0,0:0:0:0:
178,205,249534,1,8,0:0:0:0:
179,205,249625,1,8,0:0:0:0:
180,210,249716,1,0,0:0:0:0:
160,219,249898,1,8,0:0:0:0:
221,178,249989,1,8,0:0:0:0:
162,216,250080,1,8,0:0:0:0:
168,211,250262,1,0,0:0:0:0:
168,210,250352,1,0,0:0:0:0:
208,280,250443,1,12,0:0:0:0:
220,282,250625,1,0,0:0:0:0:
220,193,250716,1,0,0:0:0:0:
208,280,250807,1,0,0:0:0:0:
184,220,250989,1,8,0:0:0:0:
216,224,251171,1,0,0:0:0:0:
216,224,251262,1,0,0:0:0:0:
216,224,251352,1,8,0:0:0:0:
209,234,251534,1,0,0:0:0:0:
204,235,251716,1,8,0:0:0:0:
204,231,251807,1,8,0:0:0:0:
204,231,251898,1,8,0:0:0:0:
203,231,252080,1,0,0:0:0:0:
199,226,252262,1,8,0:0:0:0:
205,154,252443,1,0,0:0:0:0:
205,154,252534,1,8,0:0:0:0:
205,154,252625,1,0,0:0:0:0:
205,154,252716,1,0,0:0:0:0:
205,154,252807,1,8,0:0:0:0:
200,150,252989,1,0,0:0:0:0:
182,163,253171,1,8,0:0:0:0:
164,161,253262,1,0,0:0:0:0:
172,176,253352,1,8,0:0:0:0:
173,207,253534,1,8,0:0:0:0:
173,207,253716,1,0,0:0:0:0:
173,196,253898,1,0,0:0:0:0:
173,207,254080,1,8,0:0:0:0:
173,207,254171,1,8,0:0:0:0:
173,207,254262,1,0,0:0:0:0:
173,207,254443,1,8,0:0:0:0:
187,239,254625,1,0,0:0:0:0:
187,239,254807,1,8,0:0:0:0:
187,239,254898,1,8,0:0:0:0:
187,239,254989,1,8,0:0:0:0:
181,234,255171,1,0,0:0:0:0:
202,173,255352,1,8,0:0:0:0:
151,165,255534,1,0,0:0:0:0:
151,165,255625,1,0,0:0:0:0:
142,173,255716,1,0,0:0:0:0:
267,152,255898,1,8,0:0:0:0:
142,179,256080,1,0,0:0:0:0:
211,214,256171,1,0,0:0:0:0:
197,180,256262,1,12,0:0:0:0:
275,168,256443,1,0,0:0:0:0:
170,192,256534,1,0,0:0:0:0:
207,161,256625,1,8,0:0:0:0:
162,177,256807,1,0,0:0:0:0:
196,168,256989,1,8,0:0:0:0:
196,168,257080,1,8,0:0:0:0:
264,173,257171,1,8,0:0:0:0:
190,163,257352,1,0,0:0:0:0:
190,162,257534,1,8,0:0:0:0:
222,165,257716,1,0,0:0:0:0:
222,159,257807,1,0,0:0:0:0:
221,159,257898,1,0,0:0:0:0:
210,149,258080,1,8,0:0:0:0:
210,181,258262,1,0,0:0:0:0:
198,176,258352,1,8,0:0:0:0:
198,176,258443,1,0,0:0:0:0:
196,176,258534,1,0,0:0:0:0:
196,176,258625,1,8,0:0:0:0:
201,184,258807,1,0,0:0:0:0:
203,189,258989,1,8,0:0:0:0:
223,203,259080,1,0,0:0:0:0:
202,187,259171,1,8,0:0:0:0:
254,203,259352,1,0,0:0:0:0:
241,213,259534,1,8,0:0:0:0:
230,224,259716,1,0,0:0:0:0:
302,166,259807,1,0,0:0:0:0:
302,166,259898,1,8,0:0:0:0:
258,84,260080,1,0,0:0:0:0:
281,144,260171,1,8,0:0:0:0:
281,144,260262,1,0,0:0:0:0:
281,144,260352,1,0,0:0:0:0:
281,144,260443,1,12,0:0:0:0:
291,169,261352,1,0,0:0:0:0:
291,169,261534,1,8,0:0:0:0:
291,169,261625,1,8,0:0:0:0:
294,173,261716,1,8,0:0:0:0:
185,201,262080,1,12,0:0:0:0:
206,205,262443,1,8,0:0:0:0:
153,176,262625,1,0,0:0:0:0:
153,176,262716,1,0,0:0:0:0:
153,176,262807,1,0,0:0:0:0:
153,176,262898,1,0,0:0:0:0:
153,176,262989,1,8,0:0:0:0:
276,176,263171,1,0,0:0:0:0:
180,223,263352,1,8,0:0:0:0:
211,230,263534,1,0,0:0:0:0:
211,230,263716,1,8,0:0:0:0:
268,176,263898,1,0,0:0:0:0:
104,170,264080,1,8,0:0:0:0:
104,170,264171,1,0,0:0:0:0:
104,170,264262,1,8,0:0:0:0:
104,170,264352,1,8,0:0:0:0:
104,170,264443,1,0,0:0:0:0:
268,176,264625,1,8,0:0:0:0:
213,222,264807,1,0,0:0:0:0:
249,241,264898,1,0,0:0:0:0:
222,223,264989,1,8,0:0:0:0:
268,176,265352,1,8,0:0:0:0:
153,176,265534,1,0,0:0:0:0:
153,176,265625,1,8,0:0:0:0:
153,176,265716,1,0,0:0:0:0:
153,176,265807,1,0,0:0:0:0:
153,176,265898,1,8,0:0:0:0:
268,176,266080,1,0,0:0:0:0:
180,223,266262,1,8,0:0:0:0:
180,232,266443,1,0,0:0:0:0:
214,221,266625,1,8,0:0:0:0:
268,176,266807,1,0,0:0:0:0:
243,158,266989,1,8,0:0:0:0:
243,158,267080,1,0,0:0:0:0:
243,158,267171,1,8,0:0:0:0:
243,158,267262,1,8,0:0:0:0:
235,155,267352,1,0,0:0:0:0:
268,176,267534,1,8,0:0:0:0:
152,163,267716,1,0,0:0:0:0:
194,123,267807,1,0,0:0:0:0:
152,163,267898,1,12,0:0:0:0:
206,205,268262,1,8,0:0:0:0:
153,176,268443,1,0,0:0:0:0:
153,176,268534,1,0,0:0:0:0:
153,176,268625,1,0,0:0:0:0:
153,176,268716,1,0,0:0:0:0:
153,176,268807,1,8,0:0:0:0:
268,176,268989,1,0,0:0:0:0:
180,223,269171,1,8,0:0:0:0:
180,232,269352,1,0,0:0:0:0:
220,223,269534,1,8,0:0:0:0:
268,176,269716,1,0,0:0:0:0:
104,170,269898,1,8,0:0:0:0:
104,170,269989,1,0,0:0:0:0:
104,170,270080,1,8,0:0:0:0:
104,170,270171,1,8,0:0:0:0:
104,170,270262,1,0,0:0:0:0:
268,176,270443,1,8,0:0:0:0:
213,222,270625,1,0,0:0:0:0:
249,241,270716,1,0,0:0:0:0:
222,223,270807,1,8,0:0:0:0:
268,176,271171,1,8,0:0:0:0:
153,176,271352,1,0,0:0:0:0:
153,176,271443,1,8,0:0:0:0:
153,176,271534,1,0,0:0:0:0:
153,176,271625,1,0,0:0:0:0:
153,176,271716,1,8,0:0:0:0:
268,176,271898,1,0,0:0:0:0:
180,223,272080,1,8,0:0:0:0:
180,232,272262,1,12,0:0:0:0:
193,122,272443,1,0,0:0:0:0:
225,145,272625,1,0,0:0:0:0:
240,141,272807,1,8,0:0:0:0:
219,208,272898,1,8,0:0:0:0:
240,141,272989,1,0,0:0:0:0:
240,141,273171,1,8,0:0:0:0:
240,141,273262,1,0,0:0:0:0:
240,141,273352,1,8,0:0:0:0:
279,169,273443,1,8,0:0:0:0:
238,141,273534,1,0,0:0:0:0:
279,169,273625,1,0,0:0:0:0:
185,201,273716,1,12,0:0:0:0:
206,205,274080,1,8,0:0:0:0:
153,176,274262,1,0,0:0:0:0:
153,176,274352,1,0,0:0:0:0:
153,176,274443,1,0,0:0:0:0:
153,176,274534,1,0,0:0:0:0:
153,176,274625,1,8,0:0:0:0:
276,176,274807,1,0,0:0:0:0:
180,223,274989,1,8,0:0:0:0:
139,249,275080,1,8,0:0:0:0:
211,230,275171,1,0,0:0:0:0:
211,230,275352,1,8,0:0:0:0:
268,176,275534,1,0,0:0:0:0:
104,170,275716,1,8,0:0:0:0:
104,170,275807,1,0,0:0:0:0:
104,170,275898,1,8,0:0:0:0:
104,170,275989,1,8,0:0:0:0:
104,170,276080,1,0,0:0:0:0:
268,176,276262,1,8,0:0:0:0:
213,222,276443,1,0,0:0:0:0:
249,241,276534,1,0,0:0:0:0:
222,223,276625,1,8,0:0:0:0:
268,176,276989,1,8,0:0:0:0:
153,176,277171,1,0,0:0:0:0:
153,176,277262,1,8,0:0:0:0:
153,176,277352,1,0,0:0:0:0:
153,176,277443,1,0,0:0:0:0:
153,176,277534,1,8,0:0:0:0:
268,176,277716,1,0,0:0:0:0:
180,223,277898,1,8,0:0:0:0:
171,194,277989,1,8,0:0:0:0:
155,248,278080,1,0,0:0:0:0:
214,221,278262,1,8,0:0:0:0:
268,176,278443,1,0,0:0:0:0:
243,158,278625,1,8,0:0:0:0:
243,158,278716,1,0,0:0:0:0:
243,158,278807,1,8,0:0:0:0:
243,158,278898,1,8,0:0:0:0:
235,155,278989,1,0,0:0:0:0:
268,176,279171,1,8,0:0:0:0:
152,163,279352,1,0,0:0:0:0:
152,163,279534,1,12,0:0:0:0:
206,205,279898,1,8,0:0:0:0:
153,176,280080,1,0,0:0:0:0:
153,176,280171,1,0,0:0:0:0:
153,176,280262,1,0,0:0:0:0:
153,176,280352,1,0,0:0:0:0:
153,176,280443,1,8,0:0:0:0:
268,176,280625,1,0,0:0:0:0:
180,223,280807,1,8,0:0:0:0:
180,232,280989,1,0,0:0:0:0:
418,148,281080,1,0,0:0:0:0:
220,223,281171,1,8,0:0:0:0:
268,176,281352,1,0,0:0:0:0:
104,170,281534,1,8,0:0:0:0:
104,170,281625,1,0,0:0:0:0:
104,170,281716,1,8,0:0:0:0:
104,170,281807,1,8,0:0:0:0:
104,170,281898,1,0,0:0:0:0:
268,176,282080,1,8,0:0:0:0:
213,222,282262,1,0,0:0:0:0:
249,241,282352,1,0,0:0:0:0:
222,223,282443,1,8,0:0:0:0:
268,176,282807,1,8,0:0:0:0:
153,176,282989,1,0,0:0:0:0:
153,176,283080,1,8,0:0:0:0:
153,176,283171,1,0,0:0:0:0:
153,176,283352,1,8,0:0:0:0:
169,76,283443,1,8,0:0:0:0:
268,176,283534,1,0,0:0:0:0:
169,76,283625,1,0,0:0:0:0:
180,223,283716,1,12,0:0:0:0:
314,156,284625,1,0,0:0:0:0:
201,149,284807,1,8,0:0:0:0:
201,149,284898,1,8,0:0:0:0:
201,149,284989,1,8,0:0:0:0:
196,111,285352,1,12,0:0:0:0:
256,192,285534,12,8,291352,0:0:0:0:
