osu file format v14

[General]
AudioFilename: audio.mp3
AudioLeadIn: 0
PreviewTime: 75807
Countdown: 0
SampleSet: Normal
StackLeniency: 0.7
Mode: 1
LetterboxInBreaks: 0
WidescreenStoryboard: 1

[Editor]
Bookmarks: 11898,23534,35171,46807,58443,70080,75898,110807,122443,134080,145716,198080,215537
DistanceSpacing: 1
BeatDivisor: 6
GridSize: 32
TimelineZoom: 1.2

[Metadata]
Title:Shirley!!
TitleUnicode:Shirley!!
Artist:iroha(sasaki)
ArtistUnicode:iroha(sasaki)
Creator:_gt
Version:Futsuu!!
Source:
Tags:featured artist mappers' guild mpg mg vmc2 vocaloid mapping contest 2 ler1211 鏡音リン kagamine rin japanese pop jpop j-pop vocaloid debutante iv
BeatmapID:4563183
BeatmapSetID:2163652

[Difficulty]
HPDrainRate:6
CircleSize:5
OverallDifficulty:4
ApproachRate:5
SliderMultiplier:1.4
SliderTickRate:1

[Events]
//Background and Video events
0,0,"16323857_p0.jpg",0,80
//Break Periods
//Storyboard Layer 0 (Background)
//Storyboard Layer 1 (Fail)
//Storyboard Layer 2 (Pass)
//Storyboard Layer 3 (Foreground)
//Storyboard Layer 4 (Overlay)
//Storyboard Sound Samples

[TimingPoints]
262,363.636363636364,4,1,0,70,1,0
11171,-100,4,1,0,80,0,0
23514,-100,4,1,0,90,0,0
35151,-100,4,1,0,80,0,0
75878,-100,4,1,0,100,0,0
75898,-100,4,1,0,100,0,1
86080,-100,4,1,0,100,0,0
87534,-100,4,1,0,100,0,1
97534,-100,4,1,0,100,0,0
97696,-100,4,1,0,80,0,0
151514,-100,4,1,0,100,0,0
151534,-100,4,1,0,100,0,1
161716,-100,4,1,0,100,0,0
163171,-100,4,1,0,100,0,1
173171,-100,4,1,0,100,0,0
173332,-100,4,1,0,80,0,0
198242,-100,4,1,0,60,0,0
203332,-100,4,1,0,70,0,0
206787,-100,4,1,0,80,0,0
215512,-100,4,1,0,100,0,0
215534,-100,4,1,0,100,0,1
225716,-100,4,1,0,100,0,0
227171,-100,4,1,0,100,0,1
237352,-100,4,1,0,100,0,0
238807,-100,4,1,0,100,0,1
248989,-100,4,1,0,100,0,0
250443,-100,4,1,0,100,0,1
260443,-100,4,1,0,100,0,0
260605,-100,4,1,0,80,0,0
285514,-100,4,1,0,50,0,0

[HitObjects]
358,142,262,5,0,0:0:0:0:
301,113,625,1,8,0:0:0:0:
301,113,989,1,0,0:0:0:0:
301,113,1352,1,8,0:0:0:0:
307,107,1534,1,8,0:0:0:0:
253,150,1716,1,0,0:0:0:0:
248,111,2080,1,8,0:0:0:0:
247,150,2262,1,0,0:0:0:0:
228,140,2625,1,0,0:0:0:0:
228,140,2807,1,8,0:0:0:0:
227,140,2989,1,8,0:0:0:0:
227,140,3171,1,0,0:0:0:0:
301,113,3534,1,8,0:0:0:0:
301,113,3898,1,0,0:0:0:0:
301,113,4262,1,8,0:0:0:0:
307,107,4443,1,8,0:0:0:0:
253,150,4625,1,0,0:0:0:0:
248,111,4989,1,8,0:0:0:0:
247,150,5171,1,0,0:0:0:0:
228,140,5534,1,0,0:0:0:0:
228,140,5716,1,8,0:0:0:0:
227,140,5898,1,8,0:0:0:0:
227,140,6080,1,0,0:0:0:0:
301,113,6443,1,8,0:0:0:0:
301,113,6807,1,0,0:0:0:0:
301,113,7171,1,8,0:0:0:0:
307,107,7352,1,8,0:0:0:0:
253,150,7534,1,0,0:0:0:0:
248,111,7898,1,8,0:0:0:0:
247,150,8080,1,0,0:0:0:0:
228,140,8443,1,0,0:0:0:0:
228,140,8625,1,8,0:0:0:0:
227,140,8807,1,8,0:0:0:0:
227,140,8989,1,0,0:0:0:0:
311,108,9352,1,8,0:0:0:0:
311,108,9716,1,0,0:0:0:0:
311,108,10080,1,8,0:0:0:0:
317,102,10262,1,8,0:0:0:0:
263,145,10443,1,0,0:0:0:0:
235,159,11171,1,0,0:0:0:0:
262,85,11352,1,8,0:0:0:0:
262,85,11534,1,8,0:0:0:0:
242,100,11898,1,4,0:0:0:0:
242,100,12262,1,0,0:0:0:0:
242,100,12625,1,8,0:0:0:0:
229,101,12807,1,0,0:0:0:0:
228,101,13171,1,0,0:0:0:0:
224,102,13534,1,0,0:0:0:0:
213,110,13716,1,8,0:0:0:0:
213,112,13898,1,0,0:0:0:0:
202,103,14262,1,0,0:0:0:0:
202,104,14443,1,0,0:0:0:0:
173,92,14807,1,8,0:0:0:0:
184,85,15171,1,8,0:0:0:0:
174,161,15534,1,0,0:0:0:0:
180,85,15716,1,8,0:0:0:0:
178,85,16080,1,8,0:0:0:0:
180,85,16443,1,8,0:0:0:0:
270,87,16625,1,0,0:0:0:0:
178,85,16807,1,8,0:0:0:0:
180,85,17171,1,8,0:0:0:0:
180,85,17352,1,8,0:0:0:0:
242,100,17716,1,4,0:0:0:0:
242,100,18080,1,0,0:0:0:0:
242,100,18443,1,8,0:0:0:0:
229,101,18625,1,0,0:0:0:0:
228,101,18989,1,0,0:0:0:0:
224,102,19352,1,0,0:0:0:0:
213,110,19534,1,8,0:0:0:0:
213,112,19716,1,0,0:0:0:0:
202,103,20080,1,0,0:0:0:0:
202,104,20262,1,0,0:0:0:0:
173,92,20625,1,8,0:0:0:0:
184,85,20989,1,8,0:0:0:0:
174,161,21352,1,0,0:0:0:0:
180,85,21534,1,8,0:0:0:0:
178,85,21898,1,8,0:0:0:0:
180,85,22262,1,8,0:0:0:0:
169,153,22443,1,0,0:0:0:0:
178,85,22625,5,8,0:0:0:0:
180,85,22989,1,8,0:0:0:0:
180,85,23171,1,8,0:0:0:0:
129,187,23534,5,4,0:0:0:0:
129,187,23898,1,8,0:0:0:0:
126,191,24262,1,0,0:0:0:0:
133,188,24443,1,8,0:0:0:0:
133,188,24625,1,8,0:0:0:0:
129,187,24807,1,0,0:0:0:0:
133,188,25534,1,0,0:0:0:0:
129,187,25716,1,8,0:0:0:0:
178,183,26080,1,0,0:0:0:0:
178,183,26262,1,0,0:0:0:0:
178,183,26443,1,8,0:0:0:0:
171,194,26807,1,8,0:0:0:0:
173,192,27171,1,0,0:0:0:0:
175,190,27352,1,0,0:0:0:0:
184,187,27716,1,8,0:0:0:0:
182,186,28080,1,0,0:0:0:0:
158,170,28262,1,8,0:0:0:0:
194,200,28625,1,8,0:0:0:0:
188,198,28807,1,0,0:0:0:0:
188,198,28989,1,8,0:0:0:0:
188,198,29171,1,8,0:0:0:0:
188,196,29352,1,4,0:0:0:0:
129,187,29716,1,8,0:0:0:0:
126,191,30080,1,0,0:0:0:0:
133,188,30262,1,8,0:0:0:0:
133,188,30443,1,8,0:0:0:0:
129,187,30625,1,0,0:0:0:0:
133,188,31352,1,0,0:0:0:0:
129,187,31534,1,8,0:0:0:0:
178,183,31898,1,0,0:0:0:0:
178,183,32080,1,0,0:0:0:0:
178,183,32262,1,12,0:0:0:0:
171,194,32625,1,8,0:0:0:0:
173,192,32807,1,4,0:0:0:0:
175,190,33171,1,0,0:0:0:0:
184,187,33352,1,12,0:0:0:0:
188,198,34625,1,4,0:0:0:0:
188,198,34807,1,8,0:0:0:0:
188,198,34989,1,8,0:0:0:0:
188,196,35171,1,4,0:0:0:0:
215,200,35534,1,0,0:0:0:0:
192,194,35716,1,0,0:0:0:0:
215,200,35898,1,8,0:0:0:0:
215,200,36262,1,0,0:0:0:0:
184,187,36625,1,0,0:0:0:0:
184,187,36989,1,8,0:0:0:0:
184,187,37171,1,8,0:0:0:0:
184,187,37898,1,0,0:0:0:0:
229,130,38080,1,8,0:0:0:0:
219,139,38443,1,8,0:0:0:0:
200,140,38625,1,8,0:0:0:0:
215,139,38807,1,0,0:0:0:0:
177,147,39171,1,0,0:0:0:0:
168,148,39534,1,8,0:0:0:0:
168,150,39898,1,0,0:0:0:0:
167,152,40080,1,0,0:0:0:0:
298,165,40807,1,0,0:0:0:0:
295,169,40989,1,8,0:0:0:0:
298,165,41352,1,0,0:0:0:0:
264,146,41716,1,8,0:0:0:0:
264,146,41898,1,8,0:0:0:0:
264,146,42080,1,0,0:0:0:0:
264,146,42262,1,8,0:0:0:0:
247,191,42625,1,0,0:0:0:0:
247,191,42807,1,8,0:0:0:0:
247,191,42989,1,8,0:0:0:0:
235,185,43352,1,0,0:0:0:0:
235,185,43534,1,8,0:0:0:0:
232,185,43898,1,0,0:0:0:0:
221,187,44443,1,0,0:0:0:0:
218,186,44625,1,8,0:0:0:0:
214,190,44989,1,0,0:0:0:0:
214,192,45352,1,12,0:0:0:0:
209,204,45898,1,0,0:0:0:0:
209,204,46443,1,0,0:0:0:0:
182,244,46807,1,12,0:0:0:0:
215,200,47171,1,0,0:0:0:0:
192,194,47352,1,0,0:0:0:0:
215,200,47534,1,8,0:0:0:0:
215,200,47898,1,0,0:0:0:0:
184,187,48262,1,8,0:0:0:0:
184,187,48625,1,0,0:0:0:0:
184,187,48807,1,0,0:0:0:0:
184,187,49534,1,8,0:0:0:0:
229,130,49716,1,0,0:0:0:0:
219,139,50080,1,8,0:0:0:0:
200,140,50262,1,8,0:0:0:0:
215,139,50443,1,0,0:0:0:0:
177,147,50807,1,8,0:0:0:0:
168,148,51171,1,0,0:0:0:0:
168,150,51534,1,8,0:0:0:0:
167,152,51716,1,8,0:0:0:0:
298,165,52443,1,0,0:0:0:0:
295,169,52625,1,8,0:0:0:0:
298,165,52989,1,0,0:0:0:0:
264,146,53352,1,8,0:0:0:0:
264,146,53534,1,0,0:0:0:0:
264,146,53716,1,0,0:0:0:0:
264,146,53898,1,8,0:0:0:0:
247,191,54262,1,0,0:0:0:0:
247,191,54443,1,0,0:0:0:0:
247,191,54625,1,8,0:0:0:0:
235,185,54807,1,8,0:0:0:0:
235,185,55171,1,0,0:0:0:0:
232,185,55352,1,8,0:0:0:0:
198,139,55716,1,0,0:0:0:0:
221,187,56080,1,8,0:0:0:0:
218,186,56262,1,8,0:0:0:0:
214,190,56625,1,0,0:0:0:0:
214,192,56989,1,12,0:0:0:0:
200,175,57352,1,0,0:0:0:0:
209,204,57534,1,0,0:0:0:0:
202,170,57898,1,8,0:0:0:0:
209,204,58080,1,8,0:0:0:0:
434,153,58443,1,4,0:0:0:0:
436,198,58807,1,8,0:0:0:0:
436,198,58989,1,8,0:0:0:0:
436,198,59352,1,0,0:0:0:0:
422,201,59534,1,0,0:0:0:0:
418,199,59898,1,8,0:0:0:0:
416,199,60262,1,0,0:0:0:0:
416,199,60443,1,0,0:0:0:0:
411,197,60807,1,8,0:0:0:0:
416,199,60989,1,8,0:0:0:0:
302,191,61352,1,0,0:0:0:0:
302,191,61534,1,8,0:0:0:0:
302,191,61898,1,0,0:0:0:0:
302,191,62080,1,0,0:0:0:0:
302,191,62443,1,8,0:0:0:0:
302,191,62625,1,8,0:0:0:0:
302,191,62989,1,0,0:0:0:0:
266,168,63352,1,8,0:0:0:0:
279,217,64443,1,0,0:0:0:0:
279,217,64625,1,8,0:0:0:0:
279,217,64989,1,8,0:0:0:0:
279,217,65171,1,0,0:0:0:0:
279,217,65352,1,8,0:0:0:0:
284,201,65716,1,12,0:0:0:0:
284,201,66080,1,0,0:0:0:0:
287,201,66262,1,0,0:0:0:0:
284,201,66625,1,8,0:0:0:0:
291,204,66807,1,8,0:0:0:0:
287,201,67171,1,4,0:0:0:0:
357,196,67534,1,8,0:0:0:0:
340,197,67898,1,8,0:0:0:0:
338,199,68262,1,0,0:0:0:0:
335,200,68443,1,0,0:0:0:0:
328,201,68625,1,12,0:0:0:0:
379,172,68989,1,0,0:0:0:0:
379,172,69171,1,0,0:0:0:0:
278,126,69534,1,8,0:0:0:0:
278,158,69898,1,8,0:0:0:0:
272,159,70080,1,4,0:0:0:0:
452,118,70443,1,8,0:0:0:0:
452,118,70807,1,0,0:0:0:0:
452,118,71171,1,8,0:0:0:0:
452,118,71352,1,8,0:0:0:0:
452,118,71898,1,0,0:0:0:0:
452,118,72262,1,8,0:0:0:0:
452,118,72625,1,0,0:0:0:0:
452,118,72807,1,0,0:0:0:0:
452,118,73352,1,8,0:0:0:0:
452,118,73716,1,0,0:0:0:0:
434,116,73898,1,8,0:0:0:0:
429,118,74080,1,0,0:0:0:0:
428,118,74262,1,0,0:0:0:0:
429,122,74443,1,12,0:0:0:0:
214,149,75171,5,8,0:0:0:0:
230,268,75898,5,12,0:0:0:0:
282,268,76262,1,0,0:0:0:0:
282,268,76443,1,0,0:0:0:0:
280,260,76625,1,8,0:0:0:0:
280,260,76989,1,0,0:0:0:0:
282,259,77171,1,0,0:0:0:0:
280,260,77534,1,8,0:0:0:0:
286,257,77716,1,8,0:0:0:0:
286,257,77898,1,0,0:0:0:0:
252,255,78625,1,0,0:0:0:0:
232,164,78807,1,8,0:0:0:0:
252,255,79171,1,8,0:0:0:0:
252,255,79352,1,0,0:0:0:0:
198,184,79534,1,8,0:0:0:0:
195,191,79898,1,0,0:0:0:0:
216,161,80080,1,0,0:0:0:0:
193,214,80443,1,8,0:0:0:0:
193,207,80625,1,0,0:0:0:0:
193,207,80807,1,0,0:0:0:0:
182,196,80989,1,8,0:0:0:0:
180,197,81352,1,0,0:0:0:0:
178,196,81534,1,0,0:0:0:0:
196,201,81716,1,12,0:0:0:0:
155,192,82080,1,0,0:0:0:0:
154,193,82262,1,8,0:0:0:0:
302,152,82443,1,0,0:0:0:0:
349,143,82807,1,8,0:0:0:0:
349,143,82989,1,8,0:0:0:0:
349,143,83171,1,0,0:0:0:0:
349,143,83534,1,8,0:0:0:0:
349,143,83716,1,8,0:0:0:0:
287,127,84625,1,0,0:0:0:0:
282,125,84807,1,8,0:0:0:0:
282,126,84989,1,0,0:0:0:0:
280,126,85352,1,8,0:0:0:0:
280,126,85534,1,8,0:0:0:0:
282,125,85716,1,8,0:0:0:0:
216,134,86080,1,12,0:0:0:0:
214,125,86262,1,0,0:0:0:0:
118,172,86443,1,0,0:0:0:0:
118,172,86625,1,8,0:0:0:0:
158,175,86989,1,0,0:0:0:0:
194,150,87171,1,8,0:0:0:0:
230,268,87534,1,12,0:0:0:0:
282,268,87898,1,0,0:0:0:0:
282,268,88080,1,0,0:0:0:0:
280,260,88262,1,8,0:0:0:0:
280,260,88625,1,0,0:0:0:0:
282,259,88807,1,0,0:0:0:0:
280,260,89171,1,8,0:0:0:0:
286,257,89352,1,0,0:0:0:0:
286,257,89534,1,8,0:0:0:0:
252,255,90262,1,0,0:0:0:0:
232,164,90443,1,0,0:0:0:0:
252,255,90807,1,8,0:0:0:0:
252,255,90989,1,8,0:0:0:0:
198,184,91171,1,0,0:0:0:0:
195,191,91534,1,8,0:0:0:0:
216,161,91716,1,0,0:0:0:0:
193,214,91898,1,8,0:0:0:0:
193,207,92262,1,0,0:0:0:0:
193,207,92443,1,0,0:0:0:0:
182,196,92625,1,8,0:0:0:0:
180,197,92807,1,8,0:0:0:0:
178,196,92989,1,0,0:0:0:0:
196,201,93352,1,12,0:0:0:0:
155,192,93716,1,0,0:0:0:0:
154,193,93898,1,0,0:0:0:0:
302,152,94080,1,8,0:0:0:0:
349,143,94443,1,0,0:0:0:0:
349,143,94625,1,8,0:0:0:0:
349,143,94807,1,0,0:0:0:0:
349,143,95171,1,0,0:0:0:0:
349,143,95352,1,8,0:0:0:0:
287,127,96262,1,8,0:0:0:0:
282,125,96443,1,0,0:0:0:0:
282,126,96625,1,0,0:0:0:0:
280,126,96989,1,8,0:0:0:0:
280,126,97171,1,0,0:0:0:0:
282,125,97352,1,0,0:0:0:0:
216,134,97534,1,12,0:0:0:0:
241,141,98443,1,0,0:0:0:0:
241,141,98625,1,8,0:0:0:0:
241,141,98807,1,8,0:0:0:0:
236,185,99171,1,4,0:0:0:0:
236,185,99534,1,8,0:0:0:0:
229,193,99898,1,0,0:0:0:0:
229,193,100080,1,0,0:0:0:0:
231,194,100262,1,8,0:0:0:0:
229,193,100989,1,8,0:0:0:0:
229,193,101352,1,0,0:0:0:0:
229,193,101534,1,0,0:0:0:0:
229,193,101716,1,8,0:0:0:0:
229,193,102443,1,8,0:0:0:0:
229,193,102807,1,0,0:0:0:0:
229,193,102989,1,0,0:0:0:0:
229,193,103171,1,8,0:0:0:0:
229,193,103898,1,8,0:0:0:0:
229,193,104262,1,0,0:0:0:0:
229,193,104443,1,0,0:0:0:0:
229,193,104625,1,8,0:0:0:0:
236,185,104989,1,4,0:0:0:0:
236,185,105352,1,8,0:0:0:0:
229,193,105716,1,0,0:0:0:0:
229,193,105898,1,0,0:0:0:0:
231,194,106080,1,8,0:0:0:0:
229,193,106807,1,8,0:0:0:0:
229,193,107171,1,0,0:0:0:0:
229,193,107352,1,0,0:0:0:0:
229,193,107534,1,8,0:0:0:0:
229,193,108262,1,8,0:0:0:0:
229,193,108625,1,0,0:0:0:0:
229,193,108807,1,0,0:0:0:0:
229,193,108989,1,8,0:0:0:0:
207,206,109352,1,4,0:0:0:0:
200,174,109716,1,8,0:0:0:0:
200,174,109898,1,4,0:0:0:0:
202,167,110262,1,8,0:0:0:0:
202,165,110443,1,4,0:0:0:0:
182,244,110807,5,12,0:0:0:0:
215,200,111171,1,0,0:0:0:0:
192,194,111352,1,0,0:0:0:0:
215,200,111534,1,8,0:0:0:0:
215,200,111898,1,0,0:0:0:0:
184,187,112262,1,8,0:0:0:0:
184,187,112625,1,0,0:0:0:0:
184,187,112807,1,0,0:0:0:0:
184,187,113534,1,8,0:0:0:0:
229,130,113716,1,0,0:0:0:0:
219,139,113898,1,0,0:0:0:0:
200,140,114080,1,8,0:0:0:0:
73,186,114625,1,0,0:0:0:0:
177,147,114807,1,0,0:0:0:0:
168,148,115171,1,8,0:0:0:0:
168,150,115534,1,0,0:0:0:0:
167,152,115716,1,8,0:0:0:0:
298,165,116443,1,0,0:0:0:0:
295,169,116625,1,8,0:0:0:0:
298,165,116989,1,0,0:0:0:0:
264,146,117352,1,8,0:0:0:0:
264,146,117534,1,0,0:0:0:0:
264,146,117716,1,0,0:0:0:0:
264,146,117898,1,8,0:0:0:0:
247,191,118262,1,0,0:0:0:0:
247,191,118443,1,8,0:0:0:0:
247,191,118625,1,8,0:0:0:0:
235,185,118989,1,0,0:0:0:0:
235,185,119171,1,8,0:0:0:0:
232,185,119534,1,0,0:0:0:0:
221,187,120080,1,0,0:0:0:0:
218,186,120262,1,8,0:0:0:0:
214,190,120625,1,0,0:0:0:0:
214,192,120989,1,12,0:0:0:0:
209,204,121534,1,8,0:0:0:0:
209,204,122080,1,0,0:0:0:0:
182,244,122443,1,12,0:0:0:0:
215,200,122807,1,0,0:0:0:0:
192,194,122989,1,0,0:0:0:0:
215,200,123171,1,8,0:0:0:0:
215,200,123534,1,0,0:0:0:0:
184,187,123898,1,8,0:0:0:0:
184,187,124262,1,0,0:0:0:0:
184,187,124443,1,0,0:0:0:0:
184,187,125171,1,0,0:0:0:0:
229,130,125352,1,8,0:0:0:0:
219,139,125716,1,0,0:0:0:0:
200,140,125898,1,0,0:0:0:0:
215,139,126080,1,8,0:0:0:0:
177,147,126443,1,0,0:0:0:0:
168,148,126807,1,0,0:0:0:0:
168,150,127171,1,8,0:0:0:0:
167,152,127352,1,8,0:0:0:0:
298,165,128080,1,0,0:0:0:0:
295,169,128262,1,8,0:0:0:0:
298,165,128625,1,0,0:0:0:0:
264,146,128989,1,8,0:0:0:0:
264,146,129171,1,0,0:0:0:0:
264,146,129352,1,0,0:0:0:0:
264,146,129534,1,8,0:0:0:0:
247,191,129898,1,0,0:0:0:0:
247,191,130080,1,8,0:0:0:0:
247,191,130262,1,8,0:0:0:0:
235,185,130625,1,0,0:0:0:0:
235,185,130807,1,8,0:0:0:0:
198,139,131171,1,0,0:0:0:0:
221,187,131716,1,0,0:0:0:0:
218,186,131898,1,8,0:0:0:0:
214,190,132262,1,0,0:0:0:0:
214,192,132625,1,12,0:0:0:0:
200,175,132989,1,0,0:0:0:0:
209,204,133171,1,0,0:0:0:0:
202,170,133534,1,8,0:0:0:0:
209,204,133716,1,8,0:0:0:0:
434,153,134080,1,4,0:0:0:0:
436,198,134443,1,8,0:0:0:0:
436,198,134625,1,8,0:0:0:0:
436,198,134989,1,0,0:0:0:0:
422,201,135171,1,8,0:0:0:0:
418,199,135534,1,0,0:0:0:0:
416,199,135898,1,8,0:0:0:0:
416,199,136080,1,0,0:0:0:0:
411,197,136443,1,8,0:0:0:0:
416,199,136625,1,8,0:0:0:0:
302,191,136989,1,0,0:0:0:0:
302,191,137171,1,0,0:0:0:0:
302,191,137352,1,8,0:0:0:0:
302,191,137534,1,8,0:0:0:0:
302,191,137898,1,0,0:0:0:0:
302,191,138080,1,0,0:0:0:0:
293,145,138262,1,8,0:0:0:0:
302,191,138625,1,0,0:0:0:0:
266,168,138989,1,8,0:0:0:0:
279,217,140080,1,0,0:0:0:0:
279,217,140262,1,8,0:0:0:0:
279,217,140625,1,0,0:0:0:0:
279,217,140807,1,0,0:0:0:0:
279,217,140989,1,0,0:0:0:0:
284,201,141352,1,12,0:0:0:0:
284,201,141716,1,0,0:0:0:0:
287,201,141898,1,8,0:0:0:0:
284,201,142262,1,0,0:0:0:0:
291,204,142443,1,0,0:0:0:0:
287,201,142807,1,12,0:0:0:0:
357,196,143171,1,0,0:0:0:0:
340,197,143534,1,0,0:0:0:0:
338,199,143898,1,8,0:0:0:0:
335,200,144080,1,8,0:0:0:0:
328,201,144262,1,4,0:0:0:0:
379,172,144625,1,8,0:0:0:0:
379,172,144807,1,8,0:0:0:0:
278,126,145171,1,0,0:0:0:0:
278,158,145534,1,0,0:0:0:0:
272,159,145716,1,12,0:0:0:0:
452,118,146080,1,0,0:0:0:0:
452,118,146443,1,8,0:0:0:0:
452,118,146807,1,0,0:0:0:0:
452,118,146989,1,0,0:0:0:0:
452,118,147534,1,8,0:0:0:0:
452,118,147898,1,0,0:0:0:0:
452,118,148262,1,8,0:0:0:0:
452,118,148443,1,8,0:0:0:0:
452,118,148989,1,0,0:0:0:0:
452,118,149352,1,8,0:0:0:0:
434,116,149534,1,0,0:0:0:0:
429,118,149716,1,0,0:0:0:0:
428,118,149898,1,0,0:0:0:0:
429,122,150080,1,12,0:0:0:0:
214,149,150807,5,8,0:0:0:0:
230,268,151534,5,12,0:0:0:0:
282,268,151898,1,0,0:0:0:0:
282,268,152080,1,0,0:0:0:0:
280,260,152262,1,8,0:0:0:0:
280,260,152625,1,0,0:0:0:0:
282,259,152807,1,0,0:0:0:0:
280,260,153171,1,8,0:0:0:0:
286,257,153352,1,0,0:0:0:0:
286,257,153534,1,8,0:0:0:0:
252,255,154262,1,0,0:0:0:0:
232,164,154443,1,0,0:0:0:0:
252,255,154807,1,8,0:0:0:0:
252,255,154989,1,8,0:0:0:0:
198,184,155171,1,0,0:0:0:0:
195,191,155534,1,8,0:0:0:0:
216,161,155716,1,8,0:0:0:0:
193,214,156080,1,0,0:0:0:0:
193,207,156262,1,0,0:0:0:0:
193,207,156443,1,0,0:0:0:0:
182,196,156625,1,8,0:0:0:0:
180,197,156989,1,0,0:0:0:0:
178,196,157171,1,0,0:0:0:0:
196,201,157352,1,12,0:0:0:0:
155,192,157716,1,0,0:0:0:0:
154,193,157898,1,8,0:0:0:0:
302,152,158080,1,0,0:0:0:0:
349,143,158443,1,8,0:0:0:0:
349,143,158625,1,8,0:0:0:0:
349,143,158807,1,0,0:0:0:0:
349,143,159171,1,8,0:0:0:0:
349,143,159352,1,8,0:0:0:0:
287,127,160262,1,0,0:0:0:0:
282,125,160443,1,0,0:0:0:0:
282,126,160625,1,8,0:0:0:0:
280,126,160989,1,0,0:0:0:0:
280,126,161171,1,0,0:0:0:0:
282,125,161352,1,0,0:0:0:0:
216,134,161716,1,12,0:0:0:0:
214,125,161898,1,0,0:0:0:0:
118,172,162080,1,0,0:0:0:0:
118,172,162262,1,8,0:0:0:0:
158,175,162625,1,0,0:0:0:0:
194,150,162807,1,0,0:0:0:0:
230,268,163171,1,12,0:0:0:0:
282,268,163534,1,0,0:0:0:0:
282,268,163716,1,0,0:0:0:0:
280,260,163898,1,8,0:0:0:0:
280,260,164262,1,0,0:0:0:0:
282,259,164443,1,0,0:0:0:0:
280,260,164807,1,8,0:0:0:0:
286,257,164989,1,8,0:0:0:0:
286,257,165171,1,0,0:0:0:0:
252,255,165898,1,8,0:0:0:0:
232,164,166080,1,0,0:0:0:0:
252,255,166443,1,8,0:0:0:0:
252,255,166625,1,8,0:0:0:0:
198,184,166807,1,0,0:0:0:0:
195,191,167171,1,8,0:0:0:0:
216,161,167352,1,8,0:0:0:0:
193,214,167534,1,8,0:0:0:0:
193,207,167898,1,0,0:0:0:0:
193,207,168080,1,8,0:0:0:0:
182,196,168262,1,8,0:0:0:0:
180,197,168443,1,8,0:0:0:0:
178,196,168625,1,0,0:0:0:0:
196,201,168989,1,12,0:0:0:0:
155,192,169352,1,8,0:0:0:0:
154,193,169534,1,8,0:0:0:0:
302,152,169716,1,0,0:0:0:0:
349,143,170080,1,8,0:0:0:0:
349,143,170262,1,8,0:0:0:0:
349,143,170443,1,8,0:0:0:0:
349,143,170807,1,0,0:0:0:0:
349,143,170989,1,8,0:0:0:0:
287,127,171898,1,0,0:0:0:0:
282,125,172080,1,8,0:0:0:0:
282,126,172262,1,0,0:0:0:0:
280,126,172625,1,8,0:0:0:0:
280,126,172807,1,0,0:0:0:0:
282,125,172989,1,0,0:0:0:0:
216,134,173171,1,12,0:0:0:0:
290,211,174080,1,0,0:0:0:0:
290,211,174262,1,8,0:0:0:0:
290,211,174443,1,8,0:0:0:0:
302,201,174807,1,12,0:0:0:0:
295,208,175171,1,0,0:0:0:0:
267,203,175534,1,0,0:0:0:0:
222,186,175898,1,0,0:0:0:0:
222,186,176080,1,8,0:0:0:0:
222,186,176262,1,8,0:0:0:0:
296,86,176625,1,0,0:0:0:0:
207,177,176989,1,0,0:0:0:0:
207,177,177352,1,0,0:0:0:0:
207,177,177534,1,8,0:0:0:0:
207,177,177716,1,8,0:0:0:0:
296,86,178080,1,0,0:0:0:0:
207,177,178443,1,0,0:0:0:0:
207,177,178807,1,0,0:0:0:0:
207,177,178989,1,8,0:0:0:0:
207,177,179171,1,8,0:0:0:0:
296,86,179534,1,0,0:0:0:0:
207,177,179898,1,0,0:0:0:0:
207,177,180262,1,0,0:0:0:0:
207,177,180443,1,8,0:0:0:0:
207,177,180625,1,12,0:0:0:0:
295,208,180989,1,0,0:0:0:0:
267,203,181352,1,0,0:0:0:0:
222,186,181716,1,0,0:0:0:0:
222,186,181898,1,8,0:0:0:0:
222,186,182080,1,8,0:0:0:0:
296,86,182443,1,0,0:0:0:0:
207,177,182807,1,0,0:0:0:0:
207,177,183171,1,0,0:0:0:0:
207,177,183352,1,8,0:0:0:0:
207,177,183534,1,8,0:0:0:0:
296,86,183898,1,0,0:0:0:0:
207,177,184262,1,0,0:0:0:0:
207,177,184625,1,0,0:0:0:0:
207,177,184807,1,8,0:0:0:0:
207,177,184989,1,8,0:0:0:0:
296,86,185352,1,0,0:0:0:0:
207,177,185716,1,0,0:0:0:0:
207,177,186080,1,0,0:0:0:0:
207,177,186262,1,8,0:0:0:0:
207,177,186443,1,12,0:0:0:0:
267,203,187171,1,0,0:0:0:0:
222,186,187534,1,0,0:0:0:0:
222,186,187716,1,8,0:0:0:0:
222,186,187898,1,8,0:0:0:0:
296,86,188262,1,0,0:0:0:0:
207,177,188625,1,0,0:0:0:0:
207,177,188989,1,0,0:0:0:0:
207,177,189171,1,8,0:0:0:0:
207,177,189352,1,8,0:0:0:0:
296,86,189716,1,0,0:0:0:0:
207,177,190080,1,0,0:0:0:0:
207,177,190443,1,0,0:0:0:0:
207,177,190625,1,8,0:0:0:0:
207,177,190807,1,8,0:0:0:0:
296,86,191171,1,0,0:0:0:0:
207,177,191534,1,0,0:0:0:0:
207,177,191898,1,0,0:0:0:0:
207,177,192080,1,8,0:0:0:0:
207,177,192262,1,12,0:0:0:0:
295,208,192625,1,0,0:0:0:0:
267,203,192989,1,0,0:0:0:0:
222,186,193352,1,0,0:0:0:0:
222,186,193534,1,8,0:0:0:0:
222,186,193716,1,8,0:0:0:0:
296,86,194080,1,0,0:0:0:0:
207,177,194443,1,0,0:0:0:0:
207,177,194807,1,0,0:0:0:0:
207,177,194989,1,8,0:0:0:0:
207,177,195171,1,8,0:0:0:0:
296,86,195534,1,0,0:0:0:0:
207,177,195898,1,0,0:0:0:0:
207,177,196262,1,0,0:0:0:0:
207,177,196443,1,0,0:0:0:0:
207,177,196625,1,12,0:0:0:0:
212,176,196989,1,12,0:0:0:0:
207,177,197352,1,12,0:0:0:0:
156,156,197716,1,0,0:0:0:0:
156,156,198080,1,12,0:0:0:0:
311,168,199534,1,0,0:0:0:0:
304,159,200989,1,8,0:0:0:0:
464,211,202443,1,0,0:0:0:0:
433,202,203898,1,12,0:0:0:0:
433,202,204625,1,0,0:0:0:0:
426,201,205352,1,8,0:0:0:0:
420,201,206080,1,0,0:0:0:0:
284,223,206807,1,12,0:0:0:0:
249,85,207171,1,0,0:0:0:0:
192,121,207534,1,0,0:0:0:0:
338,199,207898,1,12,0:0:0:0:
328,201,208262,1,12,0:0:0:0:
379,172,208625,1,0,0:0:0:0:
379,172,208807,1,0,0:0:0:0:
278,126,209171,1,8,0:0:0:0:
278,158,209534,1,8,0:0:0:0:
272,159,209716,1,4,0:0:0:0:
452,118,210080,1,8,0:0:0:0:
452,118,210443,1,0,0:0:0:0:
452,118,210807,1,8,0:0:0:0:
452,118,210989,1,8,0:0:0:0:
452,118,211534,1,0,0:0:0:0:
452,118,211898,1,8,0:0:0:0:
452,118,212262,1,0,0:0:0:0:
452,118,212443,1,0,0:0:0:0:
452,118,212989,1,8,0:0:0:0:
452,118,213352,1,0,0:0:0:0:
434,116,213534,1,8,0:0:0:0:
429,118,213716,1,0,0:0:0:0:
428,118,213898,1,0,0:0:0:0:
429,122,214080,1,12,0:0:0:0:
214,149,214807,5,8,0:0:0:0:
230,268,215534,5,12,0:0:0:0:
282,268,215898,1,0,0:0:0:0:
282,268,216080,1,0,0:0:0:0:
280,260,216262,1,8,0:0:0:0:
280,260,216625,1,0,0:0:0:0:
282,259,216807,1,0,0:0:0:0:
280,260,217171,1,8,0:0:0:0:
286,257,217352,1,0,0:0:0:0:
286,257,217534,1,8,0:0:0:0:
252,255,218262,1,0,0:0:0:0:
232,164,218443,1,0,0:0:0:0:
252,255,218807,1,8,0:0:0:0:
252,255,218989,1,8,0:0:0:0:
198,184,219171,1,0,0:0:0:0:
195,191,219534,1,8,0:0:0:0:
216,161,219716,1,8,0:0:0:0:
193,214,220080,1,0,0:0:0:0:
193,207,220262,1,8,0:0:0:0:
193,207,220443,1,8,0:0:0:0:
182,196,220625,1,0,0:0:0:0:
180,197,220989,1,8,0:0:0:0:
178,196,221171,1,0,0:0:0:0:
196,201,221352,1,12,0:0:0:0:
155,192,221716,1,0,0:0:0:0:
154,193,221898,1,8,0:0:0:0:
302,152,222080,1,0,0:0:0:0:
349,143,222443,1,8,0:0:0:0:
349,143,222625,1,8,0:0:0:0:
349,143,222807,1,0,0:0:0:0:
349,143,223171,1,8,0:0:0:0:
349,143,223352,1,8,0:0:0:0:
287,127,224262,1,0,0:0:0:0:
282,125,224443,1,8,0:0:0:0:
282,126,224625,1,0,0:0:0:0:
280,126,224989,1,8,0:0:0:0:
280,126,225171,1,8,0:0:0:0:
282,125,225352,1,0,0:0:0:0:
216,134,225716,1,12,0:0:0:0:
214,125,225898,1,0,0:0:0:0:
118,172,226080,1,0,0:0:0:0:
118,172,226262,1,8,0:0:0:0:
158,175,226625,1,0,0:0:0:0:
194,150,226807,1,0,0:0:0:0:
230,268,227171,1,12,0:0:0:0:
282,268,227534,1,0,0:0:0:0:
282,268,227716,1,0,0:0:0:0:
280,260,227898,1,8,0:0:0:0:
280,260,228262,1,0,0:0:0:0:
282,259,228443,1,0,0:0:0:0:
280,260,228807,1,8,0:0:0:0:
286,257,228989,1,8,0:0:0:0:
286,257,229171,1,0,0:0:0:0:
252,255,229898,1,8,0:0:0:0:
232,164,230080,1,0,0:0:0:0:
252,255,230443,1,8,0:0:0:0:
252,255,230625,1,8,0:0:0:0:
198,184,230807,1,8,0:0:0:0:
195,191,231171,1,0,0:0:0:0:
216,161,231352,1,0,0:0:0:0:
193,214,231534,1,8,0:0:0:0:
193,207,231898,1,0,0:0:0:0:
193,207,232080,1,0,0:0:0:0:
182,196,232262,1,8,0:0:0:0:
180,197,232443,1,8,0:0:0:0:
178,196,232625,1,0,0:0:0:0:
196,201,232989,1,12,0:0:0:0:
155,192,233352,1,0,0:0:0:0:
154,193,233534,1,0,0:0:0:0:
302,152,233716,1,8,0:0:0:0:
349,143,234080,1,0,0:0:0:0:
349,143,234262,1,0,0:0:0:0:
349,143,234443,1,0,0:0:0:0:
349,143,234807,1,8,0:0:0:0:
349,143,234989,1,0,0:0:0:0:
287,127,235898,1,0,0:0:0:0:
282,125,236080,1,0,0:0:0:0:
282,126,236262,1,8,0:0:0:0:
280,126,236625,1,0,0:0:0:0:
280,126,236807,1,8,0:0:0:0:
282,125,236989,1,0,0:0:0:0:
213,165,237171,1,0,0:0:0:0:
216,134,237352,1,12,0:0:0:0:
204,159,237898,1,4,0:0:0:0:
207,149,238443,1,4,0:0:0:0:
230,268,238807,5,12,0:0:0:0:
282,268,239171,1,0,0:0:0:0:
282,268,239352,1,0,0:0:0:0:
280,260,239534,1,8,0:0:0:0:
280,260,239898,1,0,0:0:0:0:
282,259,240080,1,0,0:0:0:0:
280,260,240443,1,8,0:0:0:0:
286,257,240625,1,8,0:0:0:0:
286,257,240807,1,0,0:0:0:0:
252,255,241534,1,8,0:0:0:0:
232,164,241716,1,0,0:0:0:0:
252,255,242080,1,8,0:0:0:0:
252,255,242262,1,8,0:0:0:0:
198,184,242443,1,8,0:0:0:0:
195,191,242807,1,0,0:0:0:0:
216,161,242989,1,8,0:0:0:0:
193,214,243352,1,0,0:0:0:0:
193,207,243534,1,8,0:0:0:0:
193,207,243716,1,8,0:0:0:0:
182,196,243898,1,0,0:0:0:0:
180,197,244262,1,0,0:0:0:0:
178,196,244443,1,0,0:0:0:0:
196,201,244625,1,12,0:0:0:0:
155,192,244989,1,0,0:0:0:0:
154,193,245171,1,0,0:0:0:0:
302,152,245352,1,8,0:0:0:0:
349,143,245716,1,0,0:0:0:0:
349,143,245898,1,8,0:0:0:0:
349,143,246080,1,0,0:0:0:0:
349,143,246443,1,8,0:0:0:0:
349,143,246625,1,8,0:0:0:0:
287,127,247534,1,0,0:0:0:0:
282,125,247716,1,0,0:0:0:0:
282,126,247898,1,8,0:0:0:0:
280,126,248262,1,0,0:0:0:0:
280,126,248443,1,8,0:0:0:0:
282,125,248625,1,0,0:0:0:0:
216,134,248989,1,12,0:0:0:0:
214,125,249171,1,0,0:0:0:0:
118,172,249352,1,0,0:0:0:0:
118,172,249534,1,8,0:0:0:0:
158,175,249898,1,0,0:0:0:0:
194,150,250080,1,0,0:0:0:0:
230,268,250443,1,12,0:0:0:0:
282,268,250807,1,0,0:0:0:0:
282,268,250989,1,0,0:0:0:0:
280,260,251171,1,8,0:0:0:0:
280,260,251534,1,0,0:0:0:0:
282,259,251716,1,0,0:0:0:0:
280,260,252080,1,8,0:0:0:0:
286,257,252262,1,8,0:0:0:0:
286,257,252443,1,0,0:0:0:0:
252,255,253171,1,0,0:0:0:0:
232,164,253352,1,0,0:0:0:0:
252,255,253716,1,8,0:0:0:0:
252,255,253898,1,8,0:0:0:0:
198,184,254080,1,0,0:0:0:0:
195,191,254443,1,8,0:0:0:0:
216,161,254625,1,0,0:0:0:0:
193,214,254807,1,8,0:0:0:0:
193,207,255171,1,0,0:0:0:0:
193,207,255352,1,0,0:0:0:0:
182,196,255534,1,8,0:0:0:0:
180,197,255716,1,8,0:0:0:0:
178,196,255898,1,0,0:0:0:0:
196,201,256262,1,12,0:0:0:0:
155,192,256625,1,0,0:0:0:0:
154,193,256807,1,0,0:0:0:0:
302,152,256989,1,8,0:0:0:0:
349,143,257352,1,0,0:0:0:0:
349,143,257534,1,0,0:0:0:0:
349,143,257716,1,0,0:0:0:0:
349,143,258080,1,8,0:0:0:0:
349,143,258262,1,0,0:0:0:0:
287,127,259171,1,0,0:0:0:0:
282,125,259352,1,0,0:0:0:0:
282,126,259534,1,8,0:0:0:0:
280,126,259898,1,0,0:0:0:0:
282,125,260080,1,8,0:0:0:0:
280,126,260262,1,8,0:0:0:0:
216,134,260443,1,4,0:0:0:0:
171,243,261352,1,0,0:0:0:0:
171,243,261534,1,8,0:0:0:0:
171,243,261716,1,8,0:0:0:0:
242,100,262080,1,4,0:0:0:0:
242,100,262443,1,0,0:0:0:0:
242,100,262807,1,8,0:0:0:0:
229,101,262989,1,0,0:0:0:0:
228,101,263352,1,0,0:0:0:0:
224,102,263716,1,0,0:0:0:0:
213,110,263898,1,8,0:0:0:0:
213,112,264080,1,0,0:0:0:0:
202,103,264443,1,0,0:0:0:0:
202,104,264625,1,0,0:0:0:0:
173,92,264989,1,8,0:0:0:0:
184,85,265352,1,8,0:0:0:0:
174,161,265716,1,0,0:0:0:0:
180,85,265898,1,8,0:0:0:0:
178,85,266262,1,8,0:0:0:0:
180,85,266625,1,8,0:0:0:0:
169,153,266807,1,0,0:0:0:0:
178,85,266989,1,8,0:0:0:0:
180,85,267352,1,8,0:0:0:0:
180,85,267534,1,8,0:0:0:0:
242,100,267898,1,4,0:0:0:0:
242,100,268262,1,0,0:0:0:0:
242,100,268625,1,8,0:0:0:0:
229,101,268807,1,0,0:0:0:0:
228,101,269171,1,0,0:0:0:0:
224,102,269534,1,0,0:0:0:0:
213,110,269716,1,8,0:0:0:0:
213,112,269898,1,0,0:0:0:0:
202,103,270262,1,0,0:0:0:0:
202,104,270443,1,0,0:0:0:0:
173,92,270807,1,8,0:0:0:0:
184,85,271171,1,8,0:0:0:0:
174,161,271534,1,0,0:0:0:0:
180,85,271716,1,8,0:0:0:0:
178,85,272080,1,0,0:0:0:0:
180,85,272262,1,12,0:0:0:0:
193,158,272807,1,4,0:0:0:0:
193,158,273352,1,12,0:0:0:0:
179,159,273716,1,4,0:0:0:0:
163,182,274262,1,8,0:0:0:0:
222,149,274625,1,0,0:0:0:0:
222,149,274807,1,0,0:0:0:0:
217,147,275171,1,8,0:0:0:0:
178,143,276080,1,0,0:0:0:0:
178,143,276262,1,0,0:0:0:0:
178,143,276443,1,8,0:0:0:0:
173,136,277171,1,0,0:0:0:0:
173,136,277534,1,8,0:0:0:0:
173,136,277716,1,8,0:0:0:0:
173,136,278080,1,0,0:0:0:0:
159,147,278625,1,8,0:0:0:0:
148,154,278989,1,0,0:0:0:0:
147,153,279171,1,8,0:0:0:0:
147,152,279352,1,8,0:0:0:0:
147,152,279534,1,4,0:0:0:0:
220,168,280080,1,8,0:0:0:0:
234,165,280443,1,0,0:0:0:0:
234,165,280625,1,0,0:0:0:0:
235,151,280989,1,8,0:0:0:0:
229,150,281352,1,0,0:0:0:0:
231,152,281534,1,0,0:0:0:0:
230,153,281898,1,8,0:0:0:0:
229,150,282080,1,8,0:0:0:0:
225,154,282262,1,0,0:0:0:0:
217,162,282443,1,0,0:0:0:0:
216,163,282989,1,8,0:0:0:0:
218,158,283171,1,8,0:0:0:0:
211,159,283534,1,0,0:0:0:0:
211,159,283716,1,12,0:0:0:0:
194,212,284625,1,0,0:0:0:0:
180,206,284807,1,8,0:0:0:0:
181,260,284989,1,8,0:0:0:0:
164,210,285352,1,4,0:0:0:0:
256,192,285716,12,0,291352,0:0:0:0:
