osu file format v14

[General]
AudioFilename: audio.mp3
AudioLeadIn: 0
PreviewTime: 136960
Countdown: 0
SampleSet: Soft
StackLeniency: 0.8
Mode: 0
LetterboxInBreaks: 0
WidescreenStoryboard: 0

[Editor]
Bookmarks: 7720,25000,38440,53800,71080,92200,107560,122920,138280,153640,168520
DistanceSpacing: 1
BeatDivisor: 4
GridSize: 32
TimelineZoom: 1

[Metadata]
Title:Lost My Mind
TitleUnicode:Lost My Mind
Artist:inverness & William Bolton
ArtistUnicode:inverness & William Bolton
Creator:Tycani
Version:oyu's normal
Source:
Tags:fuiba fuyu oyu narrative english pop electronic indie dance monstercat instinct 2020 edm
BeatmapID:3185399
BeatmapSetID:1485982

[Difficulty]
HPDrainRate:3
CircleSize:3
OverallDifficulty:4.5
ApproachRate:5
SliderMultiplier:1
SliderTickRate:1

[Events]
//Background and Video events
0,0,"inverness & William Bolton - Lost My Mind (Desktop Wallpaper).jpg",0,0
//Break Periods
2,123120,129280
//Storyboard Layer 0 (Background)
//Storyboard Layer 1 (Fail)
//Storyboard Layer 2 (Pass)
//Storyboard Layer 3 (Foreground)
//Storyboard Layer 4 (Overlay)
//Storyboard Sound Samples

[TimingPoints]
40,480,4,2,2,65,1,0
19240,-100,4,2,1,70,0,0
24520,-100,4,2,2,60,0,0
31240,-100,4,2,2,60,0,0
38440,-100,4,2,1,65,0,0
38920,-100,4,2,1,65,0,0
46120,-100,4,2,1,60,0,0
52840,-100,4,2,1,100,0,0
53800,-100,4,2,1,80,0,1
66520,-100,4,2,1,90,0,1
68200,-100,4,2,1,60,0,0
68680,-100,4,2,1,80,0,0
70600,-100,4,2,2,60,0,0
84520,-100,4,2,1,65,0,0
85000,-100,4,2,1,65,0,0
106600,-100,4,2,1,60,0,0
107560,-100,4,2,1,90,0,1
121480,-100,4,2,1,80,0,0
122440,-100,4,2,1,80,0,0
122920,-100,4,2,1,100,0,0
130600,-100,4,2,1,65,0,0
138280,-100,4,2,1,80,0,1
151000,-100,4,2,1,90,0,1
152200,-100,4,2,1,90,0,0
152680,-100,4,2,1,70,0,0
153640,-100,4,2,1,60,0,0
155080,-100,4,2,1,100,0,0
155560,-100,4,2,1,90,0,1
167560,-100,4,2,1,75,0,0

[Colours]
Combo1 : 197,160,35
Combo2 : 192,192,192
Combo3 : 128,128,128

[HitObjects]
421,184,7720,6,0,L|402:77,2,100,2|10|2,0:0|0:0|0:0,0:0:0:0:
394,227,8920,1,0,0:0:0:0:
394,227,9160,2,0,P|364:216|334:211,1,50,10|0,0:0|0:0,0:0:0:0:
296,214,9640,1,2,0:0:0:0:
233,291,10120,2,0,P|203:302|173:307,1,50,10|0,0:0|0:0,0:0:0:0:
135,304,10600,1,2,0:0:0:0:
50,250,11080,2,0,L|39:192,1,50,10|0,0:0|0:0,0:0:0:0:
66,157,11560,6,0,L|47:50,2,100,2|10|2,0:0|0:0|0:0,0:0:0:0:
111,188,12760,1,0,0:0:0:0:
111,188,13000,2,0,P|141:199|171:204,1,50,10|0,0:0|0:0,0:0:0:0:
209,201,13480,1,2,0:0:0:0:
272,124,13960,2,0,P|302:113|332:108,1,50,10|0,0:0|0:0,0:0:0:0:
370,111,14440,1,2,0:0:0:0:
455,162,14920,2,0,L|463:211,1,50,10|0,0:0|0:0,0:0:0:0:
447,258,15400,6,0,P|409:220|355:221,1,100,0|10,1:0|0:0,0:0:0:0:
323,245,16120,1,0,0:0:0:0:
252,315,16600,1,0,0:0:0:0:
252,315,16840,2,0,L|199:305,1,50,10|0,0:0|0:0,0:0:0:0:
153,299,17320,1,0,0:0:0:0:
57,270,17800,2,0,P|50:245|46:221,1,50,10|0,0:0|0:0,0:0:0:0:
74,179,18280,2,0,P|80:154|84:130,1,50
58,87,18760,1,10,0:0:0:0:
150,48,19240,6,0,P|189:69|199:126,1,100,10|10,0:0|0:0,0:0:0:0:
188,168,19960,2,0,L|240:158,1,50,0|8,1:0|0:0,0:0:0:0:
287,181,20440,1,2,0:0:0:0:
287,181,20680,2,0,L|339:171,1,50,10|2,0:0|1:2,0:0:0:0:
373,139,21160,1,10,0:0:0:0:
457,193,21640,1,10,0:0:0:0:
400,275,22120,1,10,0:0:0:0:
444,364,22600,2,0,L|496:373,1,50,10|0,0:0|0:0,0:0:0:0:
459,155,24520,6,0,P|488:180|475:252,2,100
361,130,25960,2,0,L|259:112,1,100
168,146,26920,1,0,0:0:0:0:
104,68,27400,1,0,0:0:0:0:
41,257,28360,6,0,P|12:232|25:160,2,100
139,274,29800,2,0,L|240:256,1,100
317,316,30760,1,0,1:0:0:0:
414,285,31240,1,8,0:0:0:0:
414,285,31480,2,0,P|421:265|427:234,1,50,0|0,1:0|0:0,0:0:0:0:
386,145,32200,6,0,B|485:126,2,100,8|0|8,0:0|0:0|0:0,0:0:0:0:
352,182,33400,1,0,0:0:0:0:
352,182,33640,2,0,L|300:192,1,50,0|0,0:0|1:0,0:0:0:0:
258,167,34120,1,8,3:2:0:0:
173,220,34600,1,0,1:0:0:0:
83,187,35080,1,8,0:0:0:0:
83,187,35320,2,0,P|76:207|70:238,1,50,0|0,1:0|0:0,0:0:0:0:
104,329,36040,6,0,B|0:346,2,100,8|0|8,0:0|0:0|0:0,0:0:0:0:
158,337,37240,1,0,0:0:0:0:
158,337,37480,2,0,L|220:326,1,50,0|2,0:0|1:3,0:0:0:0:
247,299,37960,1,8,0:0:0:0:
301,214,38440,5,0,1:0:0:0:
224,157,38920,1,10,0:0:0:0:
224,157,39160,2,0,L|119:176,1,100,2|2,1:2|0:0,0:0:0:0:
85,144,39880,1,10,0:0:0:0:
119,50,40360,1,0,0:0:0:0:
218,63,40840,2,0,L|276:51,1,50,10|2,0:0|1:2,0:0:0:0:
316,42,41320,2,0,P|349:68|351:130,1,100,2|10,0:0|3:2,0:0:0:0:
323,163,42040,1,2,3:2:0:0:
323,163,42280,5,0,1:0:0:0:
371,256,42760,1,10,0:0:0:0:
371,256,43000,2,0,L|256:277,1,100,2|2,1:2|0:0,0:0:0:0:
231,245,43720,1,10,0:0:0:0:
138,283,44200,2,0,P|104:258|102:190,1,100,0|8,0:0|0:0,0:0:0:0:
123,162,44920,2,0,L|231:141,1,100,0|2,1:0|1:2,0:0:0:0:
270,132,45640,1,10,0:0:0:0:
358,179,46120,6,0,P|395:172|427:153,2,75,2|2|2,1:2|0:0|0:0,0:0:0:0:
317,209,47080,2,0,L|298:312,1,100,2|8,0:0|0:0,0:0:0:0:
202,279,48040,2,0,P|165:286|132:304,2,75,2|2|2,0:0|0:0|0:0,0:0:0:0:
246,256,49000,2,0,L|265:157,1,100,2|8,0:0|0:0,0:0:0:0:
238,122,49720,1,10,0:0:0:0:
238,122,49960,6,0,L|176:131,1,50,8|8,1:2|0:0,0:0:0:0:
138,136,50440,1,8,0:0:0:0:
150,36,50920,2,0,L|212:27,1,50,8|8,1:2|0:0,0:0:0:0:
249,23,51400,1,8,0:0:0:0:
342,59,51880,1,8,1:2:0:0:
409,133,52360,2,0,P|437:119|474:115,1,50,8|8,1:2|0:0,0:0:0:0:
504,126,52840,1,0,1:0:0:0:
386,251,53800,5,6,1:2:0:0:
386,251,54040,1,2,0:0:0:0:
386,251,54280,2,0,P|339:224|288:240,1,100,10|2,0:0|0:3,0:0:0:0:
254,219,55000,1,2,1:2:0:0:
254,219,55240,2,0,L|243:160,1,50,10|2,0:0|3:2,0:0:0:0:
234,120,55720,1,0,1:0:0:0:
140,102,56200,1,10,0:0:0:0:
140,102,56440,2,0,L|130:156,1,50,2|2,1:2|0:0,0:0:0:0:
95,186,56920,1,2,1:2:0:0:
95,186,57160,2,0,L|85:240,1,50,10|2,0:0|0:0,0:0:0:0:
86,292,57640,5,2,1:2:0:0:
86,292,57880,1,2,0:0:0:0:
86,292,58120,2,0,P|110:283|144:280,1,50,10|0,0:0|0:0,0:0:0:0:
223,336,58840,1,2,1:2:0:0:
223,336,59080,2,0,L|233:277,1,50,10|2,0:0|3:2,0:0:0:0:
241,237,59560,1,0,1:0:0:0:
340,212,60040,1,10,0:0:0:0:
340,212,60280,2,0,L|350:153,1,50,2|2,1:2|0:0,0:0:0:0:
397,144,60760,1,2,0:0:0:0:
397,144,61000,2,0,L|407:85,1,50,10|2,0:0|1:2,0:0:0:0:
419,53,61480,5,6,1:2:0:0:
419,53,61720,1,2,0:0:0:0:
419,53,61960,2,0,P|394:34|369:27,1,50,10|0,0:0|0:0,0:0:0:0:
292,80,62680,1,2,1:2:0:0:
292,80,62920,2,0,P|267:99|242:106,1,50,10|2,0:0|3:2,0:0:0:0:
200,95,63400,1,0,1:0:0:0:
110,133,63880,1,10,0:0:0:0:
110,133,64120,2,0,L|99:190,1,50,2|2,1:2|0:0,0:0:0:0:
61,210,64600,1,2,1:2:0:0:
61,210,64840,2,0,L|50:267,1,50,10|2,0:0|0:0,0:0:0:0:
50,316,65320,5,2,1:2:0:0:
50,316,65560,1,2,0:0:0:0:
50,316,65800,2,0,P|72:332|96:341,1,50,10|0,0:0|0:0,0:0:0:0:
184,295,66520,1,2,1:2:0:0:
184,295,66760,2,0,P|206:279|230:270,1,50,10|2,0:0|0:0,0:0:0:0:
276,277,67240,1,0,1:0:0:0:
337,197,67720,1,8,0:0:0:0:
434,219,68200,2,0,L|443:165,1,50,2|2,0:0|0:0,0:0:0:0:
451,120,68680,1,10,0:0:0:0:
362,333,70600,6,0,L|477:357,2,100,10|2|10,0:0|0:0|0:0,0:0:0:0:
316,344,71800,1,2,0:0:0:0:
316,344,72040,2,0,P|275:323|263:263,1,100,0|8,0:0|0:0,0:0:0:0:
296,180,73000,2,0,P|258:157|191:146,1,100,2|10,0:0|0:0,0:0:0:0:
122,203,73960,1,2,0:0:0:0:
27,169,74440,6,0,L|9:281,2,100,10|2|10,0:0|0:0|0:0,0:0:0:0:
41,123,75640,1,2,0:0:0:0:
41,123,75880,2,0,P|100:78|178:110,1,150,2|0,0:0|0:0,0:0:0:0:
184,145,76840,1,2,1:2:0:0:
267,88,77320,1,8,0:0:0:0:
267,88,77560,1,0,1:0:0:0:
366,121,78040,1,2,0:0:0:0:
366,121,78280,6,0,P|390:79|397:21,2,100,10|2|10,0:0|0:0|0:0,0:0:0:0:
327,152,79480,1,2,0:0:0:0:
327,152,79720,2,0,L|352:260,1,100,2|10,0:0|3:2,0:0:0:0:
297,335,80680,2,0,P|262:295|204:302,1,100,2|8,1:2|0:0,0:0:0:0:
178,324,81400,1,0,1:0:0:0:
85,353,81880,5,2,0:0:0:0:
85,353,82120,2,0,L|69:290,1,50,10|2,0:0|0:0,0:0:0:0:
58,256,82600,1,2,0:0:0:0:
90,161,83080,2,0,P|116:150|145:144,1,50,10|2,0:0|1:2,0:0:0:0:
183,125,83560,2,0,P|228:140|282:143,1,100,0|8,1:0|0:0,0:0:0:0:
353,74,84520,5,0,1:0:0:0:
442,129,85000,1,10,0:0:0:0:
442,129,85240,2,0,L|424:236,1,100,2|2,1:2|0:0,0:0:0:0:
448,272,85960,1,10,0:0:0:0:
392,354,86440,1,0,0:0:0:0:
309,307,86920,1,10,0:0:0:0:
309,307,87160,2,0,P|269:290|203:284,1,100,2|2,1:2|1:3,0:0:0:0:
165,297,87880,1,10,3:2:0:0:
96,369,88360,5,0,1:0:0:0:
13,321,88840,1,10,0:0:0:0:
13,321,89080,2,0,L|32:220,1,100,2|2,1:2|0:0,0:0:0:0:
43,177,89800,1,10,0:0:0:0:
43,177,90040,2,0,P|71:162|152:233,1,150,2|8,0:0|0:0,0:0:0:0:
334,49,92200,6,0,L|440:64,2,100,6|10|2,0:0|0:0|0:0,0:0:0:0:
242,8,93640,1,10,0:0:0:0:
167,74,94120,2,0,L|61:89,2,100,2|10|2,0:0|0:0|0:0,0:0:0:0:
241,140,95560,1,10,0:0:0:0:
155,191,96040,6,0,P|138:233|130:292,1,100,2|10,0:0|0:0,0:0:0:0:
211,354,97000,2,0,L|272:342,1,50,2|0,0:0|0:0,0:0:0:0:
307,359,97480,1,10,0:0:0:0:
358,273,97960,1,2,0:0:0:0:
274,217,98440,1,10,0:0:0:0:
340,142,98920,2,0,L|403:154,1,50,2|0,0:0|0:0,0:0:0:0:
429,180,99400,1,10,0:0:0:0:
506,116,99880,6,0,P|495:63|465:27,1,100,14|10,1:2|0:0,0:0:0:0:
416,20,100600,1,0,0:0:0:0:
325,55,101080,1,2,0:0:0:0:
325,55,101320,2,0,P|294:45|268:42,1,50,10|2,0:0|0:0,0:0:0:0:
228,55,101800,1,8,0:0:0:0:
146,111,102280,1,10,0:0:0:0:
146,111,102520,2,0,L|138:165,1,50,2|10,0:0|0:0,0:0:0:0:
99,190,103000,1,2,0:0:0:0:
99,190,103240,2,0,L|91:244,1,50,10|2,0:0|1:3,0:0:0:0:
82,288,103720,6,0,P|106:316|172:330,1,100,8|8,1:2|0:0,0:0:0:0:
212,314,104440,1,0,1:0:0:0:
310,351,104920,1,0,1:0:0:0:
310,351,105160,2,0,P|332:338|361:334,1,50,8|0,0:0|1:0,0:0:0:0:
403,350,105640,1,8,0:0:0:0:
422,251,106120,2,0,L|432:193,1,50,8|8,0:0|0:0,0:0:0:0:
439,152,106600,1,0,1:2:0:0:
262,86,107560,5,6,1:2:0:0:
262,86,107800,2,0,L|273:135,1,50,2|8,0:0|0:0,0:0:0:0:
288,187,108280,1,2,0:0:0:0:
288,187,108520,1,2,0:0:0:0:
359,256,109000,1,10,0:0:0:0:
296,334,109480,2,0,P|267:323|238:319,1,50,2|2,1:2|0:0,0:0:0:0:
203,296,109960,2,0,P|178:300|155:310,1,50,10|2,0:0|1:2,0:0:0:0:
115,340,110440,1,2,0:0:0:0:
37,276,110920,1,10,0:1:0:0:
97,197,111400,5,2,1:2:0:0:
97,197,111640,2,0,L|88:147,1,50,2|8,0:0|0:0,0:0:0:0:
80,102,112120,1,2,0:0:0:0:
80,102,112360,1,2,0:0:0:0:
148,28,112840,1,10,0:0:0:0:
239,67,113320,1,2,1:0:0:0:
341,54,113800,1,10,0:0:0:0:
341,54,114040,2,0,L|331:106,1,50,2|2,1:2|0:0,0:0:0:0:
359,151,114520,1,2,1:2:0:0:
359,151,114760,2,0,L|349:203,1,50,10|2,0:0|0:0,0:0:0:0:
345,253,115240,5,6,1:2:0:0:
345,253,115480,2,0,P|368:266|398:273,1,50,2|8,0:0|0:0,0:0:0:0:
444,267,115960,1,2,0:0:0:0:
444,267,116200,1,2,0:0:0:0:
408,360,116680,1,10,0:0:0:0:
312,331,117160,2,0,L|252:341,1,50,2|2,1:2|0:0,0:0:0:0:
216,318,117640,2,0,L|156:329,1,50,10|2,0:0|1:2,0:0:0:0:
117,334,118120,1,2,0:0:0:0:
44,265,118600,1,10,0:1:0:0:
100,183,119080,5,2,1:2:0:0:
100,183,119320,2,0,P|128:174|156:169,1,50,2|8,0:0|0:0,0:0:0:0:
202,179,119800,1,2,0:0:0:0:
202,179,120040,1,2,0:0:0:0:
274,247,120520,1,10,0:0:0:0:
363,203,121000,1,2,1:0:0:0:
423,282,121480,1,8,0:0:0:0:
505,226,121960,2,0,L|495:166,1,50,0|0,1:0|0:0,0:0:0:0:
463,139,122440,2,0,L|453:79,1,50,0|0,1:0|0:0,0:0:0:0:
445,40,122920,1,0,1:0:0:0:
136,272,130600,6,0,P|186:254|246:242,1,100,12|8,1:2|0:0,0:0:0:0:
280,257,131320,2,0,L|290:316,1,50,0|0,0:0|1:0,0:0:0:0:
361,374,132040,1,8,0:0:0:0:
381,276,132520,2,0,L|401:157,1,100,0|8,1:0|0:0,0:0:0:0:
390,127,133240,2,0,P|417:117|451:112,1,50,8|0,0:0|1:0,0:0:0:0:
506,40,133960,1,8,0:0:0:0:
412,3,134440,6,0,P|386:7|355:20,1,50,8|0,1:2|0:0,0:0:0:0:
330,52,134920,1,8,1:2:0:0:
256,119,135400,2,0,P|227:131|195:137,1,50,8|0,1:2|0:0,0:0:0:0:
158,130,135880,1,8,1:2:0:0:
61,105,136360,2,0,L|50:163,1,50,8|8,1:2|1:2,0:0:0:0:
67,202,136840,2,0,L|56:260,1,50,8|8,1:2|1:2,0:0:0:0:
48,300,137320,1,0,1:0:0:0:
275,371,138280,5,6,1:2:0:0:
275,371,138520,1,2,0:0:0:0:
275,371,138760,2,0,P|303:340|287:272,1,100,10|2,0:0|0:3,0:0:0:0:
262,258,139480,1,2,1:2:0:0:
262,258,139720,2,0,L|195:246,1,50,10|2,0:0|3:2,0:0:0:0:
163,237,140200,1,0,1:0:0:0:
144,143,140680,1,8,0:0:0:0:
144,143,140920,2,0,L|210:131,1,50,2|2,1:2|0:0,0:0:0:0:
235,106,141400,1,2,1:2:0:0:
235,106,141640,2,0,L|301:94,1,50,10|2,0:0|0:0,0:0:0:0:
341,96,142120,5,2,1:2:0:0:
341,96,142360,1,2,0:0:0:0:
341,96,142600,2,0,P|355:122|363:156,1,50,10|0,0:0|0:0,0:0:0:0:
356,245,143320,1,2,1:2:0:0:
356,245,143560,2,0,L|422:256,1,50,10|2,0:0|3:2,0:0:0:0:
454,263,144040,1,0,1:0:0:0:
409,354,144520,1,10,0:0:0:0:
409,354,144760,2,0,L|342:365,1,50,2|2,1:2|0:0,0:0:0:0:
323,337,145240,1,2,1:2:0:0:
323,337,145480,2,0,L|256:348,1,50,10|2,0:0|0:0,0:0:0:0:
231,357,145960,5,6,1:2:0:0:
231,357,146200,1,2,0:0:0:0:
231,357,146440,2,0,P|215:334|205:307,1,50,10|0,0:0|0:0,0:0:0:0:
242,222,147160,1,2,1:2:0:0:
242,222,147400,2,0,P|258:199|268:172,1,50,10|2,0:0|3:2,0:0:0:0:
252,130,147880,1,0,1:0:0:0:
291,40,148360,1,10,0:0:0:0:
291,40,148600,2,0,L|339:48,1,50,2|2,1:2|0:0,0:0:0:0:
382,84,149080,1,2,1:2:0:0:
382,84,149320,2,0,L|430:92,1,50,10|2,0:0|0:0,0:0:0:0:
488,110,149800,5,2,1:2:0:0:
488,110,150040,1,2,0:0:0:0:
488,110,150280,2,0,P|501:135|507:162,1,50,10|0,0:0|0:0,0:0:0:0:
436,227,151000,1,2,1:2:0:0:
436,227,151240,2,0,P|423:252|417:279,1,50,10|2,0:0|0:0,0:0:0:0:
429,321,151720,1,0,1:0:0:0:
337,356,152200,1,8,0:0:0:0:
337,356,152440,2,0,L|282:345,1,50,2|2,1:2|0:0,0:0:0:0:
243,361,152920,1,2,0:0:0:0:
243,361,153160,2,0,L|188:350,1,50,10|2,0:0|0:0,0:0:0:0:
28,182,155080,5,10,0:0:0:0:
76,94,155560,2,0,P|100:82|128:77,1,50,6|2,1:2|0:0,0:0:0:0:
166,53,156040,2,0,P|190:58|212:69,1,50,10|2,0:0|1:2,0:0:0:0:
239,111,156520,1,2,0:0:0:0:
261,208,157000,1,10,0:1:0:0:
174,254,157480,5,2,1:2:0:0:
174,254,157720,2,0,L|119:243,1,50,2|8,0:0|0:0,0:0:0:0:
79,239,158200,1,2,0:0:0:0:
79,239,158440,1,2,0:0:0:0:
21,321,158920,1,10,0:0:0:0:
105,373,159400,1,2,1:0:0:0:
168,296,159880,1,8,0:0:0:0:
168,296,160120,2,0,L|223:285,1,50,2|2,1:2|0:0,0:0:0:0:
269,304,160600,1,2,1:2:0:0:
269,304,160840,2,0,L|324:293,1,50,10|2,0:0|0:0,0:0:0:0:
367,276,161320,5,6,1:2:0:0:
367,276,161560,2,0,P|384:299|395:330,1,50,2|10,0:0|0:0,0:0:0:0:
389,372,162040,1,2,0:0:0:0:
389,372,162280,1,2,0:0:0:0:
477,325,162760,1,10,0:0:0:0:
459,226,163240,2,0,L|449:166,1,50,2|2,1:2|0:0,0:0:0:0:
473,132,163720,2,0,L|462:72,1,50,10|2,0:0|1:2,0:0:0:0:
455,33,164200,1,2,0:0:0:0:
357,11,164680,1,10,0:1:0:0:
289,84,165160,5,2,1:2:0:0:
289,84,165400,2,0,P|298:107|303:140,1,50,2|8,0:0|0:0,0:0:0:0:
296,178,165880,1,2,0:0:0:0:
296,178,166120,1,2,0:0:0:0:
208,225,166600,1,10,0:0:0:0:
147,145,167080,1,2,1:0:0:0:
52,166,167560,1,8,0:0:0:0:
52,166,167800,2,0,L|42:106,1,50,2|2,1:2|0:0,0:0:0:0:
15,82,168280,1,2,0:0:0:0:
15,82,168520,2,0,L|5:22,1,50,10|2,0:0|0:0,0:0:0:0:
