osu file format v14

[General]
AudioFilename: audio.mp3
AudioLeadIn: 0
PreviewTime: 136960
Countdown: 0
SampleSet: Soft
StackLeniency: 0.2
Mode: 0
LetterboxInBreaks: 0
WidescreenStoryboard: 1

[Editor]
Bookmarks: 7720,15400,46120,70600,92200,107800
DistanceSpacing: 3
BeatDivisor: 2
GridSize: 32
TimelineZoom: 2

[Metadata]
Title:Lost My Mind
TitleUnicode:Lost My Mind
Artist:inverness & William Bolton
ArtistUnicode:inverness & William Bolton
Creator:Tycani
Version:narrative's insane
Source:
Tags:fuiba fuyu oyu narrative english pop electronic indie dance monstercat instinct 2020 edm
BeatmapID:3185398
BeatmapSetID:1485982

[Difficulty]
HPDrainRate:5.5
CircleSize:4.5
OverallDifficulty:8
ApproachRate:8.5
SliderMultiplier:1.9
SliderTickRate:1

[Events]
//Background and Video events
0,0,"inverness & William Bolton - Lost My Mind (Desktop Wallpaper).jpg",0,0
//Break Periods
2,23280,30085
2,123120,129925
//Storyboard Layer 0 (Background)
//Storyboard Layer 1 (Fail)
//Storyboard Layer 2 (Pass)
//Storyboard Layer 3 (Foreground)
//Storyboard Layer 4 (Overlay)
//Storyboard Sound Samples

[TimingPoints]
40,480,4,2,2,65,1,0
3880,-133.333333333333,4,2,2,65,0,0
5320,-79.7448165869218,4,2,2,65,0,0
5560,-133.333333333333,4,2,2,65,0,0
7720,-125,4,2,2,65,0,0
15400,-111.111111111111,4,2,2,65,0,0
19240,-99.9999999999999,4,2,1,70,0,0
22120,-83.3333333333333,4,2,1,70,0,0
22240,-83.3333333333333,4,2,1,70,0,0
22360,-71.4285714285714,4,2,1,70,0,0
22480,-71.4285714285714,4,2,1,70,0,0
22600,-83.3333333333333,4,2,1,70,0,0
23080,-83.3333333333333,4,2,2,60,0,0
30760,-125,4,2,2,60,0,0
37960,-105.263157894737,4,2,2,60,0,0
38320,-111.111111111111,4,2,2,60,0,0
38440,-125,4,2,1,65,0,0
41080,-105.263157894737,4,2,1,65,0,0
42280,-125,4,2,1,65,0,0
44920,-105.263157894737,4,2,1,65,0,0
46120,-111.111111111111,4,2,1,60,0,0
51880,-83.3333333333333,4,2,1,60,0,0
52840,-83.3333333333333,4,2,1,100,0,0
53800,-80,4,2,1,80,0,1
66520,-71.4285714285714,4,2,1,90,0,1
68200,-125,4,2,1,60,0,1
68680,-250,4,2,1,80,0,1
69160,-250,4,2,2,60,0,0
70600,-125,4,2,2,60,0,0
72400,-125,4,2,2,60,0,0
72520,-125,4,2,2,60,0,0
72880,-125,4,2,2,60,0,0
73000,-125,4,2,2,60,0,0
76840,-100,4,2,2,60,0,0
78760,-125,4,2,2,60,0,0
83800,-100,4,2,2,60,0,0
84520,-100,4,2,1,65,0,0
85000,-111.111111111111,4,2,1,65,0,0
92200,-125,4,2,1,65,0,0
99880,-111.111111111111,4,2,1,65,0,0
106600,-111.111111111111,4,2,1,60,0,0
107560,-80,4,2,1,90,0,1
110920,-222.222222222222,4,2,1,90,0,1
111400,-80,4,2,1,90,0,1
118600,-222.222222222222,4,2,1,90,0,1
119080,-80,4,2,1,90,0,1
121480,-80,4,2,1,80,0,1
121960,-100,4,2,1,80,0,1
122320,-100,4,2,1,5,0,1
122440,-83.3333333333333,4,2,1,80,0,1
122800,-83.3333333333333,4,2,1,5,0,1
122920,-83.3333333333333,4,2,1,100,0,0
130600,-83.3333333333333,4,2,1,65,0,0
133960,-125,4,2,1,65,0,0
134440,-83.3333333333333,4,2,1,65,0,0
134680,-125,4,2,1,65,0,0
134920,-83.3333333333333,4,2,1,65,0,0
135640,-125,4,2,1,65,0,0
135880,-83.3333333333333,4,2,1,65,0,0
136360,-125,4,2,1,65,0,0
136600,-105.263157894737,4,2,1,65,0,0
136840,-90.9090909090909,4,2,1,65,0,0
137080,-80,4,2,1,65,0,0
137320,-71.4285714285714,4,2,1,65,0,0
138280,-74.0740740740741,4,2,1,80,0,1
151000,-66.6666666666667,4,2,1,90,0,1
152440,-66.6666666666667,4,2,1,90,0,1
152680,-76.9230769230769,4,2,1,70,0,1
152920,-90.9090909090909,4,2,1,70,0,1
153160,-111.111111111111,4,2,1,70,0,1
153400,-142.857142857143,4,2,1,70,0,1
153640,-200,4,2,1,60,0,0
155080,-200,4,2,1,100,0,0
155560,-74.0740740740741,4,2,1,90,0,1
157000,-222.222222222222,4,2,1,90,0,1
157480,-74.0740740740741,4,2,1,90,0,1
164680,-222.222222222222,4,2,1,90,0,1
165160,-74.0740740740741,4,2,1,90,0,1
167560,-74.0740740740741,4,2,1,75,0,1
169000,-74.0740740740741,4,2,1,100,0,0

[Colours]
Combo1 : 197,160,35
Combo2 : 192,192,192
Combo3 : 128,128,128

[HitObjects]
302,173,3880,5,4,1:2:0:0:
302,173,4120,1,0,0:0:0:0:
370,129,4360,1,2,0:0:0:0:
279,33,4600,6,0,L|306:192,1,142.500005435944,2|0,0:0|0:0,0:0:0:0:
288,246,5320,6,0,B|318:252|318:252|360:226,1,59.5649977186868,2|0,0:0|0:0,0:0:0:0:
463,271,5560,2,0,P|400:281|379:372,1,142.500005435944,2|0,0:0|0:0,0:0:0:0:
445,342,6280,5,2,0:0:0:0:
194,356,7720,6,0,B|195:336|205:316|205:316|176:346|140:345,1,114,2|0,0:0|0:0,0:0:0:0:
144,270,8200,1,10,0:0:0:0:
37,206,8680,6,0,B|70:227|70:227|50:318,1,114,2|0,0:0|0:0,0:0:0:0:
25,199,9160,1,10,0:0:0:0:
210,135,9640,6,0,L|83:157,1,114,2|0,0:0|0:0,0:0:0:0:
221,145,10120,1,10,0:0:0:0:
364,147,10600,5,2,0:0:0:0:
314,74,10840,1,2,0:0:0:0:
364,147,11080,2,0,P|371:189|350:221,1,76,10|0,0:0|0:0,0:0:0:0:
251,298,11560,6,0,B|275:280|288:253|288:253|314:278|345:286,1,114,2|0,0:0|0:0,0:0:0:0:
305,354,12040,1,10,0:0:0:0:
440,264,12520,6,0,P|425:318|408:377,1,114,2|0,0:0|0:0,0:0:0:0:
431,251,13000,1,10,0:0:0:0:
286,207,13480,6,0,P|340:213|375:171,1,114,2|0,0:0|0:0,0:0:0:0:
274,215,13960,1,10,0:0:0:0:
385,68,14440,5,2,0:0:0:0:
312,113,14680,1,2,0:0:0:0:
385,68,14920,2,0,L|458:86,1,76,10|0,0:0|0:0,0:0:0:0:
262,24,15400,5,0,1:0:0:0:
262,24,15640,1,0,0:0:0:0:
208,88,15880,1,10,0:0:0:0:
93,25,16120,2,0,B|108:81|108:81|84:138|84:138|99:190,1,170.999994781494
98,187,16840,5,10,0:0:0:0:
169,285,17080,2,0,B|104:277|104:277|95:280|95:280|42:272,1,128.249996086121
180,277,17560,1,0,0:0:0:0:
316,355,17800,5,10,0:0:0:0:
354,289,18040,2,0,P|279:282|242:372,1,170.999994781494
421,338,18760,2,0,B|440:299|440:299|422:247,1,85.4999973907472,10|0,0:0|0:0,0:0:0:0:
297,154,19240,6,0,L|402:139,1,95,10|2,0:0|0:0,0:0:0:0:
444,191,19600,1,8,0:0:0:0:
458,184,19720,2,0,L|474:117,1,47.5,10|0,0:0|0:0,0:0:0:0:
434,69,19960,1,0,1:0:0:0:
292,55,20200,6,0,B|269:22|230:24|230:24|220:69|176:85,1,142.5,8|0,0:0|0:0,0:0:0:0:
153,9,20680,1,10,0:0:0:0:
78,121,20920,2,0,P|97:107|129:109,1,47.5,2|0,1:2|0:0,0:0:0:0:
180,156,21160,6,0,L|140:308,1,142.5,10|0,0:0|1:0,0:0:0:0:
124,364,21640,2,0,B|170:378|170:378|214:329,1,95,10|2,0:0|1:2,0:0:0:0:
433,369,22120,6,0,B|419:299,1,56.9999982604981,10|0,0:0|0:0,0:0:0:0:
365,262,22360,2,0,B|376:196,1,66.4999979705811,10|0,0:0|0:0,0:0:0:0:
433,49,22600,6,0,B|389:26|422:-34|490:-28|534:53|484:114,1,227.999993041992,10|0,0:0|0:0,0:0:0:0:
346,93,30760,6,0,B|332:103|324:146|339:164|362:150|380:167|384:219|371:230,1,152,0|8,1:0|0:0,0:0:0:0:
391,363,31480,2,0,P|426:301|495:320,1,152,0|0,1:0|0:0,0:0:0:0:
308,364,32200,1,8,0:0:0:0:
244,308,32440,1,0,0:0:0:0:
308,364,32920,5,0,0:0:0:0:
244,308,33160,2,0,L|270:140,1,152,8|0,0:0|0:0,0:0:0:0:
317,76,33880,6,0,B|328:60|328:60|314:37,1,38,0|0,1:0|0:0,0:0:0:0:
225,67,34120,2,0,L|253:62,5,19,8|0|0|0|0|0,0:0|3:0|3:0|3:0|3:0|3:0,0:0:0:0:
63,38,34600,6,0,B|114:25|114:25|145:134,1,152,0|8,1:0|0:0,0:0:0:0:
22,217,35320,2,0,B|22:186|3:157|3:157|38:188|85:184,1,152,0|0,1:0|0:0,0:0:0:0:
85,261,36040,1,8,0:0:0:0:
31,326,36280,1,0,0:0:0:0:
85,261,36760,5,0,0:0:0:0:
31,326,37000,2,0,B|102:342|102:342|111:349|111:349|187:361,1,152,8|0,0:0|0:0,0:0:0:0:
217,220,37720,6,0,P|199:227|186:240,1,38,2|0,1:3|0:0,0:0:0:0:
313,357,37960,2,0,P|303:294|240:289,1,135.374996385098,8|0,0:0|0:0,0:0:0:0:
327,364,38440,6,0,L|495:336,1,152,0|10,1:0|0:0,0:0:0:0:
491,262,39160,1,2,1:2:0:0:
491,262,39400,2,0,P|469:231|435:215,1,76,2|2,0:0|0:0,0:0:0:0:
373,260,39880,1,10,0:0:0:0:
371,139,40120,6,0,P|321:152|265:252,1,152,2|0,0:0|0:0,0:0:0:0:
266,231,40840,1,10,0:0:0:0:
126,269,41080,6,0,B|151:259|168:238|168:238|170:297|222:321,1,135.374996385098,2|0,1:2|0:0,0:0:0:0:
269,349,41560,2,0,P|256:367|222:378,1,45.1249987950325,2|0,1:2|0:0,0:0:0:0:
201,309,41800,2,0,L|198:287,5,22.5624993975163,10|0|0|0|2|0,0:2|3:0|3:0|3:0|0:2|3:0,0:0:0:0:
288,140,42280,6,0,B|262:196|262:196|162:173,1,152,0|10,1:0|0:0,0:0:0:0:
79,104,43000,1,2,1:2:0:0:
79,104,43240,2,0,L|179:84,1,76,2|2,0:0|0:0,0:0:0:0:
228,24,43720,1,10,0:0:0:0:
288,140,43960,6,0,L|448:174,1,152,2|2,0:0|0:0,0:0:0:0:
421,44,44680,1,8,0:0:0:0:
436,171,44920,6,0,B|409:189|399:228|399:228|375:196|346:193,1,135.374996385098,0|0,1:0|0:0,0:0:0:0:
308,261,45400,2,0,P|329:265|345:281,1,45.1249987950325,2|0,1:2|0:0,0:0:0:0:
474,338,45640,6,0,B|416:350|416:350|406:347|406:347|326:367,1,135.374996385098,10|0,0:0|0:0,0:0:0:0:
194,270,46120,6,0,B|227:297|227:297|200:343,1,85.4999973907472,2|0,1:2|0:0,0:0:0:0:
137,345,46480,2,0,B|103:317|103:317|130:271,1,85.4999973907472,2|0,0:0|0:0,0:0:0:0:
139,211,46840,5,2,0:0:0:0:
84,162,46960,1,2,0:0:0:0:
166,47,47080,6,0,L|149:142,1,85.4999973907472,2|0,0:0|0:0,0:0:0:0:
177,135,47440,2,0,L|192:50,1,85.4999973907472,2|0,0:0|0:0,0:0:0:0:
259,13,47800,5,2,0:0:0:0:
310,74,47920,1,2,0:0:0:0:
387,29,48040,6,0,P|431:26|469:61,1,85.4999973907472,2|0,0:0|0:0,0:0:0:0:
505,109,48400,2,0,P|508:153|473:191,1,85.4999973907472,2|0,0:0|0:0,0:0:0:0:
412,225,48760,5,2,0:0:0:0:
485,273,48880,1,2,0:0:0:0:
436,356,49000,6,0,B|421:363|421:363|347:342,1,85.4999973907472,2|0,0:0|0:0,0:0:0:0:
294,292,49360,2,0,B|279:285|279:285|212:304,1,85.4999973907472,2|0,0:0|0:0,0:0:0:0:
150,354,49720,5,10,0:0:0:0:
212,303,49840,1,2,0:0:0:0:
145,267,49960,5,8,1:2:0:0:
214,203,50200,1,8,0:0:0:0:
133,135,50440,1,8,0:0:0:0:
225,50,50680,1,8,1:2:0:0:
120,26,50920,5,8,1:2:0:0:
228,126,51160,1,8,0:0:0:0:
116,225,51400,1,8,0:0:0:0:
244,287,51640,1,8,0:0:0:0:
126,368,51880,5,8,1:2:0:0:
110,360,52000,1,8,0:0:0:0:
91,351,52120,2,0,L|78:289,1,56.9999982604981,8|8,0:0|0:0,0:0:0:0:
228,126,52360,5,8,1:2:0:0:
212,134,52480,1,8,0:0:0:0:
193,143,52600,2,0,L|180:205,1,56.9999982604981,8|8,0:0|0:0,0:0:0:0:
325,370,52840,5,0,1:0:0:0:
415,118,53800,6,0,P|394:98|366:89,1,59.375,6|0,1:2|0:0,0:0:0:0:
353,16,54040,2,0,P|324:24|302:44,1,59.375,2|0,0:0|0:0,0:0:0:0:
228,165,54280,2,0,P|309:114|297:209,1,237.5,10|2,0:0|0:3,0:0:0:0:
298,208,55000,6,0,L|366:192,1,59.375,2|0,1:2|0:0,0:0:0:0:
409,140,55240,2,0,L|477:156,1,59.375,10|0,0:0|0:0,0:0:0:0:
483,278,55480,2,0,L|433:287,2,39.5833333333333,2|0|0,3:2|3:0|3:0,0:0:0:0:
482,290,55720,6,0,L|297:328,1,178.125,0|0,1:0|0:0,0:0:0:0:
201,355,56200,2,0,L|214:277,1,59.375,10|0,0:0|0:0,0:0:0:0:
135,269,56440,2,0,L|125:327,1,59.375,2|0,1:2|0:0,0:0:0:0:
12,367,56680,5,2,0:0:0:0:
42,231,56920,2,0,P|49:202|42:174,1,59.375,2|0,1:2|0:0,0:0:0:0:
10,102,57160,2,0,B|34:154|34:154|154:123,1,178.125,10|0,0:0|0:0,0:0:0:0:
207,73,57640,6,0,L|279:92,1,59.375,2|0,1:2|0:0,0:0:0:0:
360,7,57880,2,0,P|358:36|342:60,1,59.375,2|0,0:0|0:0,0:0:0:0:
266,239,58120,2,0,B|219:168|219:168|365:210,1,237.5,10|2,0:0|0:3,0:0:0:0:
365,210,58840,6,0,P|408:216|435:194,1,59.375,2|0,1:2|0:0,0:0:0:0:
492,229,59080,2,0,P|497:186|475:159,1,59.375,10|0,0:0|0:0,0:0:0:0:
378,42,59320,2,0,L|369:90,2,39.5833333333333,2|0|0,3:2|3:0|3:0,0:0:0:0:
394,34,59560,2,0,L|362:226,1,178.125,0|0,1:0|0:0,0:0:0:0:
287,261,60040,6,0,L|270:188,1,59.375,10|0,0:0|0:0,0:0:0:0:
252,118,60280,1,2,1:2:0:0:
54,294,60520,5,2,0:0:0:0:
145,256,60760,1,2,0:0:0:0:
68,199,61000,1,10,0:0:0:0:
130,331,61240,2,0,P|159:333|186:321,1,59.375,2|0,1:2|0:0,0:0:0:0:
158,198,61480,6,0,L|140:270,1,59.375,6|0,1:2|0:0,0:0:0:0:
289,359,61720,2,0,L|274:301,1,59.375,2|0,0:0|0:0,0:0:0:0:
363,142,61960,2,0,B|432:100|432:100|389:262,1,237.5,10|2,0:0|0:3,0:0:0:0:
391,251,62680,6,0,B|411:229|411:229|458:247,1,59.375,2|0,1:2|0:0,0:0:0:0:
454,311,62920,2,0,B|434:333|434:333|387:315,1,59.375,10|0,0:0|0:0,0:0:0:0:
251,213,63160,2,0,L|209:220,2,39.5833333333333,2|0|0,3:2|3:0|3:0,0:0:0:0:
265,226,63400,2,2,P|260:289|152:303,1,178.125,0|0,1:0|0:0,0:0:0:0:
124,244,63880,6,0,P|94:270|97:308,1,59.375,10|0,0:0|0:0,0:0:0:0:
111,359,64120,1,2,1:2:0:0:
30,181,64360,5,2,0:0:0:0:
124,244,64600,1,2,1:2:0:0:
103,94,64840,1,10,0:0:0:0:
192,157,65080,1,2,0:0:0:0:
48,36,65320,6,0,P|72:19|101:16,1,59.375,2|0,1:2|0:0,0:0:0:0:
218,80,65560,2,0,P|191:67|174:43,1,59.375,2|0,0:0|0:0,0:0:0:0:
357,18,65800,2,0,L|305:249,1,237.5,10|2,0:0|0:3,0:0:0:0:
305,249,66520,6,0,B|391:228,1,66.4999979705811,2|0,1:2|0:0,0:0:0:0:
464,132,66760,2,0,B|445:204,1,66.4999979705811,10|0,0:0|0:0,0:0:0:0:
478,322,67000,1,2,0:0:0:0:
482,335,67120,1,0,0:0:0:0:
486,346,67240,6,0,B|368:309|368:309|401:333|401:374,1,199.499993911743,0|0,1:0|0:0,0:0:0:0:
322,368,67720,5,8,0:0:0:0:
179,346,67960,1,0,1:0:0:0:
202,185,68200,6,0,P|188:205|176:224,1,38,2|0,0:0|0:0,0:0:0:0:
111,191,68440,6,0,P|114:172|119:153,1,38,2|0,0:0|0:0,0:0:0:0:
29,132,68680,6,0,P|32:173|39:214,1,76,10|0,0:0|1:0,0:0:0:0:
410,316,70600,5,10,0:0:0:0:
365,245,70840,1,2,0:0:0:0:
432,198,71080,2,0,L|449:123,1,76,2|2,0:0|0:0,0:0:0:0:
322,51,71560,2,0,L|339:125,1,76,10|2,0:0|0:0,0:0:0:0:
239,206,72040,6,0,B|240:186|228:165|228:165|252:192|306:192,1,114
165,204,72520,2,0,B|117:191|117:191|106:193|106:193|46:179,1,114,8|0,0:0|0:0,0:0:0:0:
2,124,73000,6,0,B|30:97|30:97|73:106,1,76,2|0,0:0|0:0,0:0:0:0:
223,3,73480,2,0,B|209:13|201:56|216:74|239:60|257:77|261:129|248:140,1,152,10|2,0:0|0:0,0:0:0:0:
249,137,74200,1,0,3:0:0:0:
334,92,74440,5,10,0:0:0:0:
334,92,74680,1,2,0:0:0:0:
395,198,74920,2,0,P|432:203|473:181,1,76,2|2,0:0|0:0,0:0:0:0:
433,49,75400,2,0,L|413:139,1,76,10|2,0:0|0:0,0:0:0:0:
395,198,75880,1,2,0:0:0:0:
321,243,76120,1,0,0:0:0:0:
395,198,76360,2,0,L|415:288,1,76,8|0,0:0|0:0,0:0:0:0:
251,362,76840,6,0,P|206:348|181:309,1,95,2|0,1:2|0:0,0:0:0:0:
181,309,77320,1,8,0:0:0:0:
214,133,77560,2,0,P|184:218|95:232,1,190,0|2,1:0|0:0,0:0:0:0:
45,163,78280,1,10,0:0:0:0:
45,163,78520,1,2,0:0:0:0:
150,76,78760,5,2,0:0:0:0:
214,133,79000,1,2,0:0:0:0:
312,49,79240,1,10,0:0:0:0:
312,49,79480,2,0,L|292:143,1,76,2|2,0:0|0:0,0:0:0:0:
201,22,79960,2,0,L|251:8,1,38,0|0,1:0|0:0,0:0:0:0:
312,49,80200,2,0,L|330:54,5,19,10|0|0|0|0|0,0:0|3:0|3:0|3:0|3:0|3:0,0:0:0:0:
472,28,80680,6,0,B|424:44|424:44|449:163,1,152,2|8,1:2|0:0,0:0:0:0:
314,197,81400,2,0,B|357:184|357:184|419:211|405:269,1,152,0|2,1:0|0:0,0:0:0:0:
365,341,82120,1,10,0:0:0:0:
365,341,82360,1,2,0:0:0:0:
277,268,82600,5,2,0:0:0:0:
257,341,82840,1,2,0:0:0:0:
164,365,83080,1,10,0:0:0:0:
134,222,83320,1,2,1:2:0:0:
28,307,83560,2,0,L|73:316,1,38,0|0,1:0|3:0,0:0:0:0:
134,222,83800,6,0,L|82:233,1,47.5,0|0,1:0|0:0,0:0:0:0:
11,77,84040,2,0,B|4:125|4:125|96:144,1,142.5,8|0,0:0|0:0,0:0:0:0:
5,61,84520,2,0,P|54:35|65:-4,1,95,0|0,1:0|0:0,0:0:0:0:
196,85,85000,5,10,0:0:0:0:
263,38,85240,1,2,1:2:0:0:
338,155,85480,1,2,0:0:0:0:
338,155,85720,1,2,0:0:0:0:
267,118,85960,1,10,0:0:0:0:
387,10,86200,2,0,L|427:192,1,170.999994781494,2|0,0:0|0:0,0:0:0:0:
443,251,86920,5,10,0:0:0:0:
443,251,87160,1,2,1:2:0:0:
499,75,87400,2,0,L|482:128,1,42.7499986953736,2|0,0:0|0:0,0:0:0:0:
504,189,87640,1,2,1:3:0:0:
301,177,87880,2,0,B|344:166|344:166|391:185|391:185|427:176,1,128.249996086121,10|0,3:2|0:0,0:0:0:0:
291,192,88360,5,0,1:0:0:0:
196,118,88600,1,0,0:0:0:0:
260,77,88840,1,10,0:0:0:0:
176,215,89080,2,0,B|70:197|70:197|44:259,1,170.999994781494,2|2,1:2|0:0,0:0:0:0:
122,287,89800,5,10,0:0:0:0:
242,331,90040,2,0,B|277:297|325:335|316:345|368:378|398:343,1,170.999994781494,2|0,0:0|0:0,0:0:0:0:
398,346,90760,1,8,0:0:0:0:
122,126,92200,6,0,L|103:264,1,114,6|0,0:0|0:0,0:0:0:0:
108,114,92680,1,10,0:0:0:0:
282,65,93160,6,0,B|230:90|230:90|195:33,1,114,2|0,0:0|0:0,0:0:0:0:
291,72,93640,1,10,0:0:0:0:
414,125,94120,6,0,P|349:139|335:187,1,114,2|0,0:0|0:0,0:0:0:0:
426,112,94600,1,10,0:0:0:0:
343,267,95080,5,2,0:0:0:0:
424,242,95320,1,0,0:0:0:0:
343,267,95560,2,0,L|356:361,1,76,10|0,0:0|0:0,0:0:0:0:
235,215,96040,6,0,L|212:342,1,114,2|0,0:0|0:0,0:0:0:0:
283,352,96520,1,10,0:0:0:0:
96,327,97000,6,0,B|93:302|84:286|84:286|116:311|149:308,1,114,2|0,0:0|0:0,0:0:0:0:
25,325,97480,1,10,0:0:0:0:
127,142,97960,6,0,B|162:167|162:167|140:247,1,114,2|0,0:0|0:0,0:0:0:0:
115,145,98440,1,10,0:0:0:0:
269,55,98920,5,2,0:0:0:0:
211,102,99160,1,0,0:0:0:0:
269,55,99400,2,0,L|347:70,1,76,10|0,0:0|0:0,0:0:0:0:
477,20,99880,5,14,1:2:0:0:
426,81,100120,1,2,0:0:0:0:
482,142,100360,2,0,L|504:238,1,85.4999973907472,10|0,0:0|0:0,0:0:0:0:
400,212,100840,2,0,L|378:308,1,85.4999973907472,10|2,0:0|0:0,0:0:0:0:
469,340,101320,1,10,0:0:0:0:
223,291,101560,2,0,P|283:298|303:355,1,128.249996086121,2|0,0:0|0:0,0:0:0:0:
213,303,102040,1,0,0:0:0:0:
155,227,102280,5,10,0:0:0:0:
155,227,102520,1,2,0:0:0:0:
263,125,102760,1,10,0:0:0:0:
243,212,103000,1,2,0:0:0:0:
113,44,103240,1,10,0:0:0:0:
137,147,103480,1,2,1:3:0:0:
239,46,103720,6,0,P|281:42|317:63,1,85.4999973907472,8|0,1:2|0:0,0:0:0:0:
363,117,104080,1,0,1:0:0:0:
374,123,104200,2,0,L|430:111,1,42.7499986953736,8|0,0:0|0:0,0:0:0:0:
463,51,104440,1,0,1:0:0:0:
479,207,104680,6,0,B|432:197|432:197|391:222|391:222|346:213,1,128.249996086121,8|0,0:0|1:0,0:0:0:0:
451,281,105160,1,8,0:0:0:0:
256,182,105400,2,0,L|271:236,1,42.7499986953736,0|0,1:0|0:0,0:0:0:0:
227,342,105640,5,8,0:0:0:0:
120,230,105880,5,8,0:0:0:0:
131,227,106000,1,8,0:0:0:0:
143,223,106120,2,0,L|132:278,1,42.7499986953736,8|0,0:0|0:0,0:0:0:0:
39,165,106360,2,0,L|19:206,1,42.7499986953736,8|0,0:0|0:0,0:0:0:0:
143,113,106600,1,0,1:2:0:0:
445,278,107560,6,0,P|426:301|399:315,1,59.375,6|0,1:2|0:0,0:0:0:0:
375,231,107800,2,0,P|332:191|336:134,1,118.75,2|8,0:0|0:0,0:0:0:0:
445,278,108280,2,0,P|426:301|399:315,1,59.375,2|0,0:0|0:0,0:0:0:0:
237,318,108520,6,0,B|243:284|218:252|218:252|266:297|315:293,1,178.125,2|0,0:0|0:0,0:0:0:0:
232,325,109000,2,0,B|238:291|213:259|213:259|261:304|310:300,1,178.125,10|0,0:0|3:0,0:0:0:0:
152,315,109480,6,0,P|130:295|101:290,1,59.375,2|0,1:2|0:0,0:0:0:0:
77,203,109720,2,0,P|49:212|30:234,1,59.375,2|0,0:0|0:0,0:0:0:0:
32,243,109960,6,0,P|50:220|78:211,1,59.375,10|0,0:0|0:0,0:0:0:0:
103,299,110201,2,0,P|131:304|153:323,1,59.375,2|0,1:2|0:0,0:0:0:0:
286,153,110440,6,0,B|267:213|267:213|156:181,1,178.125,2|0,0:0|0:0,0:0:0:0:
348,93,110920,6,2,B|358:88|358:88|369:90|369:90|379:86|379:86|390:88|390:88|399:82|399:82|408:83|408:83|415:78|415:78|426:76,1,64.1249980430604,10|0,0:1|0:0,0:1:0:0:
475,52,111400,6,0,P|485:79|479:107,1,59.375,2|0,1:2|0:0,0:0:0:0:
364,227,111640,2,0,B|405:182|405:182|482:211,1,118.75,2|8,0:0|0:0,0:0:0:0:
475,52,112120,2,0,P|485:79|479:107,1,59.375,2|0,0:0|0:0,0:0:0:0:
305,28,112360,6,0,B|288:10|235:4|214:26|231:54|211:69|157:62|146:46,1,178.125,2|0,0:0|0:0,0:0:0:0:
309,38,112840,2,0,B|292:20|239:14|218:36|235:64|215:79|161:72|150:56,1,178.125,10|0,0:0|3:0,0:0:0:0:
24,25,113320,6,2,B|40:100|40:100|39:113|39:113|57:199,1,178.125,2|0,1:0|0:0,0:1:0:0:
46,270,113800,6,0,P|75:273|102:261,1,59.375,10|0,0:0|0:0,0:0:0:0:
165,141,114040,2,0,L|151:205,1,59.375,2|0,1:2|0:0,0:0:0:0:
227,312,114280,6,0,L|285:299,1,59.375,2|0,0:0|0:0,0:0:0:0:
348,247,114520,2,0,L|406:259,1,59.375,2|0,1:2|0:0,0:0:0:0:
460,314,114760,1,10,0:0:0:0:
339,368,115000,1,2,0:0:0:0:
245,221,115240,6,0,B|235:192|235:192|252:169,1,59.375,6|0,1:2|0:0,0:0:0:0:
436,97,115480,2,0,L|316:114,1,118.75,2|8,0:0|0:0,0:0:0:0:
245,221,115960,2,0,B|235:192|235:192|252:169,1,59.375,2|0,0:0|0:0,0:0:0:0:
92,35,116200,6,0,B|110:104|110:104|106:131|106:131|128:211,1,178.125,2|0,0:0|0:0,0:0:0:0:
81,33,116680,2,0,B|99:102|99:102|95:129|95:129|117:209,1,178.125,10|0,0:0|3:0,0:0:0:0:
33,303,117160,6,0,P|51:280|78:269,1,59.375,2|0,1:2|0:0,0:0:0:0:
208,300,117400,2,0,P|178:295|156:276,1,59.375,2|0,0:0|0:0,0:0:0:0:
205,312,117640,6,0,P|176:307|154:288,1,59.375,10|0,0:0|0:0,0:0:0:0:
30,315,117880,2,0,P|49:292|76:281,1,59.375,2|0,1:2|0:0,0:0:0:0:
306,218,118120,6,0,B|344:185|295:127|227:164|223:228,1,178.125,2|0,0:0|0:0,0:0:0:0:
300,90,118600,6,2,B|295:80|295:80|297:69|297:69|293:59|293:59|295:48|295:48|289:39|289:39|290:30|290:30|285:23|285:23|283:12,1,64.1249980430604,10|0,0:1|0:0,0:1:0:0:
491,112,119080,6,0,L|477:178,1,59.375,2|0,1:2|0:0,0:0:0:0:
420,224,119320,2,0,L|449:366,1,118.75,2|8,0:0|0:0,0:0:0:0:
491,112,119800,2,0,L|477:178,1,59.375,2|0,0:0|0:0,0:0:0:0:
348,281,120040,6,0,B|225:254|225:254|204:319,1,178.125,2|0,0:0|0:0,0:0:0:0:
343,272,120520,2,0,B|220:245|220:245|199:310,1,178.125,10|0,0:0|3:0,0:0:0:0:
17,284,121000,6,2,P|100:286|125:366,1,178.125,2|0,1:0|0:0,0:1:0:0:
26,376,121480,6,0,L|57:187,1,178.125,8|0,0:0|0:0,0:0:0:0:
80,123,121960,6,0,P|57:77|52:138,1,142.5,0|0,1:0|0:0,0:0:0:0:
184,89,122440,6,0,P|209:37|215:105,1,170.999994781494,0|0,1:0|0:0,0:0:0:0:
152,186,122920,5,0,1:0:0:0:
412,101,130600,5,14,1:2:0:0:
412,101,130840,1,0,0:0:0:0:
347,168,131080,1,10,0:0:0:0:
426,226,131320,1,0,0:0:0:0:
270,249,131560,6,0,B|280:299|280:299|276:315|276:315|289:373,1,113.999996520996,0|2,1:0|0:0,0:0:0:0:
169,211,132040,1,10,0:0:0:0:
243,146,132280,1,2,0:0:0:0:
83,61,132520,6,0,B|73:111|73:111|77:127|77:127|64:185,1,113.999996520996,0|0,1:0|0:0,0:0:0:0:
37,308,133000,1,10,0:0:0:0:
169,211,133240,1,10,0:0:0:0:
269,323,133480,6,0,B|311:362|311:362|362:338,1,113.999996520996,2|0,1:2|0:0,0:0:0:0:
359,258,133960,2,0,B|333:230|333:230|288:247,1,76,10|0,0:0|0:0,0:0:0:0:
459,359,134440,6,0,L|447:293,1,56.9999982604981,10|0,1:2|0:0,0:0:0:0:
492,204,134680,2,0,L|481:260,1,38,2|0,0:0|0:0,0:0:0:0:
302,107,134920,6,0,B|363:95|363:95|376:98|376:98|413:89,1,113.999996520996,10|8,1:2|0:0,0:0:0:0:
300,196,135400,6,0,B|270:200|270:200|247:185,1,56.9999982604981,8|0,1:2|0:0,0:0:0:0:
211,56,135640,2,0,L|220:103,1,38
177,230,135880,6,0,B|162:207|162:207|166:177,1,56.9999982604981,10|0,1:2|0:0,0:0:0:0:
302,107,136120,1,0,0:0:0:0:
212,352,136360,6,0,L|203:308,1,38,8|0,1:2|0:0,0:0:0:0:
296,293,136600,6,0,L|305:249,1,45.1249987950325,8|0,1:2|0:0,0:0:0:0:
159,206,136840,6,0,L|146:144,1,52.2500015945435,8|0,1:2|0:0,0:0:0:0:
369,160,137080,6,0,L|380:101,1,59.375,8|0,1:2|0:0,0:0:0:0:
72,12,137320,6,0,B|77:39|77:39|76:52|76:52|82:80,1,66.4999979705811,0|0,1:0|0:0,0:0:0:0:
379,334,138280,6,0,P|395:308|396:276,1,64.1250002446175,6|0,1:2|0:0,0:0:0:0:
443,218,138520,2,0,P|416:201|384:200,1,64.1250002446175,2|0,0:0|0:0,0:0:0:0:
222,257,138760,2,0,B|260:308|260:308|333:280,1,128.250000489235,10|0,0:0|0:0,0:0:0:0:
289,207,139120,1,0,0:0:0:0:
281,198,139240,2,0,L|298:125,1,64.1250002446175,2|0,0:3|0:0,0:0:0:0:
230,23,139480,6,0,B|221:55|221:55|245:90,1,64.1250002446175,2|0,1:2|0:0,0:0:0:0:
318,58,139720,2,0,B|327:26|327:26|303:-9,1,64.1250002446175,10|0,0:0|0:0,0:0:0:0:
70,73,139960,2,0,L|112:80,2,42.7500001630783,2|0|0,3:2|3:0|3:0,0:0:0:0:
57,69,140200,6,0,L|98:282,1,192.375000733852,0|0,1:0|0:0,0:0:0:0:
141,320,140680,2,0,L|214:336,1,64.1250002446175,8|0,0:0|0:0,0:0:0:0:
257,188,140920,1,2,1:2:0:0:
251,200,141040,1,0,0:0:0:0:
246,212,141160,6,0,L|262:285,1,64.1250002446175,2|0,0:0|0:0,0:0:0:0:
380,238,141400,2,0,P|353:255|340:284,1,64.1250002446175,2|0,1:2|0:0,0:0:0:0:
472,333,141640,2,0,P|447:313|415:309,1,64.1250002446175,10|0,0:0|0:0,0:0:0:0:
347,364,141880,1,2,0:0:0:0:
380,238,142120,6,0,L|395:168,1,64.1250002446175,2|0,1:2|0:0,0:0:0:0:
454,120,142360,2,0,L|439:50,1,64.1250002446175,2|0,0:0|0:0,0:0:0:0:
333,20,142600,2,0,B|272:30|272:30|259:43|259:43|211:52,1,128.250000489235,10|0,0:0|0:0,0:0:0:0:
145,10,142960,1,0,0:0:0:0:
135,18,143080,2,0,P|128:60|145:86,1,64.1250002446175,2|0,0:3|0:0,0:0:0:0:
194,130,143320,6,0,L|182:203,1,64.1250002446175,2|0,1:2|0:0,0:0:0:0:
57,272,143560,2,0,L|120:261,1,64.1250002446175,10|0,0:0|0:0,0:0:0:0:
323,263,143800,2,0,L|310:205,2,42.7500001630783,2|0|0,3:2|3:0|3:0,0:0:0:0:
337,273,144040,6,0,B|316:340|316:340|189:317,1,192.375000733852,0|0,1:0|0:0,0:0:0:0:
391,214,144520,2,0,B|415:236|415:236|421:280,1,64.1250002446175,10|0,0:0|0:0,0:0:0:0:
488,374,144760,1,2,1:2:0:0:
477,366,144880,1,0,0:0:0:0:
467,357,145000,6,0,B|474:325|474:325|509:298,1,64.1250002446175,2|0,0:0|0:0,0:0:0:0:
317,332,145240,2,0,P|348:337|373:357,1,64.1250002446175,2|0,1:2|0:0,0:0:0:0:
253,288,145480,2,0,P|272:263|302:251,1,64.1250002446175,10|0,0:0|0:0,0:0:0:0:
183,324,145720,2,0,P|171:294|175:263,1,64.1250002446175,2|0,0:0|0:0,0:0:0:0:
37,144,145960,6,0,L|58:219,1,64.1250002446175,6|0,1:2|0:0,0:0:0:0:
172,99,146200,2,0,L|151:174,1,64.1250002446175,2|0,0:0|0:0,0:0:0:0:
0,10,146440,2,0,P|37:58|99:58,1,128.250000489235,10|0,0:0|0:0,0:0:0:0:
248,21,146800,1,0,0:0:0:0:
243,32,146920,2,0,L|261:95,1,64.1250002446175,2|0,0:3|0:0,0:0:0:0:
403,102,147160,6,0,B|377:84|377:84|327:99,1,64.1250002446175,2|0,1:2|0:0,0:0:0:0:
352,233,147400,2,0,B|342:201|342:201|360:175,1,64.1250002446175,10|0,0:0|0:0,0:0:0:0:
487,104,147640,2,0,L|496:53,2,42.7500001630783,2|0|0,3:2|3:0|3:0,0:0:0:0:
498,115,147880,6,0,B|489:171|489:171|445:224|445:224|432:289,1,192.375000733852,0|0,1:0|0:0,0:0:0:0:
492,358,148360,2,0,B|465:363|465:363|454:362|454:362|419:370,1,64.1250002446175,10|0,0:0|0:0,0:0:0:0:
304,264,148600,1,2,1:2:0:0:
315,258,148720,1,0,0:0:0:0:
326,252,148840,6,0,L|343:327,1,64.1250002446175,2|0,0:0|0:0,0:0:0:0:
225,218,149080,2,0,L|215:294,1,64.1250002446175,2|0,1:2|0:0,0:0:0:0:
109,270,149320,2,0,L|126:345,1,64.1250002446175,10|0,0:0|0:0,0:0:0:0:
8,236,149560,2,0,L|-1:312,1,64.1250002446175,2|0,0:0|0:0,0:0:0:0:
149,135,149800,6,0,L|77:153,1,64.1250002446175,2|0,1:2|0:0,0:0:0:0:
21,55,150040,2,0,L|83:70,1,64.1250002446175,2|0,0:0|0:0,0:0:0:0:
229,4,150280,2,0,B|210:25|210:25|239:139,1,128.250000489235,10|0,0:0|0:0,0:0:0:0:
301,161,150640,1,0,0:0:0:0:
313,176,150760,2,0,L|297:253,1,64.1250002446175,2|0,0:3|0:0,0:0:0:0:
185,337,151000,6,0,B|218:329|218:329|231:330|231:330|271:320,1,71.2500027179719,2|0,1:2|0:0,0:0:0:0:
451,290,151240,2,0,B|427:284|427:284|414:285|414:285|381:277,1,71.2500027179719,10|0,0:0|0:0,0:0:0:0:
185,150,151480,1,2,0:0:0:0:
172,132,151600,1,0,0:0:0:0:
158,115,151720,6,0,B|276:97|276:97|297:197,1,213.750008153916,0|0,1:0|0:0,0:0:0:0:
310,260,152200,5,8,0:0:0:0:
219,27,152440,6,0,L|139:39,1,71.2500027179719,2|0,1:2|0:0,0:0:0:0:
18,133,152680,2,0,L|79:123,1,61.7499971733095,2|0,0:0|0:0,0:0:0:0:
189,193,152920,2,0,L|137:200,1,52.2500015945435,2|0,0:0|0:0,0:0:0:0:
69,280,153160,2,0,L|111:273,1,42.7499986953736,10|0,0:0|0:0,0:0:0:0:
163,337,153400,2,0,L|130:341,1,33.2499989852906,2|0,0:0|0:0,0:0:0:0:
58,370,153640,5,2,0:0:0:0:
58,370,153880,2,0,L|7:363,1,47.5,2|0,0:0|0:0,0:0:0:0:
21,273,154360,5,2,0:0:0:0:
21,273,154600,2,0,L|72:280,1,47.5,2|0,0:0|0:0,0:0:0:0:
61,132,155080,5,10,0:0:0:0:
245,228,155560,6,0,P|214:230|188:212,1,64.1250002446175,6|0,1:2|0:0,0:0:0:0:
217,118,155800,2,0,P|248:115|274:133,1,64.1250002446175,2|0,0:0|0:0,0:0:0:0:
272,143,156040,6,0,P|245:125|214:127,1,64.1250002446175,10|0,0:0|0:0,0:0:0:0:
185,221,156280,2,0,P|211:238|242:236,1,64.1250002446175,2|0,1:2|0:0,0:0:0:0:
419,291,156520,6,0,B|369:256|328:268|328:268|312:320|246:326,1,192.375000733852,2|0,0:0|0:0,0:0:0:0:
439,189,157000,6,2,B|434:179|434:179|436:168|436:168|432:158|432:158|434:147|434:147|428:138|428:138|429:129|429:129|424:122|424:122|422:111,1,64.1249980430604,10|0,0:1|0:0,0:1:0:0:
382,69,157480,6,0,B|406:47|406:47|451:57,1,64.1250002446175,2|0,1:2|0:0,0:0:0:0:
304,180,157720,2,0,B|241:166|241:166|235:161|235:161|173:148,1,128.250000489235,2|8,0:0|0:0,0:0:0:0:
382,69,158200,2,0,B|406:47|406:47|451:57,1,64.1250002446175,2|0,0:0|0:0,0:0:0:0:
455,228,158440,6,0,B|395:252|395:252|431:119,1,192.375000733852,2|0,0:0|0:0,0:0:0:0:
463,237,158920,2,0,B|403:261|403:261|439:128,1,192.375000733852,10|0,0:0|3:0,0:0:0:0:
229,283,159400,6,2,B|282:258|282:258|338:282|354:327|334:363,1,192.375000733852,2|0,1:0|0:0,0:1:0:0:
193,354,159880,6,0,P|165:332|158:293,1,64.1250002446175,8|0,0:0|0:0,0:0:0:0:
81,302,160120,2,0,P|86:266|116:241,1,64.1250002446175,2|0,1:2|0:0,0:0:0:0:
215,159,160360,5,2,0:0:0:0:
53,104,160600,1,2,1:2:0:0:
227,54,160840,1,10,0:0:0:0:
119,21,161080,1,2,0:0:0:0:
215,159,161320,6,0,L|290:145,1,64.1250002446175,6|0,1:2|0:0,0:0:0:0:
379,199,161560,2,0,B|362:176|362:150|362:150|353:195|321:220,1,128.250000489235,2|10,0:0|0:0,0:0:0:0:
215,159,162040,2,0,L|290:145,1,64.1250002446175,2|0,0:0|0:0,0:0:0:0:
456,327,162280,6,0,P|390:292|415:337,1,192.375000733852,2|0,0:0|0:0,0:0:0:0:
465,335,162760,2,0,P|399:300|424:345,1,192.375000733852,10|0,0:0|3:0,0:0:0:0:
328,356,163240,6,0,B|301:352|301:352|293:347|293:347|254:341,1,64.1250002446175,2|0,1:2|0:0,0:0:0:0:
204,291,163480,2,0,B|177:295|177:295|169:300|169:300|130:306,1,64.1250002446175,2|0,0:0|0:0,0:0:0:0:
138,294,163720,6,0,B|165:289|165:289|173:284|173:284|200:280,1,64.1250002446175,10|0,0:0|0:0,0:0:0:0:
262,332,163960,2,0,B|290:337|290:337|298:342|298:342|325:346,1,64.1250002446175,2|0,1:2|0:0,0:0:0:0:
431,223,164200,6,0,B|475:201|439:134|335:146|345:255,1,192.375000733852,2|0,0:0|0:0,0:0:0:0:
434,351,164680,6,2,B|444:356|444:356|455:354|455:354|465:358|465:358|476:356|476:356|485:362|485:362|494:361|494:361|501:366|501:366|512:368,1,64.1249980430604,10|0,0:1|0:0,0:1:0:0:
344,235,165160,6,0,P|312:237|286:256,1,64.1250002446175,2|0,1:2|0:0,0:0:0:0:
149,360,165400,2,0,B|195:345|195:345|175:257,1,128.250000489235,2|8,0:0|0:0,0:0:0:0:
344,235,165880,2,0,P|312:237|286:256,1,64.1250002446175,2|0,0:0|0:0,0:0:0:0:
109,220,166120,6,0,B|95:176|52:154|52:154|124:163|153:203,1,192.375000733852,2|0,0:0|0:0,0:0:0:0:
102,227,166600,2,0,B|88:183|45:161|45:161|117:170|146:210,1,192.375000733852,10|0,0:0|3:0,0:0:0:0:
272,238,167080,6,2,P|228:235|202:362,1,192.375000733852,2|0,1:0|0:0,0:1:0:0:
266,360,167560,2,0,L|341:345,1,64.1250002446175,8|0,0:0|0:0,0:0:0:0:
493,319,167800,5,2,1:2:0:0:
345,217,168040,1,2,0:0:0:0:
484,150,168280,1,2,0:0:0:0:
372,86,168520,1,10,0:0:0:0:
465,43,168760,1,2,0:0:0:0:
