osu file format v14

[General]
AudioFilename: audio.mp3
AudioLeadIn: 0
PreviewTime: 136960
Countdown: 0
SampleSet: Soft
StackLeniency: 0.7
Mode: 0
LetterboxInBreaks: 0
WidescreenStoryboard: 0

[Editor]
Bookmarks: 169000
DistanceSpacing: 0.8
BeatDivisor: 4
GridSize: 32
TimelineZoom: 1.9

[Metadata]
Title:Lost My Mind
TitleUnicode:Lost My Mind
Artist:inverness & William Bolton
ArtistUnicode:inverness & William Bolton
Creator:Tycani
Version:all the time
Source:
Tags:fuiba fuyu oyu narrative english pop electronic indie dance monstercat instinct 2020 edm
BeatmapID:3047030
BeatmapSetID:1485982

[Difficulty]
HPDrainRate:6
CircleSize:5
OverallDifficulty:8.4
ApproachRate:8
SliderMultiplier:2
SliderTickRate:1

[Events]
//Background and Video events
0,0,"inverness & William Bolton - Lost My Mind (Desktop Wallpaper).jpg",0,0
//Break Periods
2,23080,30010
2,123120,129850
//Storyboard Layer 0 (Background)
//Storyboard Layer 1 (Fail)
//Storyboard Layer 2 (Pass)
//Storyboard Layer 3 (Foreground)
//Storyboard Layer 4 (Overlay)
//Storyboard Sound Samples

[TimingPoints]
40,480,4,2,2,65,1,0
3880,-133.333333333333,4,2,2,65,0,0
19240,-117.647058823529,4,2,1,70,0,0
22120,-76.9230769230769,4,2,1,70,0,0
23080,-133.333333333333,4,2,2,60,0,0
38440,-133.333333333333,4,2,1,65,0,0
46120,-100,4,2,1,60,0,0
52840,-200,4,2,1,100,0,0
53800,-50,4,2,1,80,0,1
54760,-250,4,2,1,80,0,1
55000,-50,4,2,1,80,0,1
56200,-100,4,2,1,80,0,0
57640,-50,4,2,1,80,0,1
58600,-250,4,2,1,80,0,1
58840,-50,4,2,1,80,0,1
60040,-100,4,2,1,80,0,0
61480,-50,4,2,1,80,0,1
62440,-250,4,2,1,80,0,1
62680,-50,4,2,1,80,0,1
63880,-100,4,2,1,80,0,0
65320,-50,4,2,1,80,0,1
66280,-250,4,2,1,80,0,1
66520,-44.4444444444445,4,2,1,90,0,1
68200,-100,4,2,1,60,0,0
68680,-50,4,2,1,80,0,0
69160,-133.333333333333,4,2,2,60,0,0
84520,-133.333333333333,4,2,1,65,0,0
92200,-200,4,2,1,65,0,0
99880,-114.942528735632,4,2,1,65,0,0
103720,-100,4,2,1,65,0,0
106600,-200,4,2,1,60,0,0
107560,-50,4,2,1,90,0,1
110920,-200,4,2,1,90,0,0
111400,-50,4,2,1,90,0,1
113800,-100,4,2,1,90,0,0
115240,-50,4,2,1,90,0,1
118600,-200,4,2,1,90,0,0
119080,-50,4,2,1,90,0,1
121480,-100,4,2,1,80,0,0
121960,-80,4,2,1,80,0,0
122320,-80,4,2,1,5,0,0
122440,-66.6666666666667,4,2,1,80,0,0
122800,-80,4,2,1,5,0,0
122920,-200,4,2,1,100,0,0
130600,-200,4,2,1,65,0,0
138280,-50,4,2,1,80,0,1
139240,-250,4,2,1,80,0,1
139480,-50,4,2,1,80,0,1
140680,-100,4,2,1,80,0,0
142120,-50,4,2,1,80,0,1
143080,-250,4,2,1,80,0,1
143320,-50,4,2,1,80,0,1
144520,-100,4,2,1,80,0,0
145960,-50,4,2,1,80,0,1
146920,-250,4,2,1,80,0,1
147160,-50,4,2,1,80,0,1
148360,-100,4,2,1,80,0,0
149800,-50,4,2,1,80,0,1
150760,-250,4,2,1,80,0,1
151000,-44.4444444444445,4,2,1,90,0,1
152680,-100,4,2,1,70,0,0
153640,-285.714285714286,4,2,1,60,0,0
155080,-46.5116279069767,4,2,1,100,0,0
155560,-50,4,2,1,90,0,1
157000,-200,4,2,1,90,0,0
157480,-50,4,2,1,90,0,1
159880,-100,4,2,1,90,0,0
161320,-50,4,2,1,90,0,1
164680,-200,4,2,1,90,0,0
165160,-50,4,2,1,90,0,1
167560,-100,4,2,1,75,0,0
169000,-100,4,2,1,100,0,0

[Colours]
Combo1 : 197,160,35
Combo2 : 192,192,192
Combo3 : 128,128,128

[HitObjects]
185,102,2920,5,2,0:0:0:0:
150,176,3160,1,2,0:0:0:0:
86,133,3400,1,2,0:0:0:0:
86,133,3880,6,0,P|95:92|93:57,2,75.0000028610231,4|0|2,1:2|0:0|0:0,0:0:0:0:
33,211,4600,2,0,P|53:256|145:267,1,150.000005722046,2|0,0:0|0:0,0:0:0:0:
221,177,5320,5,2,0:0:0:0:
221,177,5560,2,0,L|201:19,1,150.000005722046,2|0,0:0|0:0,0:0:0:0:
308,137,6280,5,2,0:0:0:0:
328,70,6520,1,2,0:0:0:0:
259,231,6760,5,2,0:0:0:0:
237,159,7000,1,2,0:0:0:0:
308,137,7240,1,2,0:0:0:0:
330,209,7480,1,2,0:0:0:0:
191,337,7720,6,0,P|143:319|35:320,1,150.000005722046,2|10,0:0|0:0,0:0:0:0:
45,317,8680,2,0,B|79:280|60:235|137:193,1,150.000005722046,2|10,0:0|0:0,0:0:0:0:
129,197,9640,2,0,B|108:185|88:181|88:181|120:167|201:152,1,150.000005722046,2|10,0:0|0:0,0:0:0:0:
190,154,10600,6,0,P|204:117|199:82,1,75.0000028610231,2|2,0:0|0:0,0:0:0:0:
301,202,11080,2,0,P|287:165|292:130,1,75.0000028610231,10|0,0:0|0:0,0:0:0:0:
388,238,11560,6,0,B|449:196|449:196|399:134,1,150.000005722046,2|10,0:0|0:0,0:0:0:0:
401,136,12520,2,0,B|419:186|413:215|433:283,1,150.000005722046,2|10,0:0|0:0,0:0:0:0:
432,282,13480,2,0,B|393:288|360:310|360:310|341:347|302:353,1,150.000005722046,2|10,0:0|0:0,0:0:0:0:
305,352,14440,5,2,0:0:0:0:
229,338,14680,1,2,0:0:0:0:
275,237,14920,2,0,P|237:238|200:242,1,75.0000028610231,10|0,0:0|0:0,0:0:0:0:
394,73,15400,6,0,B|432:120|361:168|402:218,1,150.000005722046,0|10,1:0|0:0,0:0:0:0:
472,282,16120,2,0,P|511:241|448:177,1,150.000005722046
326,267,16840,1,10,0:0:0:0:
270,201,17080,6,0,L|294:49,1,150.000005722046
443,162,17800,5,10,0:0:0:0:
415,224,18040,2,0,L|398:69,1,150.000005722046
251,210,18760,5,10,0:0:0:0:
193,156,19000,2,0,L|203:110,1,37.5000014305115
120,209,19240,6,0,P|134:268|142:310,1,85.0000016212464,10|2,0:0|0:0,0:0:0:0:
104,362,19600,1,8,0:0:0:0:
104,362,19720,1,10,0:0:0:0:
214,320,19960,1,0,1:0:0:0:
31,255,20200,1,8,0:0:0:0:
185,200,20440,1,2,0:0:0:0:
10,262,20680,1,10,0:0:0:0:
47,183,20920,2,0,P|37:160|21:151,1,42.5000008106232,2|0,1:2|0:0,0:0:0:0:
147,306,21160,6,0,P|210:284|282:272,1,127.50000243187,10|0,0:0|1:0,0:0:0:0:
336,318,21640,2,0,P|304:366|272:363,1,85.0000016212464,10|2,0:0|1:2,0:0:0:0:
427,177,22120,6,0,P|437:252|444:318,2,129.999994049073,10|10|10,0:0|0:0|0:0,0:0:0:0:
45,120,30760,6,0,B|83:98|126:114|106:137|146:165|189:138,1,150.000005722046,0|8,1:0|0:0,0:0:0:0:
234,80,31480,2,0,P|287:63|397:65,1,150.000005722046,0|0,1:0|0:0,0:0:0:0:
458,143,32200,2,0,P|467:93|470:62,1,75.0000028610231,8|0,0:0|0:0,0:0:0:0:
380,61,32680,6,0,P|376:99|369:136,1,75.0000028610231
293,204,33160,1,8,0:0:0:0:
293,204,33400,1,0,0:0:0:0:
356,267,33640,2,0,P|393:261|438:259,1,75.0000028610231,0|0,0:0|1:0,0:0:0:0:
305,327,34120,5,8,3:2:0:0:
292,324,34200,1,0,3:0:0:0:
279,319,34280,1,0,3:0:0:0:
266,315,34360,1,0,3:0:0:0:
176,366,34600,6,0,L|21:388,1,150.000005722046,0|8,1:0|0:0,0:0:0:0:
91,297,35320,2,0,P|94:257|16:191,1,150.000005722046,0|0,1:0|0:0,0:0:0:0:
114,138,36040,2,0,P|155:129|194:118,1,75.0000028610231,8|0,0:0|0:0,0:0:0:0:
166,32,36520,6,0,P|129:41|93:49,1,75.0000028610231
258,14,37000,2,0,P|294:21|330:31,1,75.0000028610231,8|0,0:0|0:0,0:0:0:0:
266,117,37480,1,0,0:0:0:0:
272,134,37600,1,0,0:0:0:0:
278,151,37720,2,0,P|247:149|233:145,1,37.5000014305115,2|0,1:3|0:0,0:0:0:0:
406,216,37960,2,0,P|418:160|418:99,1,112.500004291535,8|0,0:0|0:0,0:0:0:0:
394,76,38440,6,0,B|344:65|330:107|344:114|308:162|268:148,1,150.000005722046,0|10,1:0|0:0,0:0:0:0:
193,228,39160,2,0,P|141:236|109:239,2,75.0000028610231,2|2|2,1:2|0:0|0:0,0:0:0:0:
294,295,39880,1,10,0:0:0:0:
294,295,40120,6,0,L|447:320,1,150.000005722046,2|0,0:0|0:0,0:0:0:0:
353,182,40840,5,10,0:0:0:0:
408,130,41080,1,2,1:2:0:0:
326,40,41320,6,0,P|273:47|258:66,2,75.0000028610231,2|2|10,0:0|1:2|3:2,0:0:0:0:
320,51,41880,1,0,3:0:0:0:
314,62,41960,1,0,3:0:0:0:
308,73,42040,1,2,3:2:0:0:
243,176,42280,6,0,B|202:189|169:170|186:148|140:135|100:161,1,150.000005722046,0|10,1:0|0:0,0:0:0:0:
49,255,43000,1,2,1:2:0:0:
49,255,43240,2,0,P|61:304|65:337,1,75.0000028610231,2|2,0:0|0:0,0:0:0:0:
163,256,43720,1,10,0:0:0:0:
240,346,43960,6,0,P|297:332|399:342,1,150.000005722046,2|2,0:0|0:0,0:0:0:0:
337,223,44680,1,8,0:0:0:0:
337,223,44920,2,0,B|292:238|252:226|271:203|227:188|197:198,1,150.000005722046,0|2,1:0|1:2,0:0:0:0:
88,251,45640,1,10,0:0:0:0:
88,251,46120,6,0,P|119:179|108:147,1,100,2|0,1:2|0:0,0:0:0:0:
76,106,46480,1,2,0:0:0:0:
65,95,46600,1,8,0:0:0:0:
216,56,46840,1,2,0:0:0:0:
233,67,46960,1,2,0:0:0:0:
250,77,47080,6,0,B|295:56|295:56|351:79,1,100,2|0,0:0|0:0,0:0:0:0:
398,116,47440,1,2,0:0:0:0:
417,129,47560,1,8,0:0:0:0:
512,100,47800,1,2,0:0:0:0:
502,131,47920,1,2,0:0:0:0:
485,159,48040,6,0,P|456:207|470:246,1,100,2|0,0:0|0:0,0:0:0:0:
512,309,48400,1,2,0:0:0:0:
502,321,48520,1,8,0:0:0:0:
336,368,48760,1,2,0:0:0:0:
290,357,48880,1,2,0:0:0:0:
272,312,49000,6,0,B|225:290|225:290|182:328,1,100,2|0,0:0|0:0,0:0:0:0:
134,370,49360,1,2,0:0:0:0:
119,381,49480,1,8,0:0:0:0:
272,312,49720,2,0,P|287:281|282:255,1,50,10|2,0:0|0:0,0:0:0:0:
39,131,49960,6,0,P|110:117|149:113,1,100,8|8,1:2|0:0,0:0:0:0:
50,226,50440,2,0,P|121:212|160:208,1,100,8|8,0:0|1:2,0:0:0:0:
418,56,50920,5,8,1:2:0:0:
268,18,51160,1,8,0:0:0:0:
395,192,51400,5,8,0:0:0:0:
245,154,51640,1,8,0:0:0:0:
65,319,51880,5,8,1:2:0:0:
97,355,52000,1,8,0:0:0:0:
146,365,52120,1,8,0:0:0:0:
190,345,52240,1,8,0:0:0:0:
214,302,52360,1,8,1:2:0:0:
258,258,52480,1,8,0:0:0:0:
318,244,52600,1,8,0:0:0:0:
376,265,52720,1,8,0:0:0:0:
414,314,52840,6,0,P|428:310|470:320,3,50,0|0|0|0,1:0|0:0|0:0|0:0,0:0:0:0:
98,200,53800,6,0,P|57:171|53:116,1,100,6|0,1:2|0:0,0:0:0:0:
179,106,54040,2,0,P|208:65|263:61,1,100,2|0,0:0|0:0,0:0:0:0:
21,280,54280,6,0,P|218:326|341:339,1,300,10|0,0:0|0:0,0:0:0:0:
372,292,54760,6,0,P|366:271|366:267,1,20,2|0,0:3|0:0,0:0:0:0:
432,46,55000,6,0,P|465:128|452:148,1,100,2|0,1:2|0:0,0:0:0:0:
210,190,55240,2,0,P|177:108|190:88,1,100,10|0,0:0|0:0,0:0:0:0:
366,272,55480,5,2,3:2:0:0:
363,285,55560,1,0,3:0:0:0:
360,298,55640,1,0,3:0:0:0:
357,311,55720,2,0,B|302:378|200:341|256:269|176:226|96:287,1,300,0|0,1:0|0:0,0:0:0:0:
271,239,56200,5,10,0:0:0:0:
130,160,56440,2,0,P|79:146|30:147,2,100,2|2|2,1:2|0:0|1:2,0:0:0:0:
239,43,57160,2,0,P|288:43|336:29,1,100,10|2,0:0|0:0,0:0:0:0:
130,160,57640,6,0,P|111:113|67:99,1,100,2|0,1:2|0:0,0:0:0:0:
228,242,57880,2,0,P|181:261|167:305,1,100,2|0,0:0|0:0,0:0:0:0:
426,384,58120,6,0,P|408:259|360:80,1,300,10|0,0:0|0:0,0:0:0:0:
430,45,58600,6,0,P|423:76|421:81,1,20,2|0,0:3|0:0,0:0:0:0:
241,117,58840,6,0,P|195:99|141:107,1,100,2|0,1:2|0:0,0:0:0:0:
109,359,59080,2,0,P|155:377|209:369,1,100,10|0,0:0|0:0,0:0:0:0:
114,187,59320,5,2,3:2:0:0:
101,192,59400,1,0,3:0:0:0:
88,197,59480,1,0,3:0:0:0:
75,202,59560,2,0,B|177:162|273:187|273:290|219:308|165:273,1,300,0|0,1:0|0:0,0:0:0:0:
311,152,60040,5,10,0:0:0:0:
420,212,60280,2,0,P|401:167|421:122,2,100,2|2|2,1:2|0:0|0:0,0:0:0:0:
299,70,61000,2,0,P|236:83|191:89,1,100,10|2,0:0|1:2,0:0:0:0:
359,345,61480,6,0,P|385:284|365:255,1,100,6|0,1:2|0:0,0:0:0:0:
164,203,61720,2,0,P|225:229|254:209,1,100,2|0,0:0|0:0,0:0:0:0:
425,32,61960,6,0,P|293:43|117:65,1,300,10|0,0:0|0:0,0:0:0:0:
58,40,62440,6,0,P|52:64|52:66,1,20,2|0,0:3|0:0,0:0:0:0:
6,256,62680,6,0,P|28:302|23:357,1,100,2|0,1:2|0:0,0:0:0:0:
268,308,62920,2,0,P|246:262|251:207,1,100,10|0,0:0|0:0,0:0:0:0:
354,100,63160,5,2,3:2:0:0:
366,103,63240,1,0,3:0:0:0:
378,106,63320,1,0,3:0:0:0:
390,109,63400,2,2,B|336:166|282:87|209:107|190:182|101:163,1,300,0|0,1:0|0:0,0:0:0:0:
232,54,63880,5,10,0:0:0:0:
164,244,64120,2,0,P|154:302|147:348,2,100,2|2|2,1:2|0:0|1:2,0:0:0:0:
391,313,64840,2,0,P|383:263|374:214,1,100,10|2,0:0|0:0,0:0:0:0:
108,30,65320,6,0,P|145:84|185:96,1,100,2|0,1:2|0:0,0:0:0:0:
164,244,65560,2,0,P|218:207|230:167,1,100,2|0,0:0|0:0,0:0:0:0:
441,362,65800,6,0,P|404:206|363:62,1,300,10|0,0:0|0:0,0:0:0:0:
329,16,66280,6,0,P|345:9|360:4,1,20,2|0,0:3|0:0,0:0:0:0:
39,70,66520,6,0,P|82:133|130:148,1,112.500004291535,2|0,1:2|0:0,0:0:0:0:
221,312,66760,2,0,P|284:268|299:220,1,112.500004291535,10|0,0:0|0:0,0:0:0:0:
495,268,67000,2,0,P|451:204|403:189,1,112.500004291535,2|0,0:0|0:0,0:0:0:0:
139,381,67240,6,0,B|70:290|119:146|247:227|335:107|250:8,1,450.000017166138,0|8,1:0|0:0,0:0:0:0:
31,282,67960,1,0,1:0:0:0:
229,370,68200,6,0,P|320:351|348:347,1,100,2|2,0:0|0:0,0:0:0:0:
30,159,68680,6,0,P|331:96|423:82,1,400,10|0,0:0|1:0,0:0:0:0:
256,192,69280,12,10,70600,0:0:0:0:
256,192,70840,5,2,0:0:0:0:
171,262,71080,6,0,P|129:275|87:276,1,75.0000028610231,2|2,0:0|0:0,0:0:0:0:
41,356,71560,2,0,P|78:359|113:370,1,75.0000028610231,10|2,0:0|0:0,0:0:0:0:
35,248,72040,6,0,P|14:216|74:139,1,150.000005722046,0|8,0:0|0:0,0:0:0:0:
72,139,72760,1,2,0:0:0:0:
151,53,73000,6,0,B|190:70|225:59|221:45|250:30|298:53,2,150.000005722046,2|10|2,0:0|0:0|0:0,0:0:0:0:
80,11,74200,1,0,3:0:0:0:
165,69,74440,2,0,P|180:111|185:142,1,75.0000028610231,10|2,0:0|0:0,0:0:0:0:
309,40,74920,5,2,0:0:0:0:
384,104,75160,2,0,L|462:87,2,75.0000028610231,2|10|2,0:0|0:0|0:0,0:0:0:0:
316,181,75880,1,2,0:0:0:0:
316,181,76000,2,0,P|289:223|313:288,1,112.500004291535,2|8,0:0|0:0,0:0:0:0:
469,365,76840,6,0,P|489:322|411:299,1,150.000005722046,2|8,1:2|0:0,0:0:0:0:
319,380,77560,2,0,L|168:357,1,150.000005722046,0|2,1:0|0:0,0:0:0:0:
184,252,78280,2,0,P|220:265|263:263,1,75.0000028610231,10|2,0:0|0:0,0:0:0:0:
272,167,78760,6,0,P|236:154|199:154,1,75.0000028610231,2|2,0:0|0:0,0:0:0:0:
116,201,79240,1,10,0:0:0:0:
116,201,79480,1,2,0:0:0:0:
43,147,79720,2,0,P|29:111|44:75,1,75.0000028610231,2|0,0:0|1:0,0:0:0:0:
7,216,80200,5,10,3:2:0:0:
11,227,80280,1,0,3:0:0:0:
15,238,80360,1,0,3:0:0:0:
19,249,80440,1,0,3:0:0:0:
53,359,80680,6,0,B|102:376|133:353|120:338|156:321|200:341,1,150.000005722046,2|8,1:2|0:0,0:0:0:0:
287,384,81400,2,0,P|349:372|435:365,1,150.000005722046,0|2,1:0|0:0,0:0:0:0:
394,249,82120,5,10,0:0:0:0:
327,278,82360,1,2,0:0:0:0:
449,181,82600,6,0,P|465:145|466:107,1,75.0000028610231,2|2,0:0|0:0,0:0:0:0:
374,162,83080,2,0,P|390:126|391:88,1,75.0000028610231,10|2,0:0|1:2,0:0:0:0:
251,186,83560,5,0,1:0:0:0:
214,177,83680,1,0,3:0:0:0:
177,168,83800,1,0,1:0:0:0:
287,116,84040,2,0,P|284:83|266:37,1,75.0000028610231,8|0,0:0|0:0,0:0:0:0:
159,182,84520,6,0,P|111:169|9:147,1,150.000005722046,0|10,1:0|0:0,0:0:0:0:
79,83,85240,1,2,1:2:0:0:
21,219,85480,6,0,P|32:260|38:297,1,75.0000028610231,2|2,0:0|0:0,0:0:0:0:
159,182,85960,1,10,0:0:0:0:
54,282,86200,6,0,P|165:307|204:313,1,150.000005722046,2|0,0:0|0:0,0:0:0:0:
288,249,86920,1,10,0:0:0:0:
288,249,87160,2,0,P|272:198|270:175,1,75.0000028610231,2|2,1:2|0:0,0:0:0:0:
200,312,87640,6,0,P|184:261|182:238,1,75.0000028610231,2|10,1:3|3:2,0:0:0:0:
171,246,87960,1,0,3:0:0:0:
160,252,88040,1,0,3:0:0:0:
149,258,88120,1,2,3:2:0:0:
14,307,88360,6,0,P|19:251|46:160,1,150.000005722046,0|10,1:0|0:0,0:0:0:0:
0,29,89080,1,2,1:2:0:0:
139,42,89320,6,0,P|176:34|228:30,2,75.0000028610231,2|2|10,0:0|0:0|0:0,0:0:0:0:
117,152,90040,2,0,P|191:136|295:128,1,150.000005722046,2|0,0:0|0:0,0:0:0:0:
209,231,90760,1,8,0:0:0:0:
273,324,91000,1,0,0:0:0:0:
348,304,91240,6,0,P|402:320|436:328,3,75.0000028610231
98,200,92200,6,0,P|57:171|53:116,1,100,6|10,0:0|0:0,0:0:0:0:
179,106,93160,2,0,P|208:65|263:61,1,100,2|10,0:0|0:0,0:0:0:0:
256,190,94120,2,0,P|297:219|301:274,1,100,2|10,0:0|0:0,0:0:0:0:
175,284,95080,2,0,P|160:304|133:306,2,50,2|0|10,0:0|0:0|0:0,0:0:0:0:
229,147,96040,6,0,P|210:100|166:86,1,100,2|10,0:0|0:0,0:0:0:0:
327,229,97000,2,0,P|280:248|266:292,1,100,2|10,0:0|0:0,0:0:0:0:
422,144,97960,2,0,P|441:191|485:205,1,100,2|10,0:0|0:0,0:0:0:0:
324,62,98920,2,0,P|348:52|355:30,2,50,2|0|10,0:0|0:0|0:0,0:0:0:0:
474,15,99880,6,0,P|487:67|493:112,1,87.0000007301331,14|2,1:2|0:0,0:0:0:0:
355,31,100360,2,0,P|379:127|390:210,1,174.000001460266,10|10,0:0|0:0,0:0:0:0:
336,277,101080,1,2,0:0:0:0:
336,277,101320,1,10,0:0:0:0:
221,218,101560,1,2,0:0:0:0:
336,277,101800,6,0,P|392:262|473:341,1,174.000001460266,8|10,0:0|0:0,0:0:0:0:
387,356,102520,1,2,0:0:0:0:
493,233,102760,6,0,P|506:191|492:152,1,87.0000007301331,10|2,0:0|0:0,0:0:0:0:
386,154,103240,2,0,P|373:196|387:235,1,87.0000007301331,10|2,0:0|1:3,0:0:0:0:
264,355,103720,6,0,P|210:367|181:324,1,100,8|0,1:2|0:0,0:0:0:0:
192,269,104080,1,0,1:0:0:0:
198,256,104200,1,8,0:0:0:0:
90,329,104440,1,0,1:0:0:0:
286,260,104680,6,0,P|257:217|266:159,1,100,8|0,0:0|1:0,0:0:0:0:
333,89,105040,1,0,1:0:0:0:
347,77,105160,1,8,0:0:0:0:
288,276,105400,1,0,1:0:0:0:
102,41,105640,5,8,0:0:0:0:
311,7,105880,1,8,0:0:0:0:
311,7,106000,1,8,0:0:0:0:
311,7,106120,1,8,0:0:0:0:
189,138,106360,1,8,0:0:0:0:
102,41,106600,6,0,P|96:66|91:96,3,50,0|0|0|8,1:2|0:0|0:0|1:3,0:0:0:0:
17,329,107560,6,0,P|28:280|88:270,1,100,6|0,1:2|0:0,0:0:0:0:
266,370,107800,2,0,P|217:359|207:299,1,100,2|0,0:0|0:0,0:0:0:0:
411,277,108040,6,0,P|434:171|439:66,1,200,8|2,0:0|0:0,0:0:0:0:
268,11,108520,1,2,0:0:0:0:
439,79,108760,6,0,P|397:103|344:88,1,100,0|0,1:0|0:0,0:0:0:0:
161,16,109000,6,0,P|125:129|125:140,1,100,10|0,0:0|0:0,0:0:0:0:
239,185,109240,2,0,P|245:205|248:221,4,25,0|0|0|0|0,3:0|3:0|3:0|3:0|3:0,0:0:0:0:
170,367,109480,6,0,P|133:352|67:350,1,100,2|0,1:2|0:0,0:0:0:0:
292,327,109720,2,0,P|307:290|309:224,1,100,2|0,0:0|0:0,0:0:0:0:
170,367,109960,6,0,P|133:352|67:350,1,100,10|0,0:0|0:0,0:0:0:0:
292,327,110200,2,0,P|307:290|309:224,1,100,2|0,1:2|0:0,0:0:0:0:
54,44,110440,6,0,P|199:78|286:92,1,200,2|0,0:0|1:0,0:0:0:0:
373,26,110800,1,0,0:0:0:0:
373,26,110920,6,2,B|334:18|334:18|294:30,1,75,10|0,0:1|0:0,0:1:0:0:
432,158,111400,6,0,P|481:115|473:68,1,100,2|0,1:2|0:0,0:0:0:0:
310,230,111640,2,0,P|353:279|400:271,1,100,2|0,0:0|0:0,0:0:0:0:
182,363,111880,6,0,P|201:231|209:155,1,200,8|2,0:0|0:0,0:0:0:0:
284,318,112360,1,2,0:0:0:0:
208,164,112600,6,0,P|156:147|101:136,1,100,0|0,1:0|0:0,0:0:0:0:
310,230,112840,6,0,P|351:222|403:188,1,100,10|0,0:0|0:0,0:0:0:0:
194,276,113080,2,0,P|163:269|162:269,4,25,2|0|0|0|0,3:1|3:0|3:0|3:0|3:0,0:0:0:0:
291,153,113320,6,2,B|235:131|124:207|242:257|117:336|65:294,1,300,2|0,1:0|0:0,0:1:0:0:
14,193,113800,5,10,0:0:0:0:
194,276,114040,2,0,P|244:263|293:256,2,100,2|2|2,1:2|0:0|1:2,0:0:0:0:
14,193,114760,2,0,P|21:137|31:94,1,100,10|2,0:0|0:0,0:0:0:0:
259,16,115240,6,0,P|301:43|292:88,1,100,6|0,1:2|0:0,0:0:0:0:
71,0,115480,2,0,P|44:42|-1:33,1,100,2|0,0:0|0:0,0:0:0:0:
160,194,115720,6,0,P|279:169|365:154,1,200,8|2,0:0|0:0,0:0:0:0:
488,245,116200,1,2,0:0:0:0:
356,155,116440,6,0,P|326:196|339:255,1,100,0|0,1:0|0:0,0:0:0:0:
511,342,116680,6,0,P|488:250|484:222,1,100,10|0,0:0|0:0,0:0:0:0:
317,361,116920,2,0,P|304:357|281:352,4,25,0|0|0|0|0,3:0|3:0|3:0|3:0|3:0,0:0:0:0:
132,310,117160,6,0,P|116:266|66:238,1,100,2|0,1:2|0:0,0:0:0:0:
230,134,117400,2,0,P|186:150|158:200,1,100,2|0,0:0|0:0,0:0:0:0:
230,134,117640,6,0,P|186:150|158:200,1,100,10|0,0:0|0:0,0:0:0:0:
230,134,117880,6,0,P|186:150|158:200,1,100,2|0,1:2|0:0,0:0:0:0:
380,286,118120,6,0,P|359:139|348:85,1,200,2|0,0:0|1:0,0:0:0:0:
252,19,118480,1,0,0:0:0:0:
252,19,118600,6,2,B|226:21|226:21|206:14|206:14|171:8,1,75,10|0,0:1|0:0,0:1:0:0:
348,88,119080,6,0,P|425:23|466:22,1,100,2|0,1:2|0:0,0:0:0:0:
230,134,119320,2,0,P|295:211|296:252,1,100,2|0,0:0|0:0,0:0:0:0:
451,287,119560,6,0,P|330:326|253:344,1,200,8|2,0:0|0:0,0:0:0:0:
67,285,120040,1,2,0:0:0:0:
259,342,120280,6,0,P|240:317|166:309,1,100,0|0,1:0|0:0,0:0:0:0:
293,206,120520,6,0,P|310:141|303:95,1,100,10|0,0:0|0:0,0:0:0:0:
200,38,120760,2,0,P|184:33|167:31,4,25,2|0|0|0|0,3:1|3:0|3:0|3:0|3:0,0:0:0:0:
23,84,121000,6,2,B|131:142|141:35|207:39|206:148|315:106,1,300,2|0,1:0|0:0,0:1:0:0:
364,61,121480,6,0,P|349:122|314:137,1,100,8|2,0:0|0:0,0:0:0:0:
119,356,121960,6,0,P|100:232|78:129,1,187.5,0|0,1:0|0:0,0:0:0:0:
23,84,122440,2,0,B|94:59|107:129|107:129|119:195|210:171,1,225.000008583069,0|0,1:0|0:0,0:0:0:0:
306,109,122920,5,0,1:0:0:0:
126,323,130600,6,0,P|151:273|139:220,1,100,14|10,1:2|0:0,0:0:0:0:
83,183,131320,1,0,0:0:0:0:
156,107,131560,2,0,P|188:113|212:115,1,50,0|2,1:0|0:0,0:0:0:0:
131,127,132040,1,10,0:0:0:0:
192,37,132280,1,2,0:0:0:0:
192,37,132520,6,0,P|238:23|292:22,1,100,0|10,1:0|0:0,0:0:0:0:
371,99,133240,1,10,0:0:0:0:
371,99,133360,1,0,0:0:0:0:
371,99,133480,2,0,P|341:125|340:187,1,100,2|10,1:2|0:0,0:0:0:0:
337,182,134440,6,0,P|333:159|324:128,1,50,10|2,1:2|0:0,0:0:0:0:
443,231,134920,2,0,P|447:208|456:177,1,50,10|8,1:2|0:0,0:0:0:0:
335,282,135400,6,0,P|288:289|225:303,1,100,8|10,1:2|1:2,0:0:0:0:
236,299,136360,5,8,1:2:0:0:
284,197,136600,1,8,1:2:0:0:
182,150,136840,1,8,1:2:0:0:
135,252,137080,1,8,1:2:0:0:
377,358,137320,6,0,P|390:334|385:312,3,50,0|0|0|0,1:0|0:0|0:0|0:0,0:0:0:0:
92,110,138280,6,0,P|80:168|35:184,1,100,6|0,1:2|0:0,0:0:0:0:
227,29,138520,2,0,P|285:41|301:86,1,100,2|0,0:0|0:0,0:0:0:0:
0,273,138760,6,0,P|126:305|303:313,1,300,10|0,0:0|0:0,0:0:0:0:
317,248,139240,6,0,P|309:235|305:215,1,20,2|0,0:3|0:0,0:0:0:0:
484,44,139480,6,0,P|433:30|383:50,1,100,2|0,1:2|0:0,0:0:0:0:
395,277,139720,2,0,P|446:291|496:271,1,100,10|0,0:0|0:0,0:0:0:0:
300,74,139960,5,2,3:2:0:0:
287,77,140040,1,0,3:0:0:0:
274,80,140120,1,0,3:0:0:0:
261,83,140200,2,0,B|183:145|133:57|252:-9|320:84|300:192|211:206,1,300,0|0,1:0|0:0,0:0:0:0:
134,240,140680,5,8,0:0:0:0:
227,342,140920,2,0,P|289:334|327:310,2,100,2|2|2,1:2|0:0|1:2,0:0:0:0:
134,240,141640,2,0,P|89:217|40:213,1,100,10|2,0:0|0:0,0:0:0:0:
320,315,142120,6,0,P|350:275|344:224,1,100,2|0,1:2|0:0,0:0:0:0:
435,95,142360,2,0,P|395:65|344:71,1,100,2|0,0:0|0:0,0:0:0:0:
86,23,142600,6,0,P|129:140|159:332,1,300,10|0,0:0|0:0,0:0:0:0:
103,363,143080,6,0,P|85:366|71:364,1,20,2|0,0:3|0:0,0:0:0:0:
320,315,143320,6,0,P|360:331|420:319,1,100,2|0,1:2|0:0,0:0:0:0:
435,95,143560,2,0,P|395:79|335:91,1,100,10|0,0:0|0:0,0:0:0:0:
236,305,143800,5,2,3:2:0:0:
231,292,143880,1,0,3:0:0:0:
227,279,143960,1,0,3:0:0:0:
227,265,144040,2,0,B|192:190|245:108|309:176|362:108|313:10,1,300,0|0,1:0|0:0,0:0:0:0:
210,0,144520,5,10,0:0:0:0:
119,96,144760,2,0,P|59:76|16:71,2,100,2|2|2,1:2|0:0|1:2,0:0:0:0:
231,180,145480,2,0,P|280:172|327:155,1,100,10|2,0:0|0:0,0:0:0:0:
43,299,145960,6,0,P|37:244|-4:221,1,100,6|0,1:2|0:0,0:0:0:0:
223,344,146200,2,0,P|168:350|145:391,1,100,2|0,0:0|0:0,0:0:0:0:
419,335,146440,6,0,P|437:214|482:26,1,300,10|0,0:0|0:0,0:0:0:0:
407,12,146920,6,0,P|416:33|420:41,1,20,2|0,0:3|0:0,0:0:0:0:
180,77,147160,6,0,P|232:94|282:73,1,100,2|0,1:2|0:0,0:0:0:0:
271,287,147400,2,0,P|219:270|169:291,1,100,10|0,0:0|0:0,0:0:0:0:
71,94,147640,5,2,3:2:0:0:
74,106,147720,1,0,3:0:0:0:
77,118,147800,1,0,3:0:0:0:
80,130,147880,6,0,B|161:199|251:208|295:83|215:40|178:78,1,300,0|0,1:0|0:0,0:0:0:0:
124,203,148360,5,10,0:0:0:0:
24,32,148600,2,0,P|5:89|0:139,2,100,2|2|2,1:2|0:0|1:2,0:0:0:0:
181,145,149320,2,0,P|200:202|205:252,1,100,10|2,0:0|0:0,0:0:0:0:
36,377,149800,6,0,P|33:332|77:305,1,100,2|0,1:2|0:0,0:0:0:0:
276,280,150040,2,0,P|231:283|204:239,1,100,2|0,0:0|0:0,0:0:0:0:
464,59,150280,6,0,P|454:196|415:361,1,300,10|0,0:0|0:0,0:0:0:0:
355,320,150760,6,0,P|350:291|349:287,1,20,2|0,0:3|0:0,0:0:0:0:
36,377,151000,6,0,P|32:326|81:296,1,112.500004291535,2|0,1:2|0:0,0:0:0:0:
297,254,151240,2,0,P|246:257|216:208,1,112.500004291535,10|0,0:0|0:0,0:0:0:0:
448,63,151480,2,0,P|451:113|402:143,1,112.500004291535,2|0,0:0|0:0,0:0:0:0:
25,35,151720,6,0,B|124:-33|262:33|141:107|280:218|404:141,1,450.000017166138,0|8,1:0|0:0,0:0:0:0:
104,268,152440,1,2,1:2:0:0:
402,142,152680,6,0,P|417:94|385:51,1,100,2|2,0:0|0:0,0:0:0:0:
252,83,153160,2,0,P|237:131|269:174,1,100,10|2,0:0|0:0,0:0:0:0:
129,337,153640,5,2,0:0:0:0:
104,268,153880,1,2,0:0:0:0:
129,337,154360,1,2,0:0:0:0:
104,268,154600,1,2,0:0:0:0:
129,337,155080,2,0,P|270:360|455:379,1,322.50000492096,10|0,0:0|0:0,0:0:0:0:
361,271,155560,6,0,P|314:287|296:339,1,100,6|0,1:2|0:0,0:0:0:0:
434,184,155800,2,0,P|450:231|502:249,1,100,2|0,0:0|0:0,0:0:0:0:
434,184,156040,6,0,P|450:231|502:249,1,100,10|0,0:0|0:0,0:0:0:0:
434,184,156280,6,0,P|450:231|502:249,1,100,2|0,1:2|0:0,0:0:0:0:
347,23,156520,6,0,P|241:35|146:56,1,200,2|0,0:0|1:0,0:0:0:0:
37,17,156880,1,0,0:0:0:0:
37,17,157000,6,2,B|28:37|28:37|36:49|33:55|33:55|17:71|17:85,1,75,10|0,0:1|0:0,0:1:0:0:
104,199,157480,6,0,P|134:162|208:164,1,100,2|0,1:2|0:0,0:0:0:0:
49,335,157720,2,0,P|12:305|14:231,1,100,2|0,0:0|0:0,0:0:0:0:
177,381,157960,6,0,P|306:353|386:326,1,200,8|2,0:0|0:0,0:0:0:0:
473,217,158440,1,2,0:0:0:0:
370,331,158680,6,0,P|356:307|376:234,1,100,0|0,1:0|0:0,0:0:0:0:
491,108,158920,6,0,P|505:132|485:205,1,100,10|0,0:0|0:0,0:0:0:0:
317,125,159160,2,0,P|296:126|281:131,4,25,2|0|0|0|0,3:1|3:0|3:0|3:0|3:0,0:0:0:0:
451,39,159400,6,2,B|382:5|309:101|376:125|327:229|242:193,1,300,2|0,1:0|0:0,0:1:0:0:
145,114,159880,5,8,0:0:0:0:
49,205,160120,2,0,P|29:256|52:301,2,100,2|2|2,1:2|0:0|1:2,0:0:0:0:
145,114,160840,2,0,P|165:63|142:18,1,100,10|2,0:0|0:0,0:0:0:0:
355,206,161320,6,0,P|374:157|420:148,1,100,6|0,1:2|0:0,0:0:0:0:
247,286,161560,2,0,P|296:305|305:351,1,100,2|0,0:0|0:0,0:0:0:0:
49,205,161800,6,0,P|76:104|82:2,1,200,10|2,0:0|0:0,0:0:0:0:
162,210,162280,1,2,0:0:0:0:
82,9,162520,6,0,P|59:52|71:109,1,100,0|0,1:0|0:0,0:0:0:0:
231,173,162760,6,0,P|277:155|342:147,1,100,10|0,0:0|0:0,0:0:0:0:
134,283,163000,2,0,P|112:278|104:275,4,25,2|0|0|0|0,3:2|3:0|3:0|3:0|3:0,0:0:0:0:
231,359,163240,6,0,P|267:341|286:278,1,100,2|0,1:2|0:0,0:0:0:0:
503,233,163480,2,0,P|485:197|422:178,1,100,2|0,0:0|0:0,0:0:0:0:
503,233,163720,6,0,P|485:197|422:178,1,100,10|0,0:0|0:0,0:0:0:0:
503,233,163960,6,0,P|485:197|422:178,1,100,2|0,1:2|0:0,0:0:0:0:
245,44,164200,6,0,P|363:37|461:16,1,200,2|0,0:0|1:0,0:0:0:0:
491,95,164560,1,0,0:0:0:0:
491,95,164680,6,2,P|458:95|433:88,1,50,10|0,0:1|1:0,0:1:0:0:
257,217,165160,6,0,P|202:220|161:249,1,100,2|0,1:2|0:0,0:0:0:0:
20,145,165400,2,0,P|23:200|52:241,1,100,2|0,0:0|0:0,0:0:0:0:
268,361,165640,6,0,P|392:340|476:316,1,200,8|2,0:0|0:0,0:0:0:0:
257,217,166120,1,2,0:0:0:0:
463,320,166360,6,0,P|451:281|486:227,1,100,0|0,1:0|0:0,0:0:0:0:
343,80,166600,6,0,P|355:119|320:173,1,100,10|0,0:0|0:0,0:0:0:0:
187,255,166840,2,0,P|162:243|151:243,4,25,2|0|0|0|0,3:1|3:0|3:0|3:0|3:0,0:0:0:0:
11,10,167080,6,2,P|79:203|98:310,1,300,2|0,1:0|0:0,0:1:0:0:
11,376,167560,5,8,0:0:0:0:
187,255,167800,5,2,1:2:0:0:
246,308,168040,1,2,0:0:0:0:
304,256,168280,1,2,0:0:0:0:
248,67,168520,5,10,0:0:0:0:
246,146,168760,1,2,0:0:0:0:
