osu file format v14

[General]
AudioFilename: Initial D - Running in The 90s.mp3
AudioLeadIn: 0
PreviewTime: -1
Countdown: 0
SampleSet: Normal
StackLeniency: 0.2
Mode: 0
LetterboxInBreaks: 0
WidescreenStoryboard: 1

[Editor]
Bookmarks: 22188
DistanceSpacing: 0.9
BeatDivisor: 4
GridSize: 4
TimelineZoom: 1

[Metadata]
Title:runing in the 90s
TitleUnicode:runing in the 90s
Artist:initial d
ArtistUnicode:initial d
Creator:nanoK
Version:run
Source:ds
Tags:dsds g
BeatmapID:1179087
BeatmapSetID:557200

[Difficulty]
HPDrainRate:8
CircleSize:3.5
OverallDifficulty:7
ApproachRate:10
SliderMultiplier:2.49999990463257
SliderTickRate:1

[Events]
//Background and Video events
0,0,"bg.jpg",0,0
//Break Periods
//Storyboard Layer 0 (Background)
//Storyboard Layer 1 (Fail)
//Storyboard Layer 2 (Pass)
//Storyboard Layer 3 (Foreground)
//Storyboard Sound Samples

[TimingPoints]
800,378.548895899054,4,1,0,100,1,0
18970,-66.6666666666667,4,1,0,100,0,0
37140,-100,4,1,0,100,0,0

[Colours]
Combo1 : 88,167,130
Combo2 : 127,127,127
Combo3 : 182,73,114
Combo4 : 109,64,136

[HitObjects]
256,192,17456,5,0,0:0:0:0:
256,192,17550,12,0,18875,0:0:0:0:
192,328,18970,6,0,L|288:308,1,93.75,0|0,2:0|2:0,2:0:0:0:
360,168,19159,2,0,L|274:215,1,93.75,0|0,2:0|2:0,2:0:0:0:
128,332,19348,2,0,L|224:312,1,93.75,0|0,2:0|2:0,2:0:0:0:
432,144,19538,2,0,L|334:157,1,93.75,0|0,2:0|2:0,2:0:0:0:
64,336,19727,6,0,L|160:316,1,93.75,0|0,2:0|2:0,2:0:0:0:
416,132,19916,2,0,L|318:145,1,93.75,0|0,2:0|2:0,2:0:0:0:
64,336,20105,2,0,L|160:316,1,93.75,0|0,2:0|2:0,2:0:0:0:
416,132,20294,2,0,L|318:145,1,93.75,0|0,2:0|2:0,2:0:0:0:
103,153,20484,6,0,P|89:197|96:244,1,93.75,0|0,2:0|2:0,2:0:0:0:
408,222,20673,2,0,P|422:178|416:132,1,93.75,0|0,2:0|2:0,2:0:0:0:
243,131,20863,2,0,P|206:159|184:200,1,93.75,0|0,2:0|2:0,2:0:0:0:
432,316,21052,2,0,P|469:288|492:248,1,93.75,0|0,2:0|2:0,2:0:0:0:
86,148,21241,6,0,P|71:196|79:247,1,93.7500000000001,0|0,2:0|2:0,2:0:0:0:
417,223,21430,2,0,P|432:175|425:125,1,93.7500000000001,0|0,2:0|2:0,2:0:0:0:
238,124,21620,2,0,P|198:155|174:199,1,93.7500000000001,0|0,2:0|2:0,2:0:0:0:
443,325,21809,2,0,P|483:294|508:251,1,93.7500000000001,0|0,2:0|2:0,2:0:0:0:
176,192,21998,6,0,L|184:324,1,93.7500000000001,0|0,2:0|2:0,2:0:0:0:
427,131,22188,2,0,L|433:38,1,93.7500000000001,0|0,2:0|2:0,2:0:0:0:
192,264,22377,2,0,L|200:396,1,93.7500000000001,0|0,2:0|2:0,2:0:0:0:
505,257,22566,2,0,L|510:163,1,93.7500000000001,0|0,2:0|2:0,2:0:0:0:
190,100,22755,6,0,P|174:160|186:228,1,93.7500000000001,0|0,2:0|2:0,2:0:0:0:
490,348,22945,2,0,P|506:288|494:220,1,93.7500000000001,0|0,2:0|2:0,2:0:0:0:
80,200,23134,2,0,P|94:260|136:314,1,93.7500000000001,0|0,2:0|2:0,2:0:0:0:
368,112,23323,2,0,P|353:51|311:-2,1,93.7500000000001,0|0,2:0|2:0,2:0:0:0:
272,164,23512,5,0,3:0:0:0:
372,212,23702,1,0,3:0:0:0:
176,220,23891,5,0,3:0:0:0:
368,108,24080,1,0,3:0:0:0:
80,280,24270,5,0,3:0:0:0:
280,64,24459,1,0,3:0:0:0:
368,336,24648,1,0,3:0:0:0:
368,336,24837,1,0,3:0:0:0:
440,48,25027,5,0,0:0:0:0:
336,64,25121,1,0,0:0:0:0:
232,80,25216,1,0,0:0:0:0:
128,96,25310,1,0,0:0:0:0:
24,112,25405,5,0,0:0:0:0:
96,224,25500,1,0,0:0:0:0:
176,332,25594,1,0,0:0:0:0:
232,208,25784,5,0,0:0:0:0:
316,220,25878,1,0,0:0:0:0:
344,300,25973,1,0,0:0:0:0:
292,368,26068,1,0,0:0:0:0:
260,288,26162,5,0,0:0:0:0:
204,128,26257,1,0,0:0:0:0:
340,8,26352,1,0,0:0:0:0:
416,136,26541,5,0,0:0:0:0:
384,240,26635,1,0,0:0:0:0:
352,356,26730,1,0,0:0:0:0:
400,28,26825,5,0,0:0:0:0:
408,44,27014,1,0,0:0:0:0:
384,240,27109,1,0,0:0:0:0:
384,240,27298,5,0,0:0:0:0:
278,267,27392,1,0,0:0:0:0:
173,295,27487,1,0,0:0:0:0:
467,169,27582,5,0,0:0:0:0:
457,184,27771,1,0,0:0:0:0:
278,267,27866,1,0,0:0:0:0:
452,324,28055,5,0,0:0:0:0:
384,240,28150,1,0,0:0:0:0:
320,156,28244,1,0,0:0:0:0:
256,72,28339,1,0,0:0:0:0:
356,64,28434,5,0,0:0:0:0:
224,172,28528,1,0,0:0:0:0:
56,136,28623,1,0,0:0:0:0:
104,316,28812,5,0,0:0:0:0:
168,248,28907,1,0,0:0:0:0:
244,312,29001,1,0,0:0:0:0:
308,244,29096,1,0,0:0:0:0:
396,320,29191,5,0,0:0:0:0:
224,172,29285,1,0,0:0:0:0:
412,216,29380,1,0,0:0:0:0:
412,216,29569,5,0,0:0:0:0:
168,248,29664,1,0,0:0:0:0:
236,348,29853,5,0,0:0:0:0:
220,56,29948,1,0,0:0:0:0:
220,56,30137,5,0,0:0:0:0:
168,248,30326,5,0,0:0:0:0:
472,136,30421,1,0,0:0:0:0:
472,136,30610,5,0,0:0:0:0:
500,192,30705,1,0,3:0:0:0:
168,248,30800,1,0,3:0:0:0:
356,304,30894,1,0,3:0:0:0:
296,32,30989,1,0,3:0:0:0:
356,304,31083,5,0,0:0:0:0:
256,316,31178,1,0,0:0:0:0:
176,252,31273,1,0,0:0:0:0:
180,152,31367,1,0,0:0:0:0:
264,208,31462,5,0,0:0:0:0:
92,200,31557,1,0,0:0:0:0:
280,112,31651,1,0,0:0:0:0:
96,104,31841,5,0,0:0:0:0:
92,200,31935,1,0,0:0:0:0:
84,292,32030,1,0,0:0:0:0:
172,256,32124,1,0,0:0:0:0:
264,216,32219,5,0,0:0:0:0:
440,284,32314,1,0,0:0:0:0:
296,308,32408,1,0,0:0:0:0:
296,308,32598,5,0,0:0:0:0:
190,279,32692,1,0,0:0:0:0:
73,251,32787,1,0,0:0:0:0:
403,288,32882,5,0,0:0:0:0:
387,296,33071,1,0,0:0:0:0:
190,279,33166,1,0,0:0:0:0:
190,279,33355,5,0,0:0:0:0:
160,174,33449,1,0,0:0:0:0:
128,70,33544,1,0,0:0:0:0:
264,360,33639,5,0,0:0:0:0:
249,350,33828,1,0,0:0:0:0:
160,174,33923,1,0,0:0:0:0:
128,70,34112,5,0,0:0:0:0:
220,44,34206,1,0,0:0:0:0:
304,96,34301,1,0,0:0:0:0:
396,70,34395,1,0,0:0:0:0:
376,160,34490,5,0,0:0:0:0:
388,364,34585,1,0,0:0:0:0:
320,240,34680,1,0,0:0:0:0:
416,248,34869,5,0,0:0:0:0:
320,240,34964,1,0,0:0:0:0:
220,228,35058,1,0,0:0:0:0:
120,216,35153,1,0,0:0:0:0:
72,136,35247,5,0,0:0:0:0:
68,296,35342,1,0,0:0:0:0:
144,48,35437,1,0,0:0:0:0:
144,48,35626,5,0,0:0:0:0:
144,48,35815,1,0,0:0:0:0:
52,28,36005,5,0,0:0:0:0:
236,76,36194,1,0,0:0:0:0:
112,208,36383,5,0,0:0:0:0:
428,144,36572,1,0,0:0:0:0:
480,320,36762,1,0,0:0:0:0:
52,28,36951,1,0,0:0:0:0:
52,28,37140,6,0,L|232:44,1,124.999995231629
452,284,37424,1,0,0:0:0:0:
452,284,37519,2,0,L|327:295,1,124.999995231629
164,60,37897,2,0,L|344:76,1,124.999995231629
452,284,38276,2,0,L|327:295,1,124.999995231629
136,360,38654,6,0,L|168:228,1,124.999995231629
180,32,38938,1,0,0:0:0:0:
180,32,39033,2,0,P|224:48|304:24,1,124.999995231629
492,208,39411,2,0,P|448:192|368:216,1,124.999995231629
181,362,39790,2,0,L|161:206,1,124.999995231629
328,16,40169,6,0,L|312:139,1,124.999995231629
356,332,40452,1,0,0:0:0:0:
356,332,40547,2,0,P|424:352|496:324,1,124.999995231629
165,238,40926,2,0,P|97:218|25:246,1,124.999995231629
424,260,41304,2,0,P|464:201|459:124,1,124.999995231629
376,32,41683,5,0,3:0:0:0:
256,192,41777,12,0,42061,3:0:0:0:
256,192,42156,12,0,42440,3:0:0:0:
256,192,42535,12,0,42629,3:0:0:0:
