osu file format v14

[General]
AudioFilename: audio.mp3
AudioLeadIn: 0
PreviewTime: 23730
Countdown: 0
SampleSet: None
StackLeniency: 0.7
Mode: 0
LetterboxInBreaks: 0
WidescreenStoryboard: 1

[Editor]
DistanceSpacing: 2
BeatDivisor: 12
GridSize: 4
TimelineZoom: 1.7

[Metadata]
Title:T H E R A I N S ~ D O W N I N A F R I C A
TitleUnicode:«THE RAINS™» ~ DOWN IN 「AFRICA」
Artist:infinitefreefall
ArtistUnicode:infinitefreefall
Creator:UltraBagel
Version:P E T R I C H O R
Source:
Tags:Vaporwave Synthwave The Rains Down in Africa infinite free fall
BeatmapID:1562796
BeatmapSetID:740810

[Difficulty]
HPDrainRate:6
CircleSize:5
OverallDifficulty:7
ApproachRate:10
SliderMultiplier:2.00000000596046
SliderTickRate:2

[Events]
//Background and Video events
0,0,"1444634326738.jpg",0,0
//Break Periods
//Storyboard Layer 0 (Background)
//Storyboard Layer 1 (Fail)
//Storyboard Layer 2 (Pass)
//Storyboard Layer 3 (Foreground)
//Storyboard Sound Samples

[TimingPoints]
9191.90909090909,908.690909090909,4,3,5,100,1,0
9646,-100,4,3,5,25,0,0
10100,-133.333333333333,4,3,5,100,0,0
10554,-133.333333333333,4,3,5,25,0,0
10782,-100,4,3,5,25,0,0
11236,-100,4,3,5,10,0,0
12145,-50,4,3,5,30,0,0
12372,-50,4,3,5,40,0,0
12599,-50,4,3,5,50,0,0
12826,-133.333333333333,4,3,5,100,0,0
13508,-133.333333333333,4,3,5,25,0,0
13735,-66.6666666666667,4,3,6,50,0,0
14189,-66.6666666666667,4,3,5,25,0,0
14644,-50,4,3,5,25,0,0
15552,-50,4,3,5,30,0,0
15779,-50,4,3,5,35,0,0
16007,-50,4,3,5,40,0,0
16234,-50,4,3,5,45,0,0
16461,-58.8235294117647,4,3,5,100,0,0
16915,-58.8235294117647,4,3,5,25,0,0
17142,-50,4,3,5,25,0,0
17370,-50,4,3,5,75,0,0
17521,-50,4,3,5,25,0,0
17824,-75.187969924812,4,3,5,25,0,0
18278,-50,4,3,5,75,0,0
18619,-50,4,3,5,25,0,0
18733,-100,4,3,5,25,0,0
19187,-100,4,3,5,20,0,0
19528,-100,4,3,5,25,0,0
19641,-66.6666666666667,4,3,5,30,0,0
19982,-66.6666666666667,4,3,5,25,0,0
20096,-57.1428571428571,4,3,5,100,0,0
20777,-57.1428571428571,4,3,5,25,0,0
21004,-80,4,3,5,35,0,0
21232,-80,4,3,5,25,0,0
21345,-80,4,3,5,40,0,0
21572,-80,4,3,5,25,0,0
21686,-50,4,3,5,45,0,0
21837,-50,4,3,5,25,0,0
21913,-50,4,3,5,50,0,0
22140,-50,4,3,5,25,0,0
22367,-66.6666666666667,4,3,5,25,0,0
22822,-80,4,3,5,20,0,0
23049,-80,4,3,5,25,0,0
23276,-100,4,3,5,30,0,0
23503,-100,4,3,5,35,0,0
23730,-50,4,3,5,100,0,1
24071,-50,4,3,5,25,0,1
24639,-50,4,3,5,75,0,1
25093,-80,4,3,5,25,0,1
25548,-50,4,3,5,25,0,1
26002,-200,4,3,5,25,0,1
26457,-50,4,3,5,50,0,1
26797,-50,4,3,5,25,0,1
26911,-50,4,3,5,35,0,1
27138,-50,4,3,5,25,0,1
27365,-66.6666666666667,4,3,5,75,0,1
27592,-66.6666666666667,4,3,5,25,0,1
28274,-50,4,3,5,50,0,1
28444,-50,4,3,5,25,0,1
28501,-50,4,3,5,35,0,1
28728,-50,4,3,5,25,0,1
28955,-50,4,3,5,20,0,1
29183,-100,4,3,5,75,0,1
29864,-100,4,3,5,25,0,1
30091,-200,4,3,5,50,0,1
30773,-200,4,3,5,25,0,1
31000,-66.6666666666667,4,3,5,100,0,1
31341,-66.6666666666667,4,3,5,25,0,1
31454,-50,4,3,5,40,0,1
31909,-50,4,3,6,25,0,1
32249,-50,4,3,5,25,0,1
32363,-50,4,3,5,35,0,1
32817,-50,4,3,5,20,0,1
33045,-50,4,3,5,25,0,1
33272,-50,4,3,5,30,0,1
33499,-50,4,3,5,35,0,1
33726,-50,4,3,6,35,0,1
34180,-50,4,3,5,50,0,1
34408,-50,4,3,5,25,0,1
34635,-57.1428571428571,4,3,5,75,0,1
34976,-57.1428571428571,4,3,5,25,0,1
35543,-57.1428571428571,4,3,5,15,0,1
35998,-57.1428571428571,4,3,5,5,0,1
36452,-50,4,3,5,75,0,1
36679,-50,4,3,5,25,0,1
37815,-50,4,3,5,10,0,1
38270,-50,4,3,6,10,0,1
39178,-50,4,3,6,25,0,1
40087,-100,4,3,5,100,0,0
40314,-100,4,3,5,25,0,0
40996,-133.333333333333,4,3,5,10,0,0
41223,-133.333333333333,4,3,5,25,0,0
42813,-133.333333333333,4,3,5,35,0,0
43040,-133.333333333333,4,3,5,25,0,0
43722,-80,4,3,5,10,0,0
43949,-80,4,3,5,25,0,0
45539,-80,4,3,5,30,0,0
45766,-80,4,3,5,25,0,0
46448,-133.333333333333,4,3,5,25,0,0
46675,-133.333333333333,4,3,5,10,0,0
48265,-133.333333333333,4,3,5,30,0,0
48492,-133.333333333333,4,3,5,10,0,0
49174,-133.333333333333,4,3,5,25,0,0

[HitObjects]
265,333,9191,6,0,L|383:324,1,100.000000298023,4|0,0:0|0:0,0:0:0:0:
452,277,9873,1,0,0:0:0:0:
392,129,10100,2,0,L|384:230,1,75.0000030845403,2|0,0:0|0:0,0:0:0:0:
208,89,10782,6,0,P|240:56|272:53,1,75.0000030845403
334,94,11236,2,0,P|346:138|333:167,1,75.0000030845403,8|0,0:0|0:0,0:0:0:0:
268,194,11690,2,0,P|223:182|204:156,1,75.0000030845403
270,53,12145,2,0,P|315:64|333:91,1,66.6666668653487,8|0,0:0|0:0,0:0:0:0:
328,165,12372,2,0,P|297:198|265:201,1,66.6666668653487,8|0,0:0|0:0,0:0:0:0:
209,158,12599,2,0,P|197:113|210:84,1,66.6666668653487,8|0,0:0|0:0,0:0:0:0:
327,78,12826,6,0,L|312:195,1,112.50000462681,2|0,0:0|0:0,0:0:0:0:
355,149,13735,2,0,L|334:303,1,150.000000447035,2|0,0:0|0:0,0:0:0:0:
204,201,14416,1,0,0:0:0:0:
312,189,14644,6,0,L|295:316,1,100.000000298023,4|0,0:0|0:0,0:0:0:0:
100,310,15098,2,0,L|227:326,1,100.000000298023
284,199,15552,1,8,0:0:0:0:
443,250,15779,1,8,0:0:0:0:
284,302,16006,1,8,0:0:0:0:
382,164,16234,1,8,0:0:0:0:
382,334,16461,6,0,P|391:247|382:162,1,170.000003749132,4|0,0:0|0:0,0:0:0:0:
228,292,17142,1,0,0:0:0:0:
114,89,17370,2,0,P|107:121|120:151,1,66.6666668653487,2|0,0:0|0:0,0:0:0:0:
188,195,17597,2,0,P|219:184|238:157,1,66.6666668653487
238,73,17824,2,0,P|213:51|180:47,1,66.6666668653487
120,151,18278,6,0,L|130:317,1,150.000000447035,4|0,0:0|0:0,0:0:0:0:
171,341,18733,2,0,L|167:267,1,75.0000002235173
232,206,19187,2,0,P|194:188|152:194,1,75.0000002235173,8|0,0:0|0:0,0:0:0:0:
90,173,19641,2,8,P|141:149|197:152,1,112.50000462681
387,68,20096,6,0,B|373:144|377:200|377:200|358:247|363:287|363:287|349:341|350:345,1,262.500003285705,2|0,0:0|0:0,0:0:0:0:
244,264,21004,2,0,P|237:232|250:202,1,62.5000001862644,8|0,0:0|0:0,0:0:0:0:
318,158,21345,2,0,P|349:169|368:196,1,62.5000001862644
368,280,21686,2,0,P|343:302|310:306,1,66.6666668653487,8|0,0:0|0:0,0:0:0:0:
244,264,21913,6,0,L|136:274,1,100.000000298023,8|0,0:0|0:0,0:0:0:0:
111,225,22367,2,0,L|205:234,1,75.0000030845403
229,184,22822,2,8,L|146:191,1,62.5000001862644
89,160,23276,2,8,L|151:165,1,50.0000001490115
450,292,23730,6,0,P|382:324|284:311,1,150.000000447035,6|0,0:0|0:0,0:0:0:0:
332,289,24185,1,0,0:0:0:0:
180,289,24412,1,0,0:0:0:0:
61,291,24639,2,0,P|129:323|203:320,1,150.000000447035,2|0,0:0|0:0,0:0:0:0:
256,205,25093,2,0,L|264:124,1,62.5000001862644
160,56,25548,6,0,L|141:242,1,150.000000447035,2|0,0:0|0:0,0:0:0:0:
261,142,26002,2,0,L|259:167,1,25.0000000745058
378,161,26457,2,0,L|359:347,1,150.000000447035,2|0,0:0|0:0,0:0:0:0:
249,266,26911,2,0,L|260:145,1,100.000000298023,8|0,0:0|0:0,0:0:0:0:
161,75,27365,6,0,P|121:109|121:159,1,75.0000030845403,2|0,0:0|0:0,0:0:0:0:
120,163,27820,2,0,P|169:180|212:155,1,75.0000030845403
432,96,28274,2,0,P|400:63|368:60,1,75.0000030845403,2|0,0:0|0:0,0:0:0:0:
306,101,28501,2,0,P|294:145|307:174,1,75.0000030845403,8|0,0:0|0:0,0:0:0:0:
372,201,28728,2,0,P|417:189|436:163,1,75.0000030845403,8|0,0:0|0:0,0:0:0:0:
370,60,28955,2,0,P|325:71|307:98,1,66.6666668653487
324,172,29183,6,0,B|326:206|311:229|311:229|323:282|323:282|323:305|315:327,1,150.000000447035
231,251,30091,2,0,L|307:261,1,75.0000002235173,4|0,0:0|0:0,0:0:0:0:
270,198,31000,6,0,L|159:212,1,112.50000462681,6|0,0:0|0:0,0:0:0:0:
83,146,31454,2,0,P|69:237|120:296,1,150.000000447035,8|0,0:0|0:0,0:0:0:0:
270,197,31909,2,0,L|426:175,1,150.000000447035,2|0,0:0|0:0,0:0:0:0:
151,220,32363,2,0,L|313:241,1,150.000000447035,8|0,0:0|0:0,0:0:0:0:
310,270,32817,5,8,0:0:0:0:
310,124,33045,1,8,0:0:0:0:
435,197,33272,1,8,0:0:0:0:
267,197,33499,1,8,0:0:0:0:
394,124,33726,2,0,P|389:174|350:215,1,100.000000298023,2|0,0:0|0:0,0:0:0:0:
381,301,34180,2,0,P|340:271|323:217,1,100.000000298023,2|0,0:0|0:0,0:0:0:0:
375,190,34635,6,0,P|305:178|214:211,1,131.250001642853,2|0,0:0|0:0,0:0:0:0:
234,155,35089,2,0,P|190:195|217:275,1,131.250001642853
214,274,35543,2,0,P|270:292|326:228,1,131.250001642853,4|0,0:0|0:0,0:0:0:0:
333,228,35998,2,0,P|320:169|237:153,1,131.250001642853,4|0,0:0|0:0,0:0:0:0:
200,260,36452,6,0,B|238:284|238:284|298:287,1,100.000000298023,6|0,0:0|0:0,0:0:0:0:
184,213,36906,2,0,B|146:237|146:237|85:239,1,100.000000298023
391,82,37361,1,0,0:0:0:0:
375,231,37588,1,0,0:0:0:0:
383,156,37815,1,0,0:0:0:0:
367,305,38042,1,0,0:0:0:0:
245,278,38270,6,0,L|131:295,1,100.000000298023,2|0,0:0|0:0,0:0:0:0:
261,241,38724,2,0,L|375:258,1,100.000000298023
255,153,39178,1,8,0:0:0:0:
319,50,39405,1,8,0:0:0:0:
437,73,39632,1,8,0:0:0:0:
460,191,39859,1,8,0:0:0:0:
359,255,40087,6,0,P|316:270|300:286,1,50.0000001490115,6|0,0:0|0:0,0:0:0:0:
153,255,40541,2,0,P|196:270|212:286,1,50.0000001490115
256,128,40996,2,0,L|248:176,1,37.5000015422702,8|0,0:0|0:0,0:0:0:0:
243,201,41450,2,0,L|251:153,1,37.5000015422702
166,135,41904,5,0,0:0:0:0:
337,165,42131,1,0,0:0:0:0:
176,64,42359,1,0,0:0:0:0:
332,256,42586,1,0,0:0:0:0:
251,149,42813,2,0,P|278:168|288:185,1,37.5000015422702,8|0,0:0|0:0,0:0:0:0:
251,149,43267,2,0,P|224:130|214:113,1,37.5000015422702
151,305,43722,6,0,L|234:317,1,62.5000001862644,8|0,0:0|0:0,0:0:0:0:
404,257,44176,2,0,L|321:269,1,62.5000001862644
204,236,44630,1,2,0:0:0:0:
142,181,44857,1,0,0:0:0:0:
171,105,45084,1,0,0:0:0:0:
253,103,45311,1,0,0:0:0:0:
284,179,45539,6,0,P|289:209|316:239,1,62.5000001862644,8|0,0:0|0:0,0:0:0:0:
392,242,45993,2,0,P|389:291|378:309,1,62.5000001862644
280,328,46448,2,0,L|284:288,1,37.5000015422702,2|0,0:0|0:0,0:0:0:0:
248,272,46902,2,0,L|252:232,1,37.5000015422702
232,208,47356,5,0,0:0:0:0:
215,160,47584,1,0,0:0:0:0:
263,143,47811,1,0,0:0:0:0:
278,190,48038,1,0,0:0:0:0:
252,189,48265,1,8,0:0:0:0:
260,165,48493,1,0,0:0:0:0:
284,172,48720,1,0,0:0:0:0:
276,196,48947,1,0,0:0:0:0:
256,192,49174,5,6,0:0:0:0:
