osu file format v14

[General]
AudioFilename: audio.mp3
AudioLeadIn: 0
PreviewTime: 23730
Countdown: 0
SampleSet: Normal
StackLeniency: 0.7
Mode: 1
LetterboxInBreaks: 0
WidescreenStoryboard: 1

[Editor]
DistanceSpacing: 1.1
BeatDivisor: 8
GridSize: 32
TimelineZoom: 2.1

[Metadata]
Title:T H E R A I N S ~ D O W N I N A F R I C A
TitleUnicode:«THE RAINS™» ~ DOWN IN 「AFRICA」
Artist:infinitefreefall
ArtistUnicode:infinitefreefall
Creator:UltraBagel
Version:M U Z U K A S H I I
Source:
Tags:Vaporwave Synthwave The Rains Down in Africa infinite free fall
BeatmapID:1562793
BeatmapSetID:740810

[Difficulty]
HPDrainRate:6
CircleSize:2
OverallDifficulty:6
ApproachRate:8
SliderMultiplier:3.49999970006944
SliderTickRate:1

[Events]
//Background and Video events
0,0,"163987277-aesthetic-wallpapers.jpg",0,0
//Break Periods
//Storyboard Layer 0 (Background)
//Storyboard Layer 1 (Fail)
//Storyboard Layer 2 (Pass)
//Storyboard Layer 3 (Foreground)
//Storyboard Sound Samples

[TimingPoints]
9191.90909090909,908.690909090909,4,1,1,50,1,0
22822,-98.0392156862745,4,1,1,50,0,0
22935,-96.1538461538461,4,1,1,50,0,0
23049,-94.3396226415094,4,1,1,50,0,0
23163,-92.5925925925926,4,1,1,50,0,0
23276,-90.9090909090909,4,1,1,50,0,0
23390,-89.2857142857143,4,1,1,50,0,0
23503,-87.719298245614,4,1,1,50,0,0
23617,-86.2068965517241,4,1,1,50,0,0
23730,-84.7457627118644,4,1,1,50,0,1
39178,-86.2068965517241,4,1,1,50,0,1
39292,-87.719298245614,4,1,1,50,0,1
39405,-89.2857142857143,4,1,1,50,0,1
39519,-90.9090909090909,4,1,1,50,0,1
39633,-92.5925925925926,4,1,1,50,0,1
39746,-94.3396226415094,4,1,1,50,0,1
39860,-96.1538461538461,4,1,1,50,0,1
39973,-98.0392156862745,4,1,1,50,0,1
40087,-100,4,1,1,50,0,0
45539,-100,4,1,1,45,0,0
45994,-100,4,1,1,40,0,0
46448,-100,4,1,1,35,0,0
46902,-100,4,1,1,30,0,0
47357,-100,4,1,1,25,0,0
47811,-100,4,1,1,20,0,0
48265,-100,4,1,1,15,0,0
48720,-100,4,1,1,10,0,0
49174,-100,4,1,1,5,0,0

[HitObjects]
256,192,9191,5,12,0:0:0:0:
256,192,9646,1,8,0:0:0:0:
256,192,9873,1,0,0:0:0:0:
256,192,10100,1,0,0:0:0:0:
256,192,10327,1,0,0:0:0:0:
256,192,10554,1,8,0:0:0:0:
256,192,11009,1,12,0:0:0:0:
256,192,11236,1,0,0:0:0:0:
256,192,11463,1,8,0:0:0:0:
256,192,11917,1,8,0:0:0:0:
256,192,12145,1,8,0:0:0:0:
256,192,12372,1,0,0:0:0:0:
256,192,12826,1,4,0:0:0:0:
256,192,13053,1,8,0:0:0:0:
256,192,13281,1,0,0:0:0:0:
256,192,13735,1,8,0:0:0:0:
256,192,14189,1,0,0:0:0:0:
256,192,14416,1,8,0:0:0:0:
256,192,14644,1,4,0:0:0:0:
256,192,15098,1,8,0:0:0:0:
256,192,15325,1,0,0:0:0:0:
256,192,15552,1,8,0:0:0:0:
256,192,16007,1,8,0:0:0:0:
256,192,16234,1,8,0:0:0:0:
256,192,16461,1,12,0:0:0:0:
256,192,16915,1,0,0:0:0:0:
256,192,17370,1,8,0:0:0:0:
256,192,17824,1,0,0:0:0:0:
256,192,18051,1,8,0:0:0:0:
256,192,18278,1,4,0:0:0:0:
256,192,18733,1,0,0:0:0:0:
256,192,18960,1,0,0:0:0:0:
256,192,19187,1,8,0:0:0:0:
256,192,19414,1,0,0:0:0:0:
256,192,19641,1,8,0:0:0:0:
256,192,20096,1,4,0:0:0:0:
256,192,20550,1,8,0:0:0:0:
256,192,20777,1,0,0:0:0:0:
256,192,21004,1,8,0:0:0:0:
256,192,21459,1,8,0:0:0:0:
256,192,21686,1,0,0:0:0:0:
256,192,21913,1,8,0:0:0:0:
256,192,22367,1,8,0:0:0:0:
256,192,22822,1,8,0:0:0:0:
256,192,22935,1,0,0:0:0:0:
256,192,23049,1,8,0:0:0:0:
256,192,23163,1,0,0:0:0:0:
256,192,23276,1,8,0:0:0:0:
256,192,23390,1,8,0:0:0:0:
256,192,23503,1,0,0:0:0:0:
256,192,23617,1,8,0:0:0:0:
256,192,23730,1,12,0:0:0:0:
256,192,24185,1,8,0:0:0:0:
256,192,24412,1,0,0:0:0:0:
256,192,24639,1,12,0:0:0:0:
256,192,25093,1,8,0:0:0:0:
256,192,25321,1,0,0:0:0:0:
256,192,25548,1,4,0:0:0:0:
256,192,26002,1,0,0:0:0:0:
256,192,26457,1,12,0:0:0:0:
256,192,26684,1,0,0:0:0:0:
256,192,26911,1,8,0:0:0:0:
256,192,27138,1,0,0:0:0:0:
256,192,27365,1,4,0:0:0:0:
256,192,27820,1,8,0:0:0:0:
256,192,28047,1,0,0:0:0:0:
256,192,28274,1,0,0:0:0:0:
256,192,28728,1,8,0:0:0:0:
256,192,29183,1,4,0:0:0:0:
256,192,29410,1,8,0:0:0:0:
256,192,29637,1,0,0:0:0:0:
256,192,29864,1,0,0:0:0:0:
256,192,30091,1,8,0:0:0:0:
256,192,30318,1,0,0:0:0:0:
256,192,30546,1,8,0:0:0:0:
256,192,30773,1,8,0:0:0:0:
256,192,31000,1,12,0:0:0:0:
256,192,31454,1,0,0:0:0:0:
256,192,31909,1,8,0:0:0:0:
256,192,32363,1,0,0:0:0:0:
256,192,32590,1,0,0:0:0:0:
256,192,32817,1,8,0:0:0:0:
256,192,33272,1,8,0:0:0:0:
256,192,33499,1,0,0:0:0:0:
256,192,33726,1,4,0:0:0:0:
256,192,34180,1,0,0:0:0:0:
256,192,34635,1,8,0:0:0:0:
256,192,35089,1,0,0:0:0:0:
256,192,35316,1,0,0:0:0:0:
256,192,35543,1,8,0:0:0:0:
256,192,35998,1,0,0:0:0:0:
256,192,36452,1,12,0:0:0:0:
256,192,36679,1,0,0:0:0:0:
256,192,36906,1,0,0:0:0:0:
256,192,37361,1,0,0:0:0:0:
256,192,37588,1,8,0:0:0:0:
256,192,37815,1,8,0:0:0:0:
256,192,38270,1,4,0:0:0:0:
256,192,38497,1,0,0:0:0:0:
256,192,38724,1,0,0:0:0:0:
256,192,39178,1,8,0:0:0:0:
256,192,39292,1,0,0:0:0:0:
256,192,39405,1,8,0:0:0:0:
256,192,39519,1,0,0:0:0:0:
256,192,39633,1,8,0:0:0:0:
256,192,39746,1,0,0:0:0:0:
256,192,39860,1,8,0:0:0:0:
256,192,39973,1,8,0:0:0:0:
256,192,40087,1,12,0:0:0:0:
256,192,40314,1,0,0:0:0:0:
256,192,40541,1,8,0:0:0:0:
256,192,40768,1,0,0:0:0:0:
256,192,40996,1,0,0:0:0:0:
256,192,41450,1,0,0:0:0:0:
256,192,41904,1,4,0:0:0:0:
256,192,42131,1,0,0:0:0:0:
256,192,42359,1,8,0:0:0:0:
256,192,42813,1,8,0:0:0:0:
256,192,43040,1,0,0:0:0:0:
256,192,43267,1,8,0:0:0:0:
256,192,43722,1,8,0:0:0:0:
256,192,43949,1,0,0:0:0:0:
256,192,44176,1,8,0:0:0:0:
256,192,44403,1,8,0:0:0:0:
256,192,44630,1,4,0:0:0:0:
256,192,45085,1,8,0:0:0:0:
256,192,45539,1,0,0:0:0:0:
256,192,45993,1,8,0:0:0:0:
256,192,46221,1,8,0:0:0:0:
256,192,46448,1,0,0:0:0:0:
256,192,46902,1,0,0:0:0:0:
256,192,47356,1,4,0:0:0:0:
256,192,47584,1,0,0:0:0:0:
256,192,47811,1,8,0:0:0:0:
256,192,48038,1,8,0:0:0:0:
256,192,48265,1,0,0:0:0:0:
256,192,48719,1,8,0:0:0:0:
256,192,49174,1,4,0:0:0:0:
