osu file format v14

[General]
AudioFilename: audio.mp3
AudioLeadIn: 0
PreviewTime: 23730
Countdown: 0
SampleSet: None
StackLeniency: 0.7
Mode: 0
LetterboxInBreaks: 0
WidescreenStoryboard: 1

[Editor]
DistanceSpacing: 1
BeatDivisor: 8
GridSize: 4
TimelineZoom: 0.9000002

[Metadata]
Title:T H E R A I N S ~ D O W N I N A F R I C A
TitleUnicode:«THE RAINS™» ~ DOWN IN 「AFRICA」
Artist:infinitefreefall
ArtistUnicode:infinitefreefall
Creator:UltraBagel
Version:H Y P E R
Source:
Tags:Vaporwave Synthwave The Rains Down in Africa infinite free fall
BeatmapID:1602034
BeatmapSetID:740810

[Difficulty]
HPDrainRate:10
CircleSize:2
OverallDifficulty:10
ApproachRate:10
SliderMultiplier:1.99999982833863
SliderTickRate:2

[Events]
//Background and Video events
0,0,"vaporwave-wallpapers-1920x1080-for-macbook-WTG3115657.jpg",0,0
//Break Periods
//Storyboard Layer 0 (Background)
//Storyboard Layer 1 (Fail)
//Storyboard Layer 2 (Pass)
//Storyboard Layer 3 (Foreground)
//Storyboard Sound Samples

[TimingPoints]
9191.90909090909,908.690909090909,4,3,0,50,1,0
10100,-100,4,3,0,50,0,0
11009,-100,4,3,0,50,0,0
16461,-66.6666666666667,4,3,0,50,0,0
20096,-80,4,3,0,50,0,0
21004,-100,4,3,0,50,0,0
21913,-133.333333333333,4,3,0,50,0,0
22822,-200,4,3,0,50,0,0
23730,-50,4,3,0,50,0,1
29183,-100,4,3,0,50,0,1
30091,-66.6666666666667,4,3,0,50,0,1
31000,-50,4,3,0,50,0,1
35998,-66.6666666666667,4,3,0,50,0,1
40087,-100,4,3,0,50,0,0
43722,-80,4,3,0,50,0,0
45539,-100,4,3,0,50,0,0

[HitObjects]
69,41,9191,6,0,P|137:33|225:57,1,149.999987125397,2|0,0:0|0:0,0:0:0:0:
149,129,10100,2,0,L|137:281,1,149.999987125397,4|0,0:0|0:0,0:0:0:0:
237,341,11009,2,8,L|232:248,2,74.9999935626986
301,180,11917,2,0,P|209:164|185:172,1,99.9999914169315,4|0,0:0|0:0,0:0:0:0:
310,80,12599,5,8,0:0:0:0:
310,80,12826,2,0,P|357:62|407:66,1,99.9999914169315,2|0,0:0|0:0,0:0:0:0:
141,139,13508,1,0,0:0:0:0:
141,139,13735,2,0,P|133:241|163:284,1,149.999987125397,4|0,0:0|0:0,0:0:0:0:
274,323,14644,2,0,P|366:279|388:232,1,149.999987125397,8|0,0:0|0:0,0:0:0:0:
367,116,15552,2,0,P|283:58|231:62,1,149.999987125397,8|0,0:0|0:0,0:0:0:0:
167,151,16461,6,0,L|184:319,1,149.999992847443,2|0,0:0|0:0,0:0:0:0:
372,96,17142,1,0,0:0:0:0:
372,96,17370,2,0,L|355:264,1,149.999992847443,4|0,0:0|0:0,0:0:0:0:
126,214,18278,2,0,L|257:235,1,74.9999964237215,8|0,0:0|0:0,0:0:0:0:
396,172,18733,2,0,L|265:151,1,74.9999964237215
205,86,19187,2,0,P|179:164|233:257,1,149.999992847443,8|0,0:0|0:0,0:0:0:0:
364,324,19869,5,0,0:0:0:0:
364,324,20096,2,0,P|303:307|220:302,1,124.999989271164,4|0,0:0|0:0,0:0:0:0:
150,219,20777,1,0,0:0:0:0:
150,219,21004,2,0,P|207:201|294:197,1,99.9999914169315,4|0,0:0|0:0,0:0:0:0:
79,129,21686,1,0,0:0:0:0:
79,129,21913,2,0,P|131:94|154:87,1,74.9999964237215,4|0,0:0|0:0,0:0:0:0:
273,81,22595,1,0,0:0:0:0:
273,81,22822,2,0,P|310:88|326:97,1,49.9999957084657,4|0,0:0|0:0,0:0:0:0:
406,138,23730,6,0,P|369:236|422:330,1,199.999982833863,6|0,0:0|0:0,0:0:0:0:
116,247,24639,2,0,P|153:150|100:56,1,199.999982833863,4|0,0:0|0:0,0:0:0:0:
272,148,25321,1,0,0:0:0:0:
272,148,25548,2,0,B|268:192|268:192|250:243|250:243|269:307|261:360,1,199.999982833863,4|0,0:0|0:0,0:0:0:0:
79,85,26457,2,0,P|136:64|192:61,1,99.9999914169315,8|0,0:0|0:0,0:0:0:0:
443,85,26911,2,0,P|386:64|330:61,1,99.9999914169315
159,156,27365,6,0,P|141:262|200:340,1,199.999982833863,4|0,0:0|0:0,0:0:0:0:
363,65,28047,1,0,0:0:0:0:
363,65,28274,2,0,L|347:267,1,199.999982833863,4|0,0:0|0:0,0:0:0:0:
116,101,28955,1,0,0:0:0:0:
209,299,29183,6,0,L|247:295,3,24.9999978542329,8|0|0|0,0:0|0:0|0:0|0:0,0:0:0:0:
72,231,29637,2,0,L|96:233,3,24.9999978542329,8|0|0|0,0:0|0:0|0:0|0:0,0:0:0:0:
301,211,30091,2,0,P|315:234|318:266,1,37.4999982118607,8|0,0:0|0:0,0:0:0:0:
116,101,30318,2,0,P|115:58|120:53,1,37.4999982118607,8|0,0:0|0:0,0:0:0:0:
268,114,30546,5,8,0:0:0:0:
305,117,30659,1,8,0:0:0:0:
342,121,30773,1,8,0:0:0:0:
379,124,30886,1,8,0:0:0:0:
417,128,31000,2,0,P|448:177|386:302,1,199.999982833863,2|0,0:0|0:0,0:0:0:0:
104,257,31909,2,0,P|74:209|136:84,1,199.999982833863,4|0,0:0|0:0,0:0:0:0:
281,213,32590,5,0,0:0:0:0:
281,213,32817,2,8,B|293:261|293:261|281:325,2,99.9999914169315
213,81,33499,1,0,0:0:0:0:
213,81,33726,2,0,P|285:77|325:85,2,99.9999914169315,4|0|4,0:0|0:0|0:0,0:0:0:0:
281,213,34408,1,0,0:0:0:0:
381,139,34635,6,0,P|389:241|359:284,1,149.999987125397,4|0,0:0|0:0,0:0:0:0:
248,323,35089,2,0,P|156:279|134:232,1,149.999987125397
155,116,35543,2,0,P|239:58|291:62,1,149.999987125397,4|0,0:0|0:0,0:0:0:0:
285,201,35998,2,0,P|253:177|273:217,1,112.499994635582
367,116,36452,6,0,P|283:58|231:62,1,149.999987125397,8|0,0:0|0:0,0:0:0:0:
121,161,37134,1,0,0:0:0:0:
293,305,37361,2,0,L|125:325,1,149.999992847443
221,177,38270,2,0,L|389:197,1,149.999992847443,8|0,0:0|0:0,0:0:0:0:
257,65,38951,1,0,0:0:0:0:
257,65,39178,2,0,P|169:89|121:141,1,149.999992847443
225,193,40087,6,0,B|237:245|237:245|217:349,1,149.999987125397,2|0,0:0|0:0,0:0:0:0:
317,301,40996,2,0,L|469:321,1,149.999987125397,4|0,0:0|0:0,0:0:0:0:
305,189,41904,2,8,P|249:197|219:208,2,74.9999935626986
465,65,42813,2,0,L|316:84,1,149.999987125397,4|0,0:0|0:0,0:0:0:0:
153,73,43722,2,0,P|141:149|161:217,1,124.999989271164
273,157,44403,5,0,0:0:0:0:
273,157,44630,2,0,P|285:233|265:301,1,124.999989271164,8|0,0:0|0:0,0:0:0:0:
156,265,45539,2,0,P|110:308|176:307,1,149.999987125397,4|0,0:0|0:0,0:0:0:0:
274,279,46448,2,0,B|350:271|350:271|426:303,1,149.999987125397,8|0,0:0|0:0,0:0:0:0:
438,202,47356,5,4,0:0:0:0:
341,174,47811,1,0,0:0:0:0:
244,147,48265,1,8,0:0:0:0:
147,120,48719,1,0,0:0:0:0:
51,88,49174,1,10,0:0:0:0:
