osu file format v14

[General]
AudioFilename: audio.mp3
AudioLeadIn: 1000
PreviewTime: 91438
Countdown: 0
SampleSet: Soft
StackLeniency: 0
Mode: 0
LetterboxInBreaks: 0
WidescreenStoryboard: 1

[Editor]
DistanceSpacing: 0.3
BeatDivisor: 16
GridSize: 32
TimelineZoom: 2.3

[Metadata]
Title:ANSWER
TitleUnicode:∀NSWER
Artist:individuals
ArtistUnicode:早坂美玲 (CV:朝井彩加), 森久保乃々 (CV:高橋花林), 星輝子 (CV:松田颯水)
Creator:Asahina Momoko
Version:Master+
Source:アイドルマスターシンデレラガールズ スターライトステージ
Tags:indivisuals THE IDOLM@STER CINDERELLA GIRLS STARLIGHT STAGE im@s deresute mokori m_o_k_o_r_i
BeatmapID:1301862
BeatmapSetID:617401

[Difficulty]
HPDrainRate:5
CircleSize:4.2
OverallDifficulty:8
ApproachRate:9.6
SliderMultiplier:2.99999990463257
SliderTickRate:1

[Events]
//Background and Video events
0,0,"1e7ec47b.jpg",0,0
//Break Periods
//Storyboard Layer 0 (Background)
//Storyboard Layer 1 (Fail)
//Storyboard Layer 2 (Pass)
//Storyboard Layer 3 (Foreground)
//Storyboard Sound Samples

[TimingPoints]
6,1348.31460674157,4,2,1,70,1,0
1185,-200,4,2,1,70,0,0
1522,-50,4,2,1,70,0,0
3882,-200,4,2,1,70,0,0
4219,-50,4,2,1,70,0,0
5736,-66.6666666666667,4,2,1,70,0,0
6579,-200,4,2,1,70,0,0
6916,-50,4,2,1,70,0,0
9275,-200,4,2,1,70,0,0
9612,-50,4,2,1,70,0,0
11129,-66.6666666666667,4,2,1,70,0,0
11972,-50,4,2,1,70,0,0
12814,-66.6666666666667,4,2,1,70,0,0
13489,-76.9230769230769,4,2,1,70,0,0
14163,-100,4,2,1,70,0,0
14668,-66.6666666666667,4,2,1,70,0,0
15174,-142.857142857143,4,2,1,70,0,0
17365,-50,4,2,1,70,0,0
18208,-66.6666666666667,4,2,1,70,0,0
18882,-76.9230769230769,4,2,1,70,0,0
20062,-66.6666666666667,4,2,1,70,0,0
20567,-142.857142857143,4,2,1,70,0,0
21073,-50,4,2,1,70,0,0
21241,-33.3333333333333,4,2,1,70,0,0
22084,-100,4,2,1,70,0,0
22421,-12.8700128700129,4,2,1,70,0,0
22758,-66.6666666666667,4,2,1,70,0,0
24107,-40,4,2,1,70,0,0
24444,-25,4,2,1,70,0,0
24781,-40,4,2,1,70,0,0
25118,-25,4,2,1,70,0,0
25455,-66.6666666666667,4,2,1,70,0,0
26803,-40,4,2,1,70,0,0
28152,-66.6666666666667,4,2,1,70,0,0
29500,-40,4,2,1,70,0,0
29837,-25,4,2,1,70,0,0
30174,-40,4,2,1,70,0,0
30511,-25,4,2,1,70,0,0
30848,-66.6666666666667,4,2,1,70,0,0
32197,-40,4,2,1,70,0,0
34050,-10000,4,2,1,70,0,0
34725,-133.333333333333,4,2,1,70,0,0
37084,-100,4,2,1,70,0,0
38938,-66.6666666666667,4,2,1,70,0,0
39444,-10000,4,2,1,70,0,0
40118,-133.333333333333,4,2,1,70,0,0
42477,-100,4,2,1,70,0,0
44331,-66.6666666666667,4,2,1,70,0,0
45848,337.078651685393,4,2,1,70,1,0
45848,-200,4,2,1,70,0,0
46017,-166.666666666667,4,2,1,70,0,0
46185,-125,4,2,1,70,0,0
46353,-111.111111111111,4,2,1,70,0,0
46522,-90.9090909090909,4,2,1,70,0,0
46690,-83.3333333333333,4,2,1,70,0,0
47028,1348.31460674157,4,2,1,70,1,0
47028,-62.5,4,2,1,70,0,1
47196,1348.31460674157,4,2,1,70,1,1
48375,-62.5,4,2,1,70,0,1
49724,-50,4,2,1,70,0,1
51240,-33.3333333333333,4,2,1,70,0,1
52420,-62.5,4,2,1,70,0,1
55117,-50,4,2,1,70,0,1
56634,-33.3333333333333,4,2,1,70,0,1
57813,-200,4,2,1,70,0,1
58151,-66.6666666666667,4,2,1,70,0,1
59162,-25,4,2,1,70,0,1
60510,-200,4,2,1,70,0,1
60847,-66.6666666666667,4,2,1,70,0,1
61858,-25,4,2,1,70,0,1
63207,-62.5,4,2,1,70,0,1
65903,-50,4,2,1,70,0,1
67589,-25,4,2,1,70,0,1
67926,-50,4,2,1,70,0,1
68263,-25,4,2,1,70,0,1
68600,-250,4,2,1,70,0,1
69780,-25,4,2,1,70,0,1
71297,-166.666666666667,4,2,1,70,0,0
72139,-33.3333333333333,4,2,1,70,0,0
73993,-166.666666666667,4,2,1,70,0,0
74836,-33.3333333333333,4,2,1,70,0,0
75510,-33.3333333333333,4,2,1,70,0,0
76690,-66.6666666666667,4,2,1,70,0,0
77533,-33.3333333333333,4,2,1,70,0,0
79387,-66.6666666666667,4,2,1,70,0,0
80229,-33.3333333333333,4,2,1,70,0,0
82083,-142.857142857143,4,2,1,70,0,0
83431,-66.6666666666667,4,2,1,70,0,0
84780,-142.857142857143,4,2,1,70,0,0
85622,-66.6666666666667,4,2,1,70,0,0
87476,-200,4,2,1,70,0,0
91017,-16.6666666666667,4,2,1,70,0,1
91353,-16.6666666666667,4,2,1,70,0,0
91521,-62.5,4,2,1,70,0,1
94218,-50,4,2,1,70,0,1
95735,-33.3333333333333,4,2,1,70,0,1
96915,-62.5,4,2,1,70,0,1
99611,-50,4,2,1,70,0,1
101128,-33.3333333333333,4,2,1,70,0,1
102308,-200,4,2,1,70,0,1
102645,-66.6666666666667,4,2,1,70,0,1
103656,-16.6666666666667,4,2,1,70,0,1
105004,-200,4,2,1,70,0,1
105342,-66.6666666666667,4,2,1,70,0,1
106353,-16.6666666666667,4,2,1,70,0,1
107701,-62.5,4,2,1,70,0,1
110398,-50,4,2,1,70,0,1
111746,-50,4,2,1,70,0,1
112083,-25,4,2,1,70,0,1
112420,-50,4,2,1,70,0,1
112757,-25,4,2,1,70,0,1
113094,-250,4,2,1,70,0,1
114274,-25,4,2,1,70,0,1
115791,4000,4,2,1,70,1,0
115791,-44.7761194029851,4,2,1,70,0,0
117291,-57.4712643678161,4,2,1,70,0,0

[HitObjects]
259,345,680,5,0,0:0:0:0:
250,342,764,1,0,0:0:0:0:
250,333,848,1,0,0:0:0:0:
259,331,932,1,0,0:0:0:0:
263,338,1017,1,0,0:0:0:0:
58,248,1185,6,0,L|359:201,1,299.999990463257
228,27,1522,5,0,0:0:0:0:
242,127,1691,2,0,L|230:37,1,74.9999976158143
108,84,2028,5,0,0:0:0:0:
336,133,2197,1,0,0:0:0:0:
206,225,2365,1,0,0:0:0:0:
206,225,2534,1,0,0:0:0:0:
399,290,2702,6,0,P|437:263|455:223,1,74.9999976158143
246,338,3039,1,0,0:0:0:0:
246,338,3208,2,0,P|289:354|332:346,1,74.9999976158143
110,243,3545,2,0,P|121:287|152:318,1,74.9999976158143
354,201,3882,6,0,L|148:167,1,206.249993443489
474,164,4219,6,0,L|411:185,1,37.4999988079071
273,226,4388,1,0,0:0:0:0:
148,71,4556,1,0,0:0:0:0:
63,262,4725,5,0,0:0:0:0:
63,262,4893,1,0,0:0:0:0:
206,176,5062,1,0,0:0:0:0:
206,176,5230,1,0,0:0:0:0:
14,97,5399,1,0,0:0:0:0:
14,97,5567,1,0,0:0:0:0:
150,167,5736,6,0,L|182:157,1,28.125000178814
300,112,5904,1,0,0:0:0:0:
385,307,6073,1,0,0:0:0:0:
378,287,6157,1,0,0:0:0:0:
378,266,6241,1,0,0:0:0:0:
385,246,6326,1,0,0:0:0:0:
399,230,6410,1,0,0:0:0:0:
461,285,6579,6,0,L|160:238,1,299.999990463257
92,310,6916,5,0,0:0:0:0:
183,273,7084,1,0,0:0:0:0:
68,319,7253,1,0,0:0:0:0:
207,348,7421,5,0,0:0:0:0:
207,348,7590,1,0,0:0:0:0:
312,261,7758,1,0,0:0:0:0:
312,261,7927,1,0,0:0:0:0:
398,351,8095,6,0,L|310:336,1,74.9999976158143
110,163,8432,2,0,L|183:150,1,74.9999976158143
276,134,8770,1,0,0:0:0:0:
24,180,8938,1,0,0:0:0:0:
302,130,9107,1,0,0:0:0:0:
165,238,9276,6,0,L|371:204,1,206.249993443489
293,303,9612,5,0,0:0:0:0:
397,113,9781,1,0,0:0:0:0:
477,235,9949,2,0,P|458:243|421:236,1,37.4999988079071
302,130,10118,2,0,P|309:69|337:35,1,74.9999976158143
443,21,10455,1,0,0:0:0:0:
312,213,10623,1,0,0:0:0:0:
329,210,10792,1,0,0:0:0:0:
347,208,10961,1,0,0:0:0:0:
368,204,11129,6,0,L|336:194,1,28.125000178814
218,149,11297,1,0,0:0:0:0:
403,79,11466,1,0,0:0:0:0:
91,18,11635,1,0,0:0:0:0:
91,18,11972,6,0,P|85:84|319:258,1,374.999988079071
368,204,12309,1,0,0:0:0:0:
368,204,12477,1,0,0:0:0:0:
297,261,12814,6,0,L|67:305,1,225.000001430512
24,235,12983,1,0,0:0:0:0:
24,235,13151,1,0,0:0:0:0:
76,303,13489,6,0,L|269:346,1,194.999984874726
351,319,13657,1,0,0:0:0:0:
351,319,13825,1,0,0:0:0:0:
266,345,14163,5,0,0:0:0:0:
485,274,14331,1,0,0:0:0:0:
485,274,14668,6,0,P|438:137|453:101,1,168.750001072884
484,31,15005,1,0,0:0:0:0:
442,122,15174,6,0,P|417:161|306:165,1,157.499990186692
188,97,15848,2,0,L|224:103,1,26.2499983644486
314,170,16185,6,0,L|257:178,1,52.4999967288972
178,189,16691,1,0,0:0:0:0:
400,158,16859,5,0,0:0:0:0:
92,202,17028,1,0,0:0:0:0:
409,51,17365,6,0,B|313:64|313:64|315:125|264:191|176:167|148:122|148:122|97:126,1,374.999988079071
222,68,17702,1,0,0:0:0:0:
222,68,17871,1,0,0:0:0:0:
105,125,18208,6,0,B|133:180|192:214|269:191|269:191|301:238,1,225.000001430512
222,68,18377,1,0,0:0:0:0:
222,68,18545,1,0,0:0:0:0:
286,217,18882,6,0,P|209:226|96:165,1,194.999984874726
222,68,19050,1,0,0:0:0:0:
222,68,19218,1,0,0:0:0:0:
106,176,19556,5,0,0:0:0:0:
372,279,19725,1,0,0:0:0:0:
372,279,20062,6,0,P|286:287|224:210,1,168.750001072884
185,131,20399,1,0,0:0:0:0:
230,233,20567,6,0,L|220:348,1,104.999993457794
5,336,20904,1,0,0:0:0:0:
5,336,21073,2,0,P|25:347|47:351,1,37.4999988079071
220,337,21241,6,0,P|102:347|52:226,1,225.000001430512
48,267,21579,5,0,0:0:0:0:
233,203,21747,1,0,0:0:0:0:
114,85,21916,5,0,0:0:0:0:
404,146,22084,2,0,L|323:160,1,74.9999976158143
330,158,22421,6,0,L|183:183,1,145.68749121446
24,215,22758,6,0,B|114:226|114:226|143:286|143:286|342:309|342:309|367:283|367:283|438:292,1,450.000002861023
186,182,23095,5,0,0:0:0:0:
255,350,23264,1,0,0:0:0:0:
312,221,23432,2,0,L|241:213,1,56.2500003576279
144,286,23770,2,0,L|199:292,1,56.2500003576279
422,290,24107,6,0,P|402:244|510:200,1,187.499994039536
499,191,24444,6,0,L|452:184,1,37.4999988079071
185,155,24781,6,0,P|205:109|97:65,1,187.499994039536
108,56,25118,6,0,L|155:49,1,37.4999988079071
431,79,25455,6,0,B|353:54|284:84|277:201|272:315|150:332|85:264,1,450.000002861023
157,200,25792,5,0,0:0:0:0:
396,163,25961,1,0,0:0:0:0:
419,160,26129,1,0,0:0:0:0:
138,203,26298,1,0,0:0:0:0:
342,344,26466,2,0,P|302:340|278:326,1,56.2500003576279
96,274,26803,6,0,L|321:252,1,187.499994039536
282,255,27140,2,0,L|339:249,1,46.8749985098839
342,344,27309,1,0,0:0:0:0:
327,344,27393,1,0,0:0:0:0:
314,343,27477,1,0,0:0:0:0:
300,339,27562,1,0,0:0:0:0:
288,333,27646,1,0,0:0:0:0:
461,218,27814,1,0,0:0:0:0:
461,218,27983,1,0,0:0:0:0:
495,84,28152,6,0,B|405:95|405:95|376:155|376:155|177:178|177:178|152:152|152:152|81:161,1,450.000002861023
333,51,28489,5,0,0:0:0:0:
264,219,28658,1,0,0:0:0:0:
207,90,28826,2,0,L|278:82,1,56.2500003576279
375,155,29164,2,0,L|320:161,1,56.2500003576279
96,159,29500,6,0,B|68:288|68:288|120:360,1,187.499994039536
100,333,29837,6,0,L|147:326,1,37.4999988079071
417,183,30174,6,0,B|445:311|445:311|393:383,1,187.499994039536
413,356,30511,6,0,L|366:349,1,37.4999988079071
186,236,30848,6,0,B|267:226|267:226|291:191|291:191|284:137|284:137|252:112|252:112|104:126|104:126|82:158|82:158|86:204,1,450.000002861023
323,61,31185,1,0,0:0:0:0:
65,34,31354,1,0,0:0:0:0:
65,24,31522,1,0,0:0:0:0:
72,29,31691,1,0,0:0:0:0:
25,291,31859,1,0,0:0:0:0:
25,291,32028,1,0,0:0:0:0:
85,201,32197,6,0,L|209:190,1,93.7499970197678
430,171,32534,1,0,0:0:0:0:
374,242,32702,1,0,0:0:0:0:
341,209,32786,1,0,0:0:0:0:
330,164,32871,1,0,0:0:0:0:
346,121,32955,1,0,0:0:0:0:
384,93,33039,1,0,0:0:0:0:
178,192,33208,1,0,0:0:0:0:
178,192,33545,6,0,B|277:175|291:325|422:303,1,281.249991059303
490,250,33882,1,0,0:0:0:0:
421,303,34050,6,0,P|393:307|354:330,1,74.9999976158143
304,157,34556,5,0,0:0:0:0:
304,157,34725,2,0,L|310:196,1,28.125000178814
414,198,35062,2,0,L|408:237,1,28.125000178814
391,321,35399,1,0,0:0:0:0:
236,275,35567,2,0,P|250:269|267:268,1,28.125000178814
198,299,35904,2,0,P|206:286|219:275,1,28.125000178814
180,339,36241,2,0,P|179:323|184:307,1,28.125000178814
391,321,36579,1,0,0:0:0:0:
391,321,36747,1,0,0:0:0:0:
389,174,37084,2,0,L|400:218,1,37.4999988079071
353,330,37421,6,0,P|321:347|275:340,1,74.9999976158143
283,343,37758,6,0,P|249:324|271:219,1,149.999995231629
257,226,38432,6,0,L|141:216,1,112.499996423721
145,216,38938,6,0,P|122:129|44:114,1,168.750001072884
53,111,39444,6,0,P|81:107|120:84,1,74.9999976158143
262,34,39781,5,0,0:0:0:0:
262,34,39949,1,0,0:0:0:0:
262,34,40118,2,0,L|222:30,1,28.125000178814
291,118,40455,2,0,L|251:114,1,28.125000178814
82,90,40792,1,0,0:0:0:0:
34,193,40961,2,0,L|74:189,1,28.125000178814
43,201,41298,2,0,L|83:197,1,28.125000178814
54,208,41635,2,0,L|94:204,1,28.125000178814
82,90,41972,1,0,0:0:0:0:
82,90,42140,1,0,0:0:0:0:
69,233,42477,2,0,L|80:189,1,37.4999988079071
120,83,42814,6,0,P|152:66|198:73,1,74.9999976158143
190,70,43151,6,0,P|219:91|186:186,1,149.999995231629
190,184,43826,6,0,L|312:210,1,112.499996423721
406,188,44163,1,0,0:0:0:0:
300,207,44331,6,0,L|123:233,1,168.750001072884
133,231,44837,1,0,0:0:0:0:
239,270,45174,1,0,0:0:0:0:
263,323,45511,1,0,0:0:0:0:
246,351,45848,6,0,L|217:345,1,18.7499994039536
327,281,46017,6,0,L|361:277,1,22.4999985980988
179,233,46185,6,0,L|129:221,1,29.9999990463257
343,153,46353,6,0,L|399:139,1,33.7499978971482
120,79,46522,6,0,L|64:66,1,41.2499999475479
366,21,46690,6,0,L|428:7,1,44.9999971961976
246,351,47028,6,0,B|231:363|231:363|72:343|72:343|50:311|50:311|58:247|58:247|86:221|86:221|216:237|216:237|232:266,1,479.999984741211
482,295,47364,5,0,0:0:0:0:
478,290,47532,1,0,0:0:0:0:
487,291,47701,1,0,0:0:0:0:
482,295,47870,5,0,0:0:0:0:
397,284,48039,1,0,0:0:0:0:
312,273,48207,1,0,0:0:0:0:
230,261,48375,6,0,B|243:284|243:284|373:300|373:300|401:275|401:275|409:210|409:210|387:178|387:178|229:159|229:159|214:171,1,479.999984741211
57,89,48712,5,0,0:0:0:0:
61,84,48880,1,0,0:0:0:0:
52,85,49049,1,0,0:0:0:0:
57,89,49218,5,0,0:0:0:0:
142,78,49387,1,0,0:0:0:0:
227,67,49555,1,0,0:0:0:0:
212,172,49724,6,0,L|439:202,1,224.999992847443
486,300,50061,1,0,0:0:0:0:
435,201,50229,6,0,B|347:192|285:381|151:313,1,299.999990463257
207,215,50566,1,0,0:0:0:0:
207,215,50735,1,0,0:0:0:0:
175,322,50903,6,0,P|130:297|95:204,1,149.999995231629
94,209,51240,6,0,P|103:163|37:97,1,112.500000715256
255,59,51578,5,0,0:0:0:0:
257,69,51662,1,0,0:0:0:0:
259,79,51746,1,0,0:0:0:0:
261,89,51830,1,0,0:0:0:0:
263,100,51915,1,0,0:0:0:0:
16,171,52083,1,0,0:0:0:0:
230,293,52252,1,0,0:0:0:0:
300,45,52420,6,0,B|315:33|315:33|474:53|474:53|496:85|496:85|488:149|488:149|460:175|460:175|330:159|330:159|314:130,1,479.999984741211
253,211,52756,5,0,0:0:0:0:
384,190,52924,1,0,0:0:0:0:
261,218,53094,5,0,0:0:0:0:
426,201,53262,1,0,0:0:0:0:
270,226,53431,5,0,0:0:0:0:
465,212,53599,1,0,0:0:0:0:
316,135,53767,6,0,B|303:112|303:112|173:96|173:96|145:121|145:121|137:186|137:186|159:218|159:218|317:237|317:237|332:225,1,479.999984741211
360,314,54106,5,0,0:0:0:0:
229,293,54274,1,0,0:0:0:0:
352,321,54444,5,0,0:0:0:0:
187,304,54612,1,0,0:0:0:0:
343,329,54781,5,0,0:0:0:0:
148,315,54949,1,0,0:0:0:0:
333,223,55117,6,0,L|96:194,1,224.999992847443
22,257,55454,1,0,0:0:0:0:
110,195,55622,6,0,L|432:151,1,299.999990463257
486,43,55960,1,0,0:0:0:0:
486,43,56128,1,0,0:0:0:0:
407,154,56297,6,0,P|369:148|303:32,1,149.999995231629
302,65,56634,6,0,L|416:51,1,112.500000715256
185,207,56971,1,0,0:0:0:0:
166,204,57055,1,0,0:0:0:0:
147,201,57139,1,0,0:0:0:0:
129,198,57224,1,0,0:0:0:0:
110,195,57308,1,0,0:0:0:0:
407,154,57476,1,0,0:0:0:0:
407,154,57813,6,0,P|364:188|366:282,1,149.999995231629
293,350,58151,2,0,P|276:329|264:289,1,56.2500003576279
440,235,58488,1,0,0:0:0:0:
440,235,58656,1,0,0:0:0:0:
302,123,58825,2,0,P|285:144|273:184,1,56.2500003576279
363,277,59162,6,0,P|240:357|94:339,1,299.999990463257
94,339,59499,6,0,P|216:258|362:276,1,299.999990463257
363,277,59836,6,0,P|240:357|94:339,1,299.999990463257
94,339,60173,6,0,P|216:258|362:276,1,299.999990463257
226,140,60342,1,0,0:0:0:0:
362,276,60510,6,0,P|405:242|403:148,1,149.999995231629
427,59,60847,2,0,L|365:52,1,56.2500003576279
267,218,61184,1,0,0:0:0:0:
267,218,61353,1,0,0:0:0:0:
134,141,61521,2,0,L|189:147,1,56.2500003576279
405,152,61858,6,0,B|320:143|320:143|234:63|234:63|138:53,1,299.999990463257
137,52,62195,6,0,B|232:61|232:61|333:2|333:2|418:10,1,299.999990463257
419,11,62533,1,0,0:0:0:0:
384,243,62701,1,0,0:0:0:0:
376,243,62785,1,0,0:0:0:0:
368,240,62869,1,0,0:0:0:0:
361,235,62954,1,0,0:0:0:0:
356,229,63038,1,0,0:0:0:0:
228,46,63207,6,0,B|213:34|213:34|54:54|54:54|32:86|32:86|40:150|40:150|68:176|68:176|198:160|198:160|214:131,1,479.999984741211
109,313,63544,5,0,0:0:0:0:
117,211,63712,2,0,L|111:286,1,59.9999980926514
273,266,64049,1,0,0:0:0:0:
281,364,64218,2,0,L|275:289,1,59.9999980926514
212,136,64554,6,0,B|225:113|225:113|355:97|355:97|383:122|383:122|391:187|391:187|369:219|369:219|211:238|211:238|196:226,1,479.999984741211
273,266,64892,5,0,0:0:0:0:
281,364,65061,2,0,L|275:289,1,59.9999980926514
472,301,65398,1,0,0:0:0:0:
480,203,65567,2,0,L|474:278,1,59.9999980926514
194,224,65903,6,0,B|222:251|222:251|381:233|381:233|412:264,1,224.999992847443
399,251,66409,6,0,B|381:277|381:277|246:294,1,149.999995231629
119,309,66915,1,0,0:0:0:0:
309,364,67083,1,0,0:0:0:0:
206,176,67252,6,0,P|150:167|55:235,1,149.999995231629
70,209,67589,6,0,P|177:119|338:144,1,299.999990463257
327,137,67926,6,0,P|295:89|180:66,1,149.999995231629
209,60,68263,6,0,P|345:90|422:234,1,299.999990463257
421,221,68600,6,0,P|445:184|446:123,1,104.99999666214
467,263,69106,5,0,0:0:0:0:
499,187,69443,1,0,0:0:0:0:
446,124,69780,6,0,P|480:213|453:285,1,149.999995231629
370,334,70117,5,0,0:0:0:0:
251,64,70285,1,0,0:0:0:0:
103,294,70454,5,0,0:0:0:0:
404,219,70622,1,0,0:0:0:0:
80,111,70791,5,0,0:0:0:0:
421,217,70960,1,0,0:0:0:0:
421,217,71297,6,0,B|326:208|238:368|103:274,1,337.499978971482
183,199,71634,5,0,0:0:0:0:
212,315,71803,1,0,0:0:0:0:
322,370,71972,1,0,0:0:0:0:
436,316,72139,2,0,L|387:312,1,28.125000178814
258,284,72308,1,0,0:0:0:0:
258,284,72477,1,0,0:0:0:0:
258,284,72646,1,0,0:0:0:0:
70,352,72813,6,0,P|45:339|29:292,1,56.2500003576279
112,187,73151,1,0,0:0:0:0:
112,187,73319,6,0,P|84:188|61:204,1,56.2500003576279
108,277,73488,5,0,0:0:0:0:
187,322,73656,2,0,P|200:297|199:269,1,56.2500003576279
92,78,73993,6,0,L|209:63,1,112.499992990494
287,30,74330,1,0,0:0:0:0:
287,30,74499,1,0,0:0:0:0:
287,30,74667,1,0,0:0:0:0:
203,63,74836,6,0,L|199:112,1,28.125000178814
190,189,75004,2,0,P|166:188|129:168,1,56.2500003576279
303,230,75342,1,0,0:0:0:0:
303,230,75510,6,0,P|327:229|364:209,1,56.2500003576279
350,34,75847,1,0,0:0:0:0:
350,34,76016,2,0,P|338:55|337:97,1,56.2500003576279
425,196,76184,5,0,0:0:0:0:
496,165,76353,2,0,P|483:144|447:122,1,56.2500003576279
252,100,76690,6,0,L|238:215,1,112.500000715256
238,211,77027,2,0,L|174:220,2,56.2500003576279
349,257,77533,6,0,L|377:259,1,28.125000178814
474,267,77701,1,0,0:0:0:0:
474,267,77870,1,0,0:0:0:0:
474,267,78038,1,0,0:0:0:0:
349,257,78207,6,0,L|282:251,1,56.2500003576279
152,350,78544,1,0,0:0:0:0:
152,350,78712,2,0,L|219:344,1,56.2500003576279
324,330,78881,5,0,0:0:0:0:
292,251,79049,2,0,L|225:245,1,56.2500003576279
52,190,79387,6,0,L|185:175,1,112.500000715256
163,177,79724,2,0,P|194:169|214:148,1,56.2500003576279
256,66,80061,1,0,0:0:0:0:
300,152,80229,6,0,P|321:170|348:177,1,56.2500003576279
459,189,80398,1,0,0:0:0:0:
459,189,80566,2,0,L|348:177,1,112.500000715256
189,294,80903,5,0,0:0:0:0:
348,327,81072,1,0,0:0:0:0:
348,327,81240,1,0,0:0:0:0:
466,188,81409,5,0,0:0:0:0:
307,221,81578,1,0,0:0:0:0:
307,221,81746,2,0,P|282:169|286:112,1,112.500000715256
448,25,82083,6,0,L|429:105,1,78.7499950933458
429,101,82589,6,0,L|83:136,1,341.249978737832
312,34,82926,5,0,0:0:0:0:
250,210,83094,1,0,0:0:0:0:
250,210,83263,1,0,0:0:0:0:
87,28,83431,6,0,L|155:38,1,56.2500003576279
222,98,83769,1,0,0:0:0:0:
220,109,83853,1,0,0:0:0:0:
218,120,83938,1,0,0:0:0:0:
216,131,84022,1,0,0:0:0:0:
215,142,84106,1,0,0:0:0:0:
26,199,84274,5,0,0:0:0:0:
199,218,84443,1,0,0:0:0:0:
199,218,84611,1,0,0:0:0:0:
89,135,84780,6,0,L|108:215,1,78.7499950933458
107,211,85285,6,0,L|453:246,1,341.249978737832
280,136,85454,1,0,0:0:0:0:
366,313,85622,2,0,L|307:307,1,56.2500003576279
141,346,85960,1,0,0:0:0:0:
141,346,86128,6,0,L|200:340,1,56.2500003576279
316,231,86465,1,0,0:0:0:0:
316,231,86634,1,0,0:0:0:0:
228,136,86802,1,0,0:0:0:0:
368,71,86971,6,0,P|383:86|388:100,1,28.125000178814
419,93,87139,6,0,P|422:113|418:128,1,28.125000178814
456,132,87308,6,0,P|447:151|435:160,1,28.125000178814
446,245,87476,6,0,L|424:340,1,93.7499970197678
271,353,87982,1,0,0:0:0:0:
271,353,88151,1,0,0:0:0:0:
424,336,88319,6,0,L|345:346,1,74.9999976158143
271,353,88993,5,0,0:0:0:0:
256,353,89077,1,0,0:0:0:0:
248,340,89161,1,0,0:0:0:0:
256,327,89245,1,0,0:0:0:0:
271,327,89330,1,0,0:0:0:0:
278,340,89414,1,0,0:0:0:0:
245,347,89498,5,0,0:0:0:0:
237,347,89582,1,0,0:0:0:0:
233,340,89666,1,0,0:0:0:0:
237,334,89750,1,0,0:0:0:0:
245,334,89835,1,0,0:0:0:0:
248,340,89919,1,0,0:0:0:0:
220,346,90004,5,0,0:0:0:0:
215,346,90088,1,0,0:0:0:0:
213,342,90172,1,0,0:0:0:0:
215,339,90256,1,0,0:0:0:0:
220,339,90341,1,0,0:0:0:0:
149,79,91017,6,0,B|218:157|252:266|252:266|281:123|410:9,1,450.000002861023
197,130,91184,2,0,P|291:112|318:92,1,112.500000715256
462,270,91521,6,0,B|383:328|314:259|320:199|320:199|261:225|272:169|251:207|168:174|160:248|158:315|219:341|253:335,1,479.999984741211
78,294,91858,5,0,0:0:0:0:
253,267,92027,1,0,0:0:0:0:
65,297,92195,5,0,0:0:0:0:
253,267,92364,1,0,0:0:0:0:
53,300,92533,5,0,0:0:0:0:
402,211,92701,1,0,0:0:0:0:
238,335,92870,2,0,B|279:353|358:317|366:245|316:213|287:162|245:142|270:88|305:2|434:41|431:133,1,479.999984741211
360,129,93207,5,0,0:0:0:0:
200,101,93375,1,0,0:0:0:0:
360,129,93544,5,0,0:0:0:0:
122,160,93712,1,0,0:0:0:0:
360,129,93881,5,0,0:0:0:0:
78,235,94049,1,0,0:0:0:0:
429,113,94218,6,0,P|420:164|289:128,1,224.999992847443
123,45,94555,1,0,0:0:0:0:
289,138,94724,6,0,B|166:150|166:150|137:195|137:195|6:210,1,299.999990463257
95,297,95061,1,0,0:0:0:0:
95,297,95229,1,0,0:0:0:0:
15,209,95398,6,0,L|185:230,1,149.999995231629
164,227,95735,6,0,P|206:274|276:250,1,112.500000715256
333,331,96072,5,0,0:0:0:0:
351,333,96156,1,0,0:0:0:0:
369,330,96240,1,0,0:0:0:0:
386,321,96325,1,0,0:0:0:0:
398,307,96409,1,0,0:0:0:0:
220,166,96578,1,0,0:0:0:0:
96,353,96746,1,0,0:0:0:0:
50,114,96915,6,0,B|129:56|198:125|192:185|192:185|251:159|240:215|261:177|344:210|352:136|354:69|293:43|259:49,1,479.999984741211
241,269,97252,5,0,0:0:0:0:
259,117,97421,1,0,0:0:0:0:
107,169,97589,1,0,0:0:0:0:
241,269,97757,5,0,0:0:0:0:
259,117,97926,1,0,0:0:0:0:
107,169,98094,1,0,0:0:0:0:
274,49,98264,6,0,B|233:31|154:67|146:139|196:171|225:222|267:242|242:296|207:382|78:343|81:251,1,479.999984741211
152,255,98601,5,0,0:0:0:0:
341,278,98769,1,0,0:0:0:0:
259,117,98937,1,0,0:0:0:0:
152,255,99106,5,0,0:0:0:0:
341,278,99274,1,0,0:0:0:0:
259,117,99442,1,0,0:0:0:0:
83,271,99612,6,0,P|92:220|223:256,1,224.999992847443
389,339,99949,1,0,0:0:0:0:
223,246,100118,6,0,B|346:234|346:234|375:189|375:189|506:174,1,299.999990463257
417,87,100455,1,0,0:0:0:0:
417,87,100623,1,0,0:0:0:0:
497,175,100792,6,0,L|327:154,1,149.999995231629
348,157,101129,6,0,P|306:110|236:134,1,112.500000715256
87,199,101465,5,0,0:0:0:0:
87,199,101549,1,0,0:0:0:0:
87,199,101634,1,0,0:0:0:0:
87,199,101718,1,0,0:0:0:0:
87,199,101802,1,0,0:0:0:0:
446,273,101971,1,0,0:0:0:0:
301,310,102308,6,0,L|452:272,1,149.999995231629
170,344,102645,6,0,L|233:328,1,56.2500003576279
418,192,102982,2,0,L|363:205,1,56.2500003576279
287,224,103319,1,0,0:0:0:0:
355,336,103488,1,0,0:0:0:0:
485,342,103656,6,0,L|37:204,1,450.000002861023
25,286,103993,6,0,L|473:148,1,450.000002861023
485,229,104330,6,0,L|37:91,1,450.000002861023
25,173,104667,6,0,L|473:35,1,450.000002861023
347,278,104836,1,0,0:0:0:0:
455,40,105004,6,0,P|410:32|362:111,1,149.999995231629
231,173,105342,1,0,0:0:0:0:
429,268,105510,2,0,P|440:239|449:192,1,56.2500003576279
231,173,105847,2,0,P|237:200|247:226,1,56.2500003576279
295,331,106184,1,0,0:0:0:0:
361,110,106353,6,0,P|345:261|98:227,1,450.000002861023
102,236,106690,6,0,P|118:85|365:119,1,450.000002861023
442,137,107027,1,0,0:0:0:0:
231,173,107195,1,0,0:0:0:0:
231,173,107280,1,0,0:0:0:0:
231,173,107364,1,0,0:0:0:0:
231,173,107448,1,0,0:0:0:0:
231,173,107533,1,0,0:0:0:0:
462,270,107701,6,0,B|383:328|314:259|320:199|320:199|261:225|272:169|251:207|168:174|160:248|158:315|219:341|253:335,1,479.999984741211
254,267,108038,5,0,0:0:0:0:
43,293,108207,2,0,L|122:282,1,59.9999980926514
254,267,108544,5,0,0:0:0:0:
34,295,108713,2,0,L|113:306,1,59.9999980926514
238,335,109050,2,0,B|279:353|358:317|366:245|316:213|287:162|245:142|270:88|305:2|434:41|431:133,1,479.999984741211
360,131,109387,5,0,0:0:0:0:
466,286,109555,2,0,P|486:255|489:215,1,59.9999980926514
360,131,109892,5,0,0:0:0:0:
492,271,110061,2,0,P|489:234|467:200,1,59.9999980926514
429,113,110398,6,0,P|411:60|260:94,1,224.999992847443
269,69,110903,6,0,P|172:108|109:24,1,224.999992847443
33,214,111578,1,0,0:0:0:0:
193,332,111746,6,0,L|34:308,1,149.999995231629
44,309,112083,6,0,L|373:265,1,299.999990463257
341,269,112420,6,0,L|182:245,1,149.999995231629
192,246,112757,6,0,L|520:201,1,299.999990463257
489,205,113094,6,0,L|381:188,1,104.99999666214
332,111,113600,1,0,0:0:0:0:
332,111,113937,1,0,0:0:0:0:
385,188,114274,6,0,L|407:354,1,149.999995231629
475,111,114611,5,0,0:0:0:0:
316,249,114780,1,0,0:0:0:0:
483,104,114948,5,0,0:0:0:0:
216,156,115117,1,0,0:0:0:0:
491,99,115285,5,0,0:0:0:0:
111,54,115454,1,0,0:0:0:0:
111,54,115791,6,0,P|138:149|465:172,1,460.624987114271
356,314,117291,6,0,P|424:268|448:189,1,167.49999531428
